<?xml version="1.0" standalone="no"?>
<!DOCTYPE svg PUBLIC "-//W3C//DTD SVG 1.1//EN" "http://www.w3.org/Graphics/SVG/1.1/DTD/svg11.dtd" >
<svg xmlns="http://www.w3.org/2000/svg" xmlns:xlink="http://www.w3.org/1999/xlink" version="1.1">
<metadata>
Created by FontForge 20170731 at Mon Jun 27 16:03:37 2022
 By Aleksey,,,
Copyright (c) 2013 by Dino dos Santos. All rights reserved.
</metadata>
<defs>
<font id="BreveSansText-SemiBold" horiz-adv-x="1118" >
  <font-face 
    font-family="BreveSansText-SemiBold"
    font-weight="400"
    font-stretch="normal"
    units-per-em="2048"
    panose-1="0 0 7 0 0 0 0 0 0 0"
    ascent="1638"
    descent="-410"
    x-height="1024"
    cap-height="1393"
    bbox="-373 -575 2126 1872"
    underline-thickness="102"
    underline-position="-204"
    unicode-range="U+0020-2212"
  />
<missing-glyph horiz-adv-x="1124" 
d="M133 0v1024h858v-1024h-858zM950 999h-774l389 -469zM549 510l-393 483v-960zM580 510l391 -473v952zM946 25l-381 467l-385 -467h766z" />
    <glyph glyph-name="fi" unicode="fi" horiz-adv-x="1200" 
d="M162 1024v63q0 108 26 180q26 73 71 118t117 69q78 26 147 33q80 8 182 8v-209l-33 -14q-67 16 -115 16q-123 0 -123 -143v-121h225v-190h-225v-834h-272v834h-111v106zM793 1303q0 57 41 96q40 39 106 39t108 -39t42 -96q0 -58 -41 -96t-109 -38q-65 0 -106 38t-41 96z
M1077 1024v-1024h-270v1024h270z" />
    <glyph glyph-name="fl" unicode="fl" horiz-adv-x="1234" 
d="M162 1024v63q0 108 26 180q26 73 71 118t117 69q78 26 147 33q80 8 182 8v-209l-33 -14q-67 16 -115 16q-123 0 -123 -143v-121h225v-190h-225v-834h-272v834h-111v106zM997 1475h76v-1223q0 -86 62 -86q33 0 65 14v-168q-65 -32 -178 -32q-93 0 -157 44q-62 43 -62 136
v1233z" />
    <glyph glyph-name=".notdef" horiz-adv-x="1124" 
d="M133 0v1024h858v-1024h-858zM950 999h-774l389 -469zM549 510l-393 483v-960zM580 510l391 -473v952zM946 25l-381 467l-385 -467h766z" />
    <glyph glyph-name=".null" horiz-adv-x="0" 
 />
    <glyph glyph-name="nonmarkingreturn" horiz-adv-x="681" 
 />
    <glyph glyph-name="space" unicode=" " horiz-adv-x="438" 
 />
    <glyph glyph-name="exclam" unicode="!" horiz-adv-x="534" 
d="M119 1393h295l-68 -1026h-160zM145 109q0 53 37 90t88 37q52 0 90 -38q37 -37 37 -89q0 -55 -37 -92t-90 -37q-51 0 -88 37t-37 92z" />
    <glyph glyph-name="quotedbl" unicode="&#x22;" horiz-adv-x="845" 
d="M98 1393h256l-41 -471h-174zM492 1393h256l-41 -471h-175z" />
    <glyph glyph-name="numbersign" unicode="#" horiz-adv-x="1077" 
d="M768 608v-131h213v-160h-213v-235h-160v235h-139v-235h-160v235h-213v160h213v131h-213v160h213v236h160v-236h139v236h160v-236h213v-160h-213zM608 608h-139v-131h139v131z" />
    <glyph glyph-name="dollar" unicode="$" horiz-adv-x="1099" 
d="M1024 387q0 -178 -125 -288q-123 -108 -328 -119l-6 -82h-127l6 86q-193 17 -354 94v248q216 -98 371 -113l28 373q-51 23 -111 53q-39 19 -99 61q-68 47 -96 83q-31 40 -57 104t-26 139q0 182 128 284q127 101 321 103l6 82h127l-6 -88q158 -16 313 -90v-246
q-165 89 -330 107l-24 -332q71 -34 110 -55q38 -21 101 -65q60 -43 94 -87q32 -43 58 -109q26 -67 26 -143zM397 1055q0 -79 115 -146l20 273q-68 -7 -102 -44q-33 -36 -33 -83zM610 520l-22 -307q139 22 139 147q0 91 -117 160z" />
    <glyph glyph-name="percent" unicode="%" horiz-adv-x="1513" 
d="M340 649q-149 0 -212 99q-62 97 -62 284q0 186 62 278q63 93 212 93q147 0 210 -93q62 -92 62 -278q0 -187 -62 -284q-63 -99 -210 -99zM1100 1393h221l-483 -666l-107 41zM340 1288q-73 0 -100 -57t-27 -199q0 -141 28 -206q27 -62 99 -62t99 63q28 65 28 205
q0 137 -28 198q-27 58 -99 58zM1174 -10q-148 0 -210 98q-63 99 -63 285q0 184 63 277t210 93q148 0 211 -94q63 -95 63 -276q0 -184 -64 -285q-62 -98 -210 -98zM406 0h-224l496 686l106 -41zM1174 629q-73 0 -100 -59q-27 -58 -27 -197q0 -142 27 -205q27 -64 100 -64
q72 0 99 63t27 206t-26 198q-27 58 -100 58z" />
    <glyph glyph-name="ampersand" unicode="&#x26;" horiz-adv-x="1353" 
d="M1311 53v-53h-303l-66 70q-156 -90 -360 -90q-238 0 -368 105t-130 284q0 215 223 383q-110 156 -110 295q0 178 120 271q122 95 332 95q216 0 322 -89q104 -88 104 -218q0 -78 -39 -149t-104 -105h-205q94 88 94 192q0 65 -43 105q-44 41 -125 41q-92 0 -137 -42
t-45 -106q0 -55 33 -112q35 -60 70 -101q28 -33 161 -172l228 -237q59 127 59 309h244q0 -294 -136 -487zM608 203q94 0 172 35l-309 323l-29 29q-80 -78 -80 -180q0 -94 65 -151q63 -56 181 -56z" />
    <glyph glyph-name="quotesingle" unicode="'" horiz-adv-x="452" 
d="M98 1393h256l-41 -471h-174z" />
    <glyph glyph-name="parenleft" unicode="(" horiz-adv-x="628" 
d="M78 696q0 274 100 495q99 220 275 365h139q-227 -329 -227 -860t227 -860h-139q-175 145 -275 366t-100 494z" />
    <glyph glyph-name="parenright" unicode=")" horiz-adv-x="628" 
d="M551 696q0 -273 -100 -494t-275 -366h-139q227 333 227 860t-227 860h139q176 -145 275 -365q100 -221 100 -495z" />
    <glyph glyph-name="asterisk" unicode="*" horiz-adv-x="735" 
d="M160 1327q18 18 39 19q24 2 41 -13q4 -4 110 -178q-9 49 -17 83q-17 67 -20 82q-8 37 -8 42q0 20 20 35q18 14 42 14t41 -14q18 -15 18 -35q0 -10 -7 -42q-10 -45 -19 -83q-6 -24 -17 -80q11 16 40 66q23 38 45 73q20 31 26 37q17 15 38 14q22 -1 39 -18q18 -18 19 -39
q2 -24 -14 -41q-9 -9 -177 -112q49 9 82 17q47 12 81 21t42 9q21 0 36 -20t15 -42q0 -23 -15 -41t-36 -18q-10 0 -41 7q-11 3 -38 8.5t-43 8.5q-62 13 -81 17q8 -5 30.5 -18.5t36.5 -21.5q16 -10 41.5 -25t30.5 -18q28 -16 35 -24q15 -17 14 -40q-1 -22 -18 -39
q-18 -18 -40 -19q-24 -1 -39 14q-7 5 -111 172q6 -31 18 -79q3 -10 10.5 -38.5t10.5 -41.5q8 -35 8 -41q0 -21 -19 -36t-42 -15t-41 15q-19 16 -19 36q0 10 7 41q3 12 9 39t9 41q8 37 16 79q-16 -24 -40 -65q-34 -58 -43 -73q-19 -32 -23 -36q-15 -14 -40 -12q-22 1 -40 19
t-19 38q-2 23 15 41q3 3 174 109q-49 -9 -83 -17q-70 -17 -81 -20q-35 -8 -41 -8q-20 0 -35 19q-14 18 -14 42t14 41q16 19 35 19q5 0 42 -8q11 -2 38 -8.5t44 -10.5q34 -8 81 -16q-170 102 -176 110q-15 17 -14 39q2 22 18 39z" />
    <glyph glyph-name="plus" unicode="+" horiz-adv-x="866" 
d="M778 459h-262v-260h-166v260h-262v168h262v260h166v-260h262v-168z" />
    <glyph glyph-name="comma" unicode="," horiz-adv-x="473" 
d="M109 -256l106 236q-44 0 -80 33q-37 34 -37 96q0 53 39 91q40 38 96 38q67 0 105 -47q37 -46 37 -109q0 -125 -150 -338h-116z" />
    <glyph glyph-name="hyphen" unicode="-" horiz-adv-x="921" 
d="M117 492v165h688v-165h-688z" />
    <glyph glyph-name="period" unicode="." horiz-adv-x="446" 
d="M96 109q0 51 38 89t89 38t88 -37t37 -90q0 -55 -37 -92t-88 -37q-53 0 -90 37t-37 92z" />
    <glyph glyph-name="slash" unicode="/" horiz-adv-x="620" 
d="M565 1434l-317 -1475h-193l318 1475h192z" />
    <glyph glyph-name="zero" unicode="0" horiz-adv-x="1282" 
d="M641 -20q-302 0 -427 185q-126 186 -126 542q0 352 126 529t427 177t426 -177q125 -178 125 -529q0 -356 -126 -542q-125 -185 -425 -185zM641 1184q-147 0 -202 -106q-54 -105 -54 -371q0 -270 55 -383q56 -115 201 -115q146 0 200 114t54 384q0 265 -53 371t-201 106z
" />
    <glyph glyph-name="one" unicode="1" horiz-adv-x="708" 
d="M258 0v1153h-205v199l324 51h168v-1403h-287z" />
    <glyph glyph-name="two" unicode="2" horiz-adv-x="1140" 
d="M1051 240l-21 -240h-948v240q342 220 501 378q162 161 162 320q0 246 -260 246q-180 0 -364 -113v246q195 96 424 96q230 0 364 -110q135 -111 135 -349q0 -77 -20 -141q-22 -72 -49 -121q-29 -54 -84 -110q-64 -65 -98 -95q-43 -37 -120 -87q-69 -45 -123 -76
q-70 -41 -130 -76v-8h631z" />
    <glyph glyph-name="three" unicode="3" horiz-adv-x="1157" 
d="M743 727v-10q151 -23 240 -108q88 -85 88 -216q0 -203 -147 -308t-392 -105q-235 0 -444 98v248q202 -117 408 -117q124 0 203 49t79 145q0 197 -344 197h-153v213h153q324 0 324 197q0 90 -76 132t-176 42q-167 0 -387 -107v242q191 94 430 94q216 0 356 -95
q139 -94 139 -263q0 -135 -77 -216q-79 -84 -224 -112z" />
    <glyph glyph-name="four" unicode="4" horiz-adv-x="1214" 
d="M1143 252h-156v-252h-287v252h-645v252l680 899h252v-911h156v-240zM700 492v464l-362 -464h362z" />
    <glyph glyph-name="five" unicode="5" 
d="M360 1153v-256q69 14 162 14q105 0 195 -24q86 -23 165 -75q72 -48 117 -142q43 -90 43 -215q0 -230 -141 -353q-140 -122 -377 -122q-236 0 -436 98v248q212 -117 381 -117q276 0 276 233q0 131 -78 184q-79 54 -237 54q-116 0 -291 -39v752h852v-240h-631z" />
    <glyph glyph-name="six" unicode="6" horiz-adv-x="1204" 
d="M674 922q216 0 335 -126q117 -124 117 -329q0 -208 -134 -348q-133 -139 -376 -139q-276 0 -402 176t-126 479q0 388 150 583t440 195q216 0 387 -98v-244q-167 113 -352 113q-140 0 -212 -79q-74 -82 -98 -247q143 64 271 64zM623 209q107 0 157 72q49 71 49 186
q0 125 -55 189q-56 65 -188 65q-91 0 -197 -41v-68q0 -196 51 -300q51 -103 183 -103z" />
    <glyph glyph-name="seven" unicode="7" horiz-adv-x="1064" 
d="M586 0h-342q0 292 142 594q143 304 392 559h-723v240h971v-207q-211 -259 -326 -576q-114 -315 -114 -610z" />
    <glyph glyph-name="eight" unicode="8" horiz-adv-x="1220" 
d="M879 735q258 -129 258 -348q0 -185 -153 -297q-154 -113 -384 -113q-254 0 -385 101t-131 266q0 103 61 197t172 151q-202 124 -202 326q0 175 140 285t366 110q242 0 364 -98q123 -99 123 -244q0 -225 -229 -336zM637 1190q-90 0 -141 -42q-52 -43 -52 -112
q0 -76 66 -124q65 -47 199 -103q116 91 116 221q0 74 -52 117t-136 43zM590 201q97 0 158 47q59 46 59 125q0 16 -5 36q-3 14 -18 32q-20 25 -23 28q-13 13 -34 27q-12 8 -37 23q-18 11 -45 23q-9 4 -18 7.5t-17.5 7.5t-12.5 5q-4 2 -22 9.5t-31 13.5q-39 16 -52 21
q-119 -107 -119 -235q0 -77 59 -123q61 -47 158 -47z" />
    <glyph glyph-name="nine" unicode="9" horiz-adv-x="1204" 
d="M588 1413q276 0 403 -177q127 -176 127 -478q0 -388 -150 -583t-442 -195q-216 0 -387 98v244q167 -113 353 -113q139 0 211 79q74 82 98 247q-143 -64 -271 -64q-216 0 -334 126q-118 125 -118 329q0 208 134 348q133 139 376 139zM618 672q91 0 197 41v67
q0 196 -51 300t-182 104q-108 0 -158 -72q-49 -71 -49 -186q0 -126 55 -190t188 -64z" />
    <glyph glyph-name="colon" unicode=":" horiz-adv-x="483" 
d="M117 688q0 53 37 90t88 37t88 -37t37 -90q0 -54 -37 -91q-38 -38 -88 -38t-88 38q-37 37 -37 91zM117 109q0 53 37 90t88 37t88 -37t37 -90q0 -55 -37 -92t-88 -37t-88 37t-37 92z" />
    <glyph glyph-name="semicolon" unicode=";" horiz-adv-x="516" 
d="M127 688q0 53 37 90t88 37q50 0 88 -38q37 -37 37 -89q0 -54 -37 -91q-38 -38 -88 -38t-88 38q-37 37 -37 91zM131 -256l105 236q-42 0 -78 33q-37 34 -37 96q0 54 38 92q37 37 95 37q69 0 105 -47t36 -109q0 -126 -149 -338h-115z" />
    <glyph glyph-name="less" unicode="&#x3c;" horiz-adv-x="868" 
d="M750 432v-176l-662 244v188l662 244v-176l-443 -162z" />
    <glyph glyph-name="equal" unicode="=" horiz-adv-x="915" 
d="M115 614v166h688v-166h-688zM115 305v166h688v-166h-688z" />
    <glyph glyph-name="greater" unicode="&#x3e;" horiz-adv-x="868" 
d="M119 756v176l661 -244v-188l-661 -244v176l442 162z" />
    <glyph glyph-name="question" unicode="?" horiz-adv-x="1009" 
d="M946 1001q0 -428 -473 -428l-16 -206h-160l-25 376q182 0 285 53q102 52 102 187q0 89 -54 145t-165 56q-160 0 -368 -113v246q195 96 417 96q207 0 332 -108t125 -304zM250 109q0 53 37 90t88 37t89 -38t38 -89q0 -55 -37 -92t-90 -37q-51 0 -88 37t-37 92z" />
    <glyph glyph-name="at" unicode="@" horiz-adv-x="1640" 
d="M1169 874q-86 -463 -86 -514q0 -108 84 -108q91 0 148 90t57 289q0 235 -147 348q-148 113 -371 113q-287 0 -440 -167q-154 -168 -154 -448q0 -287 164 -422t457 -135q271 0 465 121v-145q-193 -134 -515 -134q-335 0 -543 198t-208 529q0 319 212 540q211 220 564 220
q293 0 493 -165q199 -165 199 -455q0 -222 -118 -374q-118 -153 -316 -153q-181 0 -211 144l-117 -111q-51 -33 -118 -33q-93 0 -150 79t-57 210q0 261 91 395q92 136 304 136q152 0 313 -48zM891 352l61 404q-66 24 -123 24q-84 0 -129 -82t-45 -293q0 -71 21 -103t67 -32
q57 0 148 82z" />
    <glyph glyph-name="A" unicode="A" horiz-adv-x="1236" 
d="M1200 53v-53h-285l-90 315h-430l-90 -315h-272v53l409 1350h359zM756 555l-72 248q-38 132 -72 291h-2q-30 -145 -73 -291l-72 -248h291z" />
    <glyph glyph-name="B" unicode="B" horiz-adv-x="1222" 
d="M905 723v-4q102 -35 172 -121q70 -87 70 -213q0 -181 -117 -283t-319 -102h-570v1393h535q197 0 309 -97q111 -96 111 -266q0 -106 -54 -189q-52 -80 -137 -118zM428 834h219q79 0 120 40q42 40 42 119q0 77 -41 120q-40 42 -117 40h-223v-319zM428 240h242q84 -2 132 42
t48 138q0 88 -51 132q-52 44 -137 44h-234v-356z" />
    <glyph glyph-name="C" unicode="C" horiz-adv-x="1189" 
d="M82 696q0 348 144 533q144 184 464 184q212 0 418 -98v-244q-208 113 -418 113q-179 0 -245 -125t-66 -363t66 -362q66 -125 245 -125q237 0 438 123l-20 -254q-206 -98 -418 -98q-320 0 -464 184t-144 532z" />
    <glyph glyph-name="D" unicode="D" horiz-adv-x="1339" 
d="M141 1393h521q314 0 454 -171q139 -170 139 -515q0 -351 -140 -528q-141 -179 -453 -179h-521v1393zM428 240h234q165 0 231 103q65 102 65 364q0 257 -64 351q-65 95 -232 95h-234v-913z" />
    <glyph glyph-name="E" unicode="E" horiz-adv-x="1142" 
d="M428 1153v-319h535v-238h-535v-356h643l-20 -240h-910v1393h914v-240h-627z" />
    <glyph glyph-name="F" unicode="F" horiz-adv-x="1124" 
d="M428 1153v-362h535v-240h-535v-551h-287v1393h914v-240h-627z" />
    <glyph glyph-name="G" unicode="G" horiz-adv-x="1218" 
d="M690 1184q-179 0 -245 -125t-66 -363t66 -362q66 -125 245 -125q62 0 131 10v295h-192v238h479v-674q-206 -98 -418 -98q-320 0 -464 184t-144 532t144 533q144 184 464 184q212 0 418 -98v-244q-208 113 -418 113z" />
    <glyph glyph-name="H" unicode="H" horiz-adv-x="1329" 
d="M428 1393v-559h473v559h287v-1393h-287v596h-473v-596h-287v1393h287z" />
    <glyph glyph-name="I" unicode="I" horiz-adv-x="569" 
d="M428 1393v-1393h-287v1393h287z" />
    <glyph glyph-name="J" unicode="J" horiz-adv-x="575" 
d="M434 1393v-1301q0 -81 -13 -142t-51 -128q-38 -66 -117 -114q-81 -49 -198 -77l-88 213q58 22 100 53q38 27 54 61q17 35 21 61q5 30 5 73v1301h287z" />
    <glyph glyph-name="K" unicode="K" horiz-adv-x="1263" 
d="M428 1393v-1393h-287v1393h287zM934 1393h289v-54l-430 -624l440 -662v-53h-305l-439 666v75z" />
    <glyph glyph-name="L" unicode="L" horiz-adv-x="1087" 
d="M1051 240l-21 -240h-889v1393h287v-1153h623z" />
    <glyph glyph-name="M" unicode="M" horiz-adv-x="1583" 
d="M1165 0v506q0 248 17 440h-11l-282 -696h-207l-283 696h-10q17 -192 17 -440v-506h-265v1393h377l197 -496q51 -136 78 -238h8q42 156 73 238l189 496h379v-1393h-277z" />
    <glyph glyph-name="N" unicode="N" horiz-adv-x="1329" 
d="M428 1393l496 -873h10q-16 179 -16 438v435h270v-1393h-287l-495 872h-11q17 -190 17 -438v-434h-271v1393h287z" />
    <glyph glyph-name="O" unicode="O" horiz-adv-x="1349" 
d="M674 -20q-311 0 -452 187q-140 186 -140 540q0 350 140 527q141 179 452 179q312 0 453 -179q141 -178 141 -527q0 -727 -594 -727zM674 1184q-164 0 -230 -108q-65 -106 -65 -369q0 -264 66 -381t229 -117q164 0 230 117q67 119 67 381q0 261 -66 369t-231 108z" />
    <glyph glyph-name="P" unicode="P" horiz-adv-x="1193" 
d="M141 1393h477q523 0 523 -439q0 -454 -523 -454h-190v-500h-287v1393zM428 739h190q126 0 176 52t50 163q0 109 -49 154t-177 45h-190v-414z" />
    <glyph glyph-name="Q" unicode="Q" horiz-adv-x="1349" 
d="M834 -6q24 -93 99 -133q76 -41 234 -41l-20 -191q-302 0 -438 77q-135 76 -174 284q-453 80 -453 717q0 350 140 527q141 179 452 179q312 0 453 -179q141 -178 141 -527q0 -624 -434 -713zM379 707q0 -264 66 -381t229 -117q164 0 230 117q67 119 67 381q0 261 -66 369
t-231 108q-164 0 -230 -108q-65 -106 -65 -369z" />
    <glyph glyph-name="R" unicode="R" horiz-adv-x="1249" 
d="M1190 53v-53h-299l-156 393q-28 68 -66 102q-39 35 -124 35h-117v-530h-287v1393h477q523 0 523 -426q0 -293 -238 -389v-9q102 -40 168 -209zM428 770h190q126 0 176 47t50 150q0 100 -49 143t-177 43h-190v-383z" />
    <glyph glyph-name="S" unicode="S" horiz-adv-x="1093" 
d="M94 1026q0 183 129 285t324 102q229 0 436 -96v-246q-208 113 -414 113q-92 0 -135 -37t-43 -92q0 -61 65 -111q63 -48 156 -91q97 -45 185 -95q89 -51 156 -149q65 -95 65 -222q0 -186 -136 -297q-135 -110 -354 -110q-244 0 -444 98v248q257 -117 436 -117
q201 0 201 151q0 70 -65 123q-69 56 -156 96q-99 45 -185 92q-91 49 -156 140t-65 215z" />
    <glyph glyph-name="T" unicode="T" horiz-adv-x="1085" 
d="M399 0v1153h-346v240h979v-240h-346v-1153h-287z" />
    <glyph glyph-name="U" unicode="U" horiz-adv-x="1312" 
d="M655 -20q-239 0 -382 118q-144 118 -144 375v920h287v-920q0 -113 58 -187q58 -75 181 -75t183 76q59 75 59 186v920h287v-920q0 -257 -144 -376q-142 -117 -385 -117z" />
    <glyph glyph-name="V" unicode="V" horiz-adv-x="1247" 
d="M434 -10l-393 1349v54h289l227 -801q35 -113 72 -293h4q33 164 72 293l229 801h274v-54l-401 -1349h-373z" />
    <glyph glyph-name="W" unicode="W" horiz-adv-x="1863" 
d="M1817 1393v-54l-342 -1349h-371l-172 768l-178 -768h-371l-332 1349v54h283l182 -801q31 -134 59 -297h3q6 37 65 297l170 801h264l164 -801q35 -164 57 -297h2q23 132 62 297l190 801h265z" />
    <glyph glyph-name="X" unicode="X" horiz-adv-x="1167" 
d="M1145 53v-53h-305l-275 469l-250 -469h-288v53l383 682l-353 604v54h303l242 -412l213 412h289v-54l-344 -626z" />
    <glyph glyph-name="Y" unicode="Y" horiz-adv-x="1181" 
d="M1157 1339l-426 -888v-451h-287v461l-413 878v54h286l187 -418q57 -127 94 -234h4q49 143 90 234l191 418h274v-54z" />
    <glyph glyph-name="Z" unicode="Z" horiz-adv-x="1079" 
d="M1022 240l-21 -240h-942v207l594 946h-555v240h891v-207l-588 -946h621z" />
    <glyph glyph-name="bracketleft" unicode="[" horiz-adv-x="690" 
d="M625 1556v-165h-191v-1389h191v-166h-478v1720h478z" />
    <glyph glyph-name="backslash" unicode="\" horiz-adv-x="620" 
d="M565 -41h-190l-320 1475h193z" />
    <glyph glyph-name="bracketright" unicode="]" horiz-adv-x="690" 
d="M66 -164v166h190v1389h-190v165h477v-1720h-477z" />
    <glyph glyph-name="asciicircum" unicode="^" horiz-adv-x="790" 
d="M94 1126l244 357h113l245 -357h-147l-154 168l-153 -168h-148z" />
    <glyph glyph-name="underscore" unicode="_" 
d="M117 -242v166h884v-166h-884z" />
    <glyph glyph-name="grave" unicode="`" horiz-adv-x="747" 
d="M541 1126l-289 107q-78 27 -78 98q0 39 28 65q26 25 70 25q45 0 97 -41l217 -163z" />
    <glyph glyph-name="a" unicode="a" horiz-adv-x="1073" 
d="M647 137l-125 -108q-79 -49 -178 -49q-131 0 -210 75q-81 77 -81 193q0 231 307 297l287 59v82q0 174 -188 174q-134 0 -303 -74l-27 27l70 178q164 53 323 53q181 0 288 -77q108 -78 108 -219v-496q0 -86 61 -86q30 0 65 14v-147q-77 -53 -194 -53q-173 0 -203 157z
M647 477l-217 -61q-96 -30 -96 -121q0 -55 37 -85t92 -30q100 0 184 88v209z" />
    <glyph glyph-name="b" unicode="b" horiz-adv-x="1136" 
d="M696 1044q173 0 270 -146t97 -386q0 -248 -126 -390t-341 -142q-163 0 -299 86l-84 -76h-90v1403l194 82h76v-588l123 108q82 49 180 49zM561 143q120 0 173 95q52 94 52 274q0 178 -54 257t-165 79q-102 0 -174 -72v-594q89 -39 168 -39z" />
    <glyph glyph-name="c" unicode="c" horiz-adv-x="966" 
d="M594 848q-122 0 -184 -93q-62 -94 -62 -243q0 -336 262 -336q135 0 281 86v-201q-141 -81 -338 -81q-232 0 -356 143q-125 145 -125 389t131 389q130 143 375 143q172 0 329 -63l-47 -166l-29 -27q-128 60 -237 60z" />
    <glyph glyph-name="d" unicode="d" horiz-adv-x="1138" 
d="M1016 1475v-1475h-260l-11 137l-122 -108q-79 -49 -179 -49q-172 0 -270 146t-98 386q0 248 117 390t307 142q133 0 245 -67v416l197 82h74zM571 176q88 0 174 80v561q-80 47 -174 47q-219 0 -219 -352q0 -177 56 -257q55 -79 163 -79z" />
    <glyph glyph-name="e" unicode="e" horiz-adv-x="1075" 
d="M1008 666q0 -81 -29 -211h-629q12 -141 90 -210t195 -69q74 0 167 26q89 25 150 60v-201q-141 -81 -372 -81q-242 0 -375 144q-133 143 -133 388q0 244 131 389q130 143 375 143q86 0 158 -18q75 -19 136 -58q65 -42 100 -118q36 -78 36 -184zM352 588l389 12q9 47 9 80
q0 101 -51 141q-49 39 -113 39q-212 0 -234 -272z" />
    <glyph glyph-name="f" unicode="f" horiz-adv-x="684" 
d="M162 1024v63q0 108 26 180q26 73 71 118t117 69q78 26 147 33q80 8 182 8v-209l-33 -14q-67 16 -115 16q-125 0 -125 -143v-121h225v-190h-225v-834h-270v834h-111v106z" />
    <glyph glyph-name="g" unicode="g" horiz-adv-x="1069" 
d="M367 211l381 -39q142 -15 219 -86t77 -201q0 -155 -128 -256q-127 -100 -412 -100q-245 0 -362 67q-115 66 -115 171q0 101 108 184l115 -33l-14 -74q0 -81 64 -114t194 -33q280 0 280 139q0 48 -26 70t-91 28l-362 35q-89 7 -132 55q-42 47 -42 107q0 125 162 219
q-203 92 -203 338q0 165 110 260q111 96 316 96q94 0 168 -18l336 18v-157h-125q53 -83 53 -199q0 -181 -111 -280t-317 -99q-48 0 -88 6zM502 870q-84 0 -126 -50t-42 -124q0 -213 182 -213q166 0 166 195q0 93 -46 142q-47 50 -134 50z" />
    <glyph glyph-name="h" unicode="h" 
d="M397 879l99 106q103 59 215 59q129 0 211 -76t82 -223v-745h-271v692q0 142 -127 142q-85 0 -213 -76v-758h-270v1393l194 82h76v-596h4z" />
    <glyph glyph-name="i" unicode="i" horiz-adv-x="516" 
d="M109 1303q0 57 41 96q40 39 106 39t108 -39t42 -96q0 -58 -41 -96t-109 -38q-65 0 -106 38t-41 96zM393 1024v-1024h-270v1024h270z" />
    <glyph glyph-name="j" unicode="j" horiz-adv-x="516" 
d="M109 1303q0 57 41 96q40 39 106 39t108 -39t42 -96q0 -58 -41 -96t-109 -38q-65 0 -106 38t-41 96zM395 1024v-1001q0 -163 -67 -276q-68 -114 -252 -198l-109 160q98 62 128 123q30 60 30 191v1001h270z" />
    <glyph glyph-name="k" unicode="k" horiz-adv-x="1110" 
d="M317 1475h76v-1475h-270v1393zM807 0l-373 532l365 492h243v-53l-317 -416l358 -502v-53h-276z" />
    <glyph glyph-name="l" unicode="l" horiz-adv-x="550" 
d="M313 1475h76v-1223q0 -86 62 -86q33 0 65 14v-168q-65 -32 -178 -32q-93 0 -157 44q-62 43 -62 136v1233z" />
    <glyph glyph-name="m" unicode="m" horiz-adv-x="1712" 
d="M981 862l109 123q103 59 215 59q129 0 211 -76q81 -75 81 -223v-745h-270v692q0 142 -127 142q-77 0 -205 -76v-758h-270v692q0 142 -123 142q-81 0 -209 -76v-758h-270v1024h260l10 -145h4l99 106q103 59 215 59q101 0 171 -46q71 -47 95 -136h4z" />
    <glyph glyph-name="n" unicode="n" 
d="M393 879h4l99 106q103 59 215 59q129 0 211 -76t82 -223v-745h-271v692q0 142 -127 142q-85 0 -213 -76v-758h-270v1024h260z" />
    <glyph glyph-name="o" unicode="o" 
d="M559 -20q-237 0 -361 140t-124 392t124 392t361 140q238 0 362 -140q123 -139 123 -392t-123 -392q-124 -140 -362 -140zM559 860q-115 0 -162 -87q-47 -88 -47 -261t47 -261q47 -87 162 -87t162 87q47 88 47 261t-47 261q-47 87 -162 87z" />
    <glyph glyph-name="p" unicode="p" horiz-adv-x="1138" 
d="M696 1044q173 0 270 -146t97 -386q0 -248 -117 -390t-307 -142q-133 0 -246 69v-500h-270v1475h260l10 -137l123 108q82 49 180 49zM567 160q219 0 219 352q0 178 -54 257t-165 79q-82 0 -174 -80v-561q85 -47 174 -47z" />
    <glyph glyph-name="q" unicode="q" horiz-adv-x="1136" 
d="M1014 1034v-1485h-271v588l-122 -108q-79 -49 -179 -49q-172 0 -270 146t-98 386q0 248 126 390t341 142q172 0 305 -88l94 78h74zM569 176q107 0 174 72v596q-87 37 -168 37q-225 0 -225 -369q0 -177 56 -257q55 -79 163 -79z" />
    <glyph glyph-name="r" unicode="r" horiz-adv-x="806" 
d="M393 838h4l99 151q73 55 174 55q52 0 121 -18l-86 -238q-54 13 -99 13q-121 0 -213 -92v-709h-270v1024h260z" />
    <glyph glyph-name="s" unicode="s" horiz-adv-x="901" 
d="M481 848q-127 0 -127 -86q0 -41 50 -74q47 -31 122 -61q67 -27 144 -65q73 -36 122 -102q50 -67 50 -159q0 -146 -106 -234q-105 -87 -279 -87q-193 0 -357 71l-26 211q181 -86 354 -86q70 0 104 29q33 29 33 69q0 43 -49 77q-50 35 -121 63q-77 31 -142 65
q-71 38 -120 106t-49 165q0 144 112 220q110 74 273 74q175 0 332 -63l-47 -166l-29 -27q-129 60 -244 60z" />
    <glyph glyph-name="t" unicode="t" horiz-adv-x="714" 
d="M49 834v106l107 84l184 227h86v-227h231v-190h-231v-543q0 -105 113 -105q64 0 123 25v-195q-91 -36 -207 -36q-157 0 -228 61t-71 211v582h-107z" />
    <glyph glyph-name="u" unicode="u" 
d="M725 145h-4l-98 -106q-103 -59 -215 -59q-129 0 -211 76t-82 223v745h270v-692q0 -142 127 -142q85 0 213 76v758h270v-1024h-260z" />
    <glyph glyph-name="v" unicode="v" horiz-adv-x="1048" 
d="M692 -10h-342l-301 981v53h266l217 -760h5l208 760h261v-53z" />
    <glyph glyph-name="w" unicode="w" horiz-adv-x="1609" 
d="M1573 1024v-53l-293 -981h-346l-127 633l-162 -633h-346l-240 981v53h267l163 -754h5l182 754h287l149 -754h4l197 754h260z" />
    <glyph glyph-name="x" unicode="x" horiz-adv-x="1019" 
d="M987 53v-53h-272l-213 317l-215 -317h-256v53l327 475l-297 443v53h269l192 -285l191 285h250v-53l-301 -439z" />
    <glyph glyph-name="y" unicode="y" horiz-adv-x="1042" 
d="M43 971v53h266l217 -760h4l209 760h260v-53l-225 -703q-123 -392 -366 -719h-289v54q165 188 250 356z" />
    <glyph glyph-name="z" unicode="z" horiz-adv-x="942" 
d="M393 190h490l-37 -190h-778v164l475 670h-475l59 190h735v-164z" />
    <glyph glyph-name="braceleft" unicode="{" horiz-adv-x="663" 
d="M291 698v-4q192 -33 192 -188q0 -76 -29 -178q-30 -105 -30 -162q0 -164 160 -164v-166q-233 0 -333 62q-99 61 -99 204q0 88 29 198q30 114 30 151q0 86 -31 117q-30 30 -108 30v197q79 0 108 29q31 31 31 118q0 37 -30 151q-29 110 -29 197q0 143 99 205q98 61 333 61
v-165q-160 0 -160 -164q0 -57 30 -162q29 -102 29 -178q0 -150 -192 -189z" />
    <glyph glyph-name="bar" unicode="|" horiz-adv-x="509" 
d="M358 1434v-1475h-206v1475h206z" />
    <glyph glyph-name="braceright" unicode="}" horiz-adv-x="665" 
d="M373 694v4q-191 39 -191 189q0 73 30 178t30 162q0 164 -162 164v165q235 0 333 -61q99 -62 99 -205q0 -81 -29 -197q-28 -112 -28 -151q0 -88 30 -118q29 -29 109 -29v-197q-79 0 -109 -30t-30 -117q0 -39 28 -151q29 -116 29 -198q0 -143 -99 -204q-100 -62 -333 -62
v166q162 0 162 164q0 57 -30 162t-30 178q0 155 191 188z" />
    <glyph glyph-name="asciitilde" unicode="~" horiz-adv-x="907" 
d="M242 1126h-131q5 127 62 205q59 80 146 80q63 0 161 -48t128 -48q64 0 82 80h123q-12 -273 -180 -273q-60 0 -168 48q-110 49 -139 49q-38 0 -57 -21t-27 -72z" />
    <glyph glyph-name="exclamdown" unicode="&#xa1;" horiz-adv-x="505" 
d="M131 915q0 55 37 92t88 37q53 0 90 -37t37 -92q0 -51 -38 -89t-89 -38t-88 37t-37 90zM332 657l67 -1026h-295l68 1026h160z" />
    <glyph glyph-name="cent" unicode="&#xa2;" horiz-adv-x="1216" 
d="M1133 332l-21 -254q-162 -77 -319 -94v-86h-138v82q-297 12 -432 195t-135 521q0 339 135 522t432 195v82h138v-86q157 -17 319 -94v-244q-168 89 -319 107v-963q182 21 340 117zM385 696q0 -115 11 -188q13 -83 40 -148q28 -66 84 -104t135 -45v971q-154 -15 -212 -139
q-58 -123 -58 -347z" />
    <glyph glyph-name="sterling" unicode="&#xa3;" horiz-adv-x="1103" 
d="M1020 240l-21 -240h-888v209q204 89 204 297q0 44 -16 86h-188v166h86q-93 142 -93 260q0 188 129 292q128 103 324 103q229 0 436 -96v-246q-208 113 -403 113q-176 0 -176 -150q0 -42 14 -81q15 -42 27 -63q16 -28 46 -71q38 -54 42 -61h366v-166h-299q4 -25 4 -47
q0 -184 -133 -295v-10h539z" />
    <glyph glyph-name="currency" unicode="&#xa4;" horiz-adv-x="1343" 
d="M817 209q235 0 436 123l-20 -254q-205 -98 -416 -98q-501 0 -590 483h-151v166h135l-2 67q0 44 2 76h-135v166h153q88 475 588 475q211 0 416 -98v-244q-208 113 -416 113q-234 0 -291 -246h396v-166h-414l-2 -76q0 -37 2 -67h414v-166h-398q53 -254 293 -254z" />
    <glyph glyph-name="yen" unicode="&#xa5;" horiz-adv-x="1232" 
d="M1180 1339l-377 -786h260v-166h-307v-387h-287v387h-307v166h262l-371 786v54h289l186 -418q80 -191 95 -234h2q53 149 92 234l188 418h275v-54z" />
    <glyph glyph-name="brokenbar" unicode="&#xa6;" horiz-adv-x="509" 
d="M358 1434v-656h-206v656h206zM358 614v-655h-206v655h206z" />
    <glyph glyph-name="section" unicode="&#xa7;" horiz-adv-x="1083" 
d="M106 1249q0 196 130 302t323 106q229 0 436 -96v-246q-211 112 -415 112q-177 0 -177 -149q0 -65 89 -134q91 -71 192 -120q103 -50 193 -128q88 -76 88 -159q0 -65 -36 -103t-106 -71q-45 57 -142 124q-102 70 -189 118q-89 50 -184 117q-88 62 -145 147q-57 84 -57 180
zM977 145q0 -198 -128 -303q-126 -104 -323 -104q-233 0 -436 96v244q215 -113 414 -113q176 0 176 152q0 55 -57 108q-59 54 -141 99q-98 54 -166 93q-85 49 -140 109q-57 62 -57 129t37 105t104 71q43 -55 142 -123q98 -67 190 -118q85 -47 183 -117q89 -64 146 -147
q56 -83 56 -181z" />
    <glyph glyph-name="dieresis" unicode="&#xa8;" horiz-adv-x="966" 
d="M152 1290q0 55 38 89t99 34q58 0 96 -34q39 -35 39 -89q0 -56 -39 -91q-38 -34 -96 -34q-61 0 -99 34t-38 91zM545 1290q0 54 39 89q38 34 96 34t96 -34q39 -35 39 -89q0 -56 -39 -91q-38 -34 -96 -34t-96 34q-39 35 -39 91z" />
    <glyph glyph-name="copyright" unicode="&#xa9;" horiz-adv-x="1591" 
d="M797 -20q-298 0 -507 209q-210 210 -210 507t210 507t507 210t507 -210q209 -209 209 -507t-209 -507t-507 -209zM797 78q254 0 435 181t181 437q0 257 -181 438t-435 181q-259 0 -439 -181q-180 -182 -180 -438t180 -437t439 -181zM473 696q0 404 344 404q122 0 236 -56
v-135q-123 64 -236 64q-101 0 -139 -71q-37 -70 -37 -206t37 -206t139 -70q133 0 246 69l-10 -141q-111 -55 -236 -55q-344 0 -344 403z" />
    <glyph glyph-name="ordfeminine" unicode="&#xaa;" horiz-adv-x="837" 
d="M487 809l-81 -72q-51 -32 -119 -32q-87 0 -137 49q-52 50 -52 129q0 157 199 198l190 39v56q0 114 -122 114q-99 0 -203 -49l-17 19l43 118q113 35 218 35q119 0 185 -51t66 -145v-332q0 -58 43 -58q19 0 43 11v-99q-50 -34 -118 -34q-117 0 -138 104zM487 1036l-147 -41
q-64 -21 -64 -82q0 -36 25 -56q23 -19 61 -19q70 0 125 59v139zM86 508v100h674v-100h-674z" />
    <glyph glyph-name="guillemotleft" unicode="&#xab;" horiz-adv-x="1140" 
d="M588 272l-117 -118l-387 346v106l387 346l117 -118l-269 -281zM1055 272l-117 -118l-387 346v106l387 346l117 -118l-269 -281z" />
    <glyph glyph-name="logicalnot" unicode="&#xac;" horiz-adv-x="989" 
d="M702 190v295h-587v170h757v-465h-170z" />
    <glyph glyph-name="softhyphen" unicode="&#xad;" horiz-adv-x="921" 
d="M117 492v165h688v-165h-688z" />
    <glyph glyph-name="registered" unicode="&#xae;" horiz-adv-x="1591" 
d="M797 1413q297 0 507 -210q209 -209 209 -507t-209 -507t-507 -209t-507 209q-210 210 -210 507t210 507t507 210zM797 78q254 0 435 181t181 437q0 257 -181 438t-435 181q-259 0 -439 -181q-180 -182 -180 -438t180 -437t439 -181zM958 631v-8q61 -21 95 -115l67 -176
v-29h-170l-88 223q-28 78 -106 78h-66v-301h-162v787h269q295 0 295 -242q0 -164 -134 -217zM690 737h107q71 0 99 26t28 85q0 57 -28 82q-27 24 -99 24h-107v-217z" />
    <glyph glyph-name="macron" unicode="&#xaf;" horiz-adv-x="925" 
d="M156 1155v150h614v-150h-614z" />
    <glyph glyph-name="degree" unicode="&#xb0;" horiz-adv-x="645" 
d="M80 1171q0 107 71 175q70 67 171 67t172 -67t71 -175q0 -105 -72 -174t-171 -69q-98 0 -170 69t-72 174zM207 1171q0 -46 29 -81t86 -35t87 35q29 33 29 81q0 47 -28 81t-88 34q-58 0 -86 -34q-29 -35 -29 -81z" />
    <glyph glyph-name="plusminus" unicode="&#xb1;" horiz-adv-x="911" 
d="M801 690v-168h-262v-237h-166v237h-262v168h262v238h166v-238h262zM111 217h690v-168h-690v168z" />
    <glyph glyph-name="twosuperior" unicode="&#xb2;" horiz-adv-x="698" 
d="M635 905l-12 -143h-570v143q200 127 302 229q98 98 98 191q0 148 -156 148q-107 0 -219 -68v147q119 58 254 58q137 0 218 -66t81 -209q0 -75 -30 -138t-94 -118q-61 -52 -112 -87q-48 -33 -137 -83v-4h377z" />
    <glyph glyph-name="threesuperior" unicode="&#xb3;" horiz-adv-x="708" 
d="M453 1198v-6q89 -15 142 -66q52 -51 52 -129q0 -121 -88 -184q-89 -63 -233 -63q-150 0 -267 59v149q117 -71 244 -71q78 0 123 29q47 30 47 88q0 118 -207 118h-92v127h92q195 0 195 119q0 54 -46 79q-47 26 -106 26q-104 0 -231 -66v147q118 56 256 56q130 0 215 -58
q84 -57 84 -157q0 -159 -180 -197z" />
    <glyph glyph-name="acute" unicode="&#xb4;" horiz-adv-x="747" 
d="M160 1217l217 163q52 41 94 41q44 0 72 -25t28 -65q0 -71 -77 -98l-289 -107z" />
    <glyph glyph-name="paragraph" unicode="&#xb6;" horiz-adv-x="1216" 
d="M760 0v1126h-144v-632h-86q-228 0 -348 117q-121 118 -121 337q0 217 121 331t348 114h517v-1393h-287z" />
    <glyph glyph-name="periodcentered" unicode="&#xb7;" horiz-adv-x="462" 
d="M106 569q0 51 37 87t88 36t87 -36t36 -87q0 -53 -36 -89t-87 -36q-53 0 -89 36t-36 89z" />
    <glyph glyph-name="cedilla" unicode="&#xb8;" horiz-adv-x="727" 
d="M358 0v-63q92 0 145 -43q54 -44 54 -119q0 -82 -52 -133q-54 -52 -149 -52q-92 0 -163 31v90q62 -22 104 -22q106 0 106 86q0 90 -145 90v135h100z" />
    <glyph glyph-name="onesuperior" unicode="&#xb9;" horiz-adv-x="444" 
d="M162 762v692h-123v119l194 31h101v-842h-172z" />
    <glyph glyph-name="ordmasculine" unicode="&#xba;" horiz-adv-x="837" 
d="M416 705q-314 0 -314 354t314 354q313 0 313 -354t-313 -354zM416 1290q-79 0 -109 -57q-31 -59 -31 -174t31 -174q31 -58 109 -58q77 0 108 58q31 59 31 174t-31 174q-30 57 -108 57zM82 508v100h676v-100h-676z" />
    <glyph glyph-name="guillemotright" unicode="&#xbb;" horiz-adv-x="1140" 
d="M88 834l115 118l387 -346v-106l-387 -346l-115 118l266 281zM553 834l117 118l387 -346v-106l-387 -346l-117 118l268 281z" />
    <glyph glyph-name="onequarter" unicode="&#xbc;" horiz-adv-x="1699" 
d="M180 557v692h-123v119l195 31h100v-842h-172zM1346 1393l-472 -666l-108 41l356 625h224zM1636 152h-94v-152h-172v152h-387v149l408 541h151v-547h94v-143zM713 686l108 -41l-368 -645h-224zM1370 295v278l-217 -278h217z" />
    <glyph glyph-name="onehalf" unicode="&#xbd;" horiz-adv-x="1771" 
d="M180 557v692h-123v119l195 31h100v-842h-172zM1346 1393l-472 -666l-108 41l356 625h224zM1696 143l-13 -143h-569v143q200 127 302 229q97 97 97 191q0 148 -155 148q-107 0 -219 -68v148q117 57 254 57t218 -66t81 -209q0 -75 -30 -138t-94 -118q-61 -52 -112 -87
q-48 -33 -137 -83v-4h377zM713 686l108 -41l-368 -645h-224z" />
    <glyph glyph-name="threequarters" unicode="&#xbe;" horiz-adv-x="1927" 
d="M672 793q0 -122 -88 -185t-234 -63q-149 0 -266 59v150q119 -72 244 -72q76 0 123 30t47 87q0 119 -207 119h-92v126h92q194 0 194 119q0 54 -46 79q-47 26 -105 26q-104 0 -232 -66v148q116 55 256 55q131 0 215 -57t84 -158q0 -162 -180 -197v-6q92 -15 143 -65
q52 -51 52 -129zM1573 1393l-471 -666l-109 41l357 625h223zM1864 152h-95v-152h-172v152h-387v149l408 541h151v-547h95v-143zM940 686l109 -41l-369 -645h-223zM1597 295v278l-217 -278h217z" />
    <glyph glyph-name="questiondown" unicode="&#xbf;" horiz-adv-x="997" 
d="M754 915q0 -53 -37 -90t-88 -37t-88 37t-37 90q0 55 37 92t88 37t88 -37t37 -92zM57 23q0 428 475 428l15 206h160l24 -376q-182 0 -285 -53q-102 -52 -102 -187q0 -88 55 -144q55 -57 164 -57q159 0 371 113v-246q-201 -96 -424 -96q-202 0 -327 109q-126 110 -126 303z
" />
    <glyph glyph-name="Agrave" unicode="&#xc0;" horiz-adv-x="1236" 
d="M653 1495l-288 107q-78 27 -78 98q0 38 27 64q28 26 71 26q44 0 96 -41l217 -164zM1200 53v-53h-285l-90 315h-430l-90 -315h-272v53l407 1350h361zM756 555l-72 248q-38 132 -72 291h-4q-37 -176 -71 -291l-72 -248h291z" />
    <glyph glyph-name="Aacute" unicode="&#xc1;" horiz-adv-x="1236" 
d="M573 1495l-45 90l217 164q52 41 95 41q42 0 71 -26t29 -64q0 -71 -78 -98zM1200 53v-53h-285l-90 315h-430l-90 -315h-272v53l407 1350h361zM756 555l-72 248q-38 132 -72 291h-4q-37 -176 -71 -291l-72 -248h291z" />
    <glyph glyph-name="Acircumflex" unicode="&#xc2;" horiz-adv-x="1236" 
d="M465 1495h-148l244 356h113l246 -356h-150l-152 168zM1200 53v-53h-285l-90 315h-430l-90 -315h-272v53l407 1350h361zM756 555l-72 248q-38 132 -72 291h-4q-37 -176 -71 -291l-72 -248h291z" />
    <glyph glyph-name="Atilde" unicode="&#xc3;" horiz-adv-x="1236" 
d="M481 1587q-37 0 -56 -20q-21 -22 -28 -72h-131q5 126 63 205q59 80 146 80q63 0 161 -48q100 -49 128 -49q64 0 82 80h123q-12 -272 -181 -272q-59 0 -167 48t-140 48zM1200 53v-53h-285l-90 315h-430l-90 -315h-272v53l407 1350h361zM756 555l-72 248q-38 132 -72 291
h-4q-37 -176 -71 -291l-72 -248h291z" />
    <glyph glyph-name="Adieresis" unicode="&#xc4;" horiz-adv-x="1236" 
d="M422 1534q-60 0 -98 34q-39 35 -39 91q0 55 39 89q38 34 98 34q58 0 96 -34q39 -34 39 -89q0 -57 -39 -91q-38 -34 -96 -34zM813 1534q-58 0 -96 34q-39 35 -39 91q0 55 39 89q38 34 96 34t96 -34q39 -34 39 -89q0 -57 -39 -91q-38 -34 -96 -34zM1200 53v-53h-285
l-90 315h-430l-90 -315h-272v53l407 1350h361zM756 555l-72 248q-38 132 -72 291h-4q-37 -176 -71 -291l-72 -248h291z" />
    <glyph glyph-name="Aring" unicode="&#xc5;" horiz-adv-x="1236" 
d="M616 1473q-81 0 -130 46q-50 47 -50 123q0 79 49 125q51 48 131 48q78 0 129 -48q50 -47 50 -125q0 -76 -50 -123q-49 -46 -129 -46zM616 1729q-39 0 -64 -23q-24 -22 -24 -64q0 -38 24 -61q23 -22 64 -22q86 0 86 83q0 87 -86 87zM1200 53v-53h-285l-90 315h-430
l-90 -315h-272v53l407 1350h361zM756 555l-72 248q-38 132 -72 291h-4q-37 -176 -71 -291l-72 -248h291z" />
    <glyph glyph-name="AE" unicode="&#xc6;" horiz-adv-x="1705" 
d="M1634 240l-20 -240h-848v315h-346l-133 -315h-283v53l592 1340h1022v-240h-565v-319h473v-238h-473v-356h581zM766 555v598h-16q-56 -192 -99 -291l-129 -307h244z" />
    <glyph glyph-name="Ccedilla" unicode="&#xc7;" horiz-adv-x="1189" 
d="M1128 332l-20 -254q-187 -87 -371 -98v-43q92 0 145 -43q54 -44 54 -119q0 -82 -52 -133q-54 -52 -149 -52q-93 0 -164 31v90q62 -22 105 -22q106 0 106 86q0 90 -145 90v117q-555 28 -555 714q0 348 144 533q144 184 464 184q212 0 418 -98v-244q-208 113 -418 113
q-179 0 -245 -125t-66 -363t66 -362q66 -125 245 -125q237 0 438 123z" />
    <glyph glyph-name="Egrave" unicode="&#xc8;" horiz-adv-x="1142" 
d="M633 1495l-289 107q-78 27 -78 98q0 38 28 64t71 26q44 0 96 -41l217 -164zM428 1153v-319h535v-238h-535v-356h643l-20 -240h-910v1393h914v-240h-627z" />
    <glyph glyph-name="Eacute" unicode="&#xc9;" horiz-adv-x="1142" 
d="M508 1585l217 164q52 41 94 41q43 0 72 -26t29 -64q0 -71 -78 -98l-289 -107zM428 1153v-319h535v-238h-535v-356h643l-20 -240h-910v1393h914v-240h-627z" />
    <glyph glyph-name="Ecircumflex" unicode="&#xca;" horiz-adv-x="1142" 
d="M295 1495l244 356h112l246 -356h-149l-152 168l-154 -168h-147zM428 1153v-319h535v-238h-535v-356h643l-20 -240h-910v1393h914v-240h-627z" />
    <glyph glyph-name="Edieresis" unicode="&#xcb;" horiz-adv-x="1142" 
d="M264 1659q0 55 39 89q38 34 98 34q59 0 97 -34q39 -34 39 -89q0 -57 -39 -91q-38 -34 -97 -34q-60 0 -98 34q-39 35 -39 91zM657 1659q0 55 39 89q38 34 97 34q58 0 96 -34q39 -34 39 -89q0 -57 -39 -91q-38 -34 -96 -34q-59 0 -97 34q-39 35 -39 91zM428 1153v-319h535
v-238h-535v-356h643l-20 -240h-910v1393h914v-240h-627z" />
    <glyph glyph-name="Igrave" unicode="&#xcc;" horiz-adv-x="569" 
d="M322 1495l-289 107q-78 27 -78 98q0 38 28 64t70 26q45 0 97 -41l217 -164zM428 1393v-1393h-287v1393h287z" />
    <glyph glyph-name="Iacute" unicode="&#xcd;" horiz-adv-x="569" 
d="M197 1585l217 164q52 41 94 41q43 0 72 -26q28 -25 28 -64q0 -71 -78 -98l-288 -107zM428 1393v-1393h-287v1393h287z" />
    <glyph glyph-name="Icircumflex" unicode="&#xce;" horiz-adv-x="569" 
d="M-16 1495l243 356h113l246 -356h-150l-151 168l-154 -168h-147zM428 1393v-1393h-287v1393h287z" />
    <glyph glyph-name="Idieresis" unicode="&#xcf;" horiz-adv-x="569" 
d="M-47 1659q0 55 39 89q38 34 98 34q58 0 96 -34q39 -34 39 -89q0 -57 -39 -91q-38 -34 -96 -34q-60 0 -98 34q-39 34 -39 91zM346 1659q0 55 39 89q38 34 96 34q59 0 97 -34t38 -89q0 -57 -38 -91t-97 -34q-58 0 -96 34q-39 35 -39 91zM428 1393v-1393h-287v1393h287z" />
    <glyph glyph-name="Eth" unicode="&#xd0;" horiz-adv-x="1345" 
d="M147 1393h523q313 0 452 -171q140 -172 140 -515q0 -349 -141 -528t-451 -179h-523v590h-118v213h118v590zM434 240h236q166 0 230 103q65 104 65 364q0 256 -64 352q-63 94 -231 94h-236v-350h287v-213h-287v-350z" />
    <glyph glyph-name="Ntilde" unicode="&#xd1;" horiz-adv-x="1329" 
d="M432 1495h-131q5 126 63 205q59 80 146 80q64 0 161 -48q100 -49 128 -49q64 0 82 80h123q-12 -272 -181 -272q-60 0 -168 48t-139 48q-37 0 -56 -20q-21 -22 -28 -72zM428 1393l496 -873h10q-16 179 -16 438v435h272v-1393h-287l-497 872h-11q17 -190 17 -438v-434h-271
v1393h287z" />
    <glyph glyph-name="Ograve" unicode="&#xd2;" horiz-adv-x="1349" 
d="M713 1495l-289 107q-78 27 -78 98q0 38 28 64t70 26q45 0 97 -41l217 -164zM674 -20q-311 0 -452 187q-140 186 -140 540q0 350 140 527q141 179 452 179q312 0 453 -179q141 -178 141 -527q0 -727 -594 -727zM674 1184q-164 0 -230 -108q-65 -106 -65 -369
q0 -264 66 -381t229 -117q164 0 230 117q67 119 67 381q0 261 -66 369t-231 108z" />
    <glyph glyph-name="Oacute" unicode="&#xd3;" horiz-adv-x="1349" 
d="M588 1585l217 164q52 41 94 41q43 0 72 -26q28 -25 28 -64q0 -71 -77 -98l-289 -107zM674 -20q-311 0 -452 187q-140 186 -140 540q0 350 140 527q141 179 452 179q312 0 453 -179q141 -178 141 -527q0 -727 -594 -727zM674 1184q-164 0 -230 -108q-65 -106 -65 -369
q0 -264 66 -381t229 -117q164 0 230 117q67 119 67 381q0 261 -66 369t-231 108z" />
    <glyph glyph-name="Ocircumflex" unicode="&#xd4;" horiz-adv-x="1349" 
d="M377 1495l244 356h112l246 -356h-150l-151 168l-154 -168h-147zM674 -20q-311 0 -452 187q-140 186 -140 540q0 350 140 527q141 179 452 179q312 0 453 -179q141 -178 141 -527q0 -727 -594 -727zM674 1184q-164 0 -230 -108q-65 -106 -65 -369q0 -264 66 -381t229 -117
q164 0 230 117q67 119 67 381q0 261 -66 369t-231 108z" />
    <glyph glyph-name="Otilde" unicode="&#xd5;" horiz-adv-x="1349" 
d="M457 1495h-131q5 127 62 205q59 80 147 80q63 0 160 -48q100 -49 128 -49q64 0 82 80h123q-12 -272 -180 -272q-60 0 -168 48t-139 48q-38 0 -57 -20q-20 -21 -27 -72zM674 -20q-311 0 -452 187q-140 186 -140 540q0 350 140 527q141 179 452 179q312 0 453 -179
q141 -178 141 -527q0 -727 -594 -727zM674 1184q-164 0 -230 -108q-65 -106 -65 -369q0 -264 66 -381t229 -117q164 0 230 117q67 119 67 381q0 261 -66 369t-231 108z" />
    <glyph glyph-name="Odieresis" unicode="&#xd6;" horiz-adv-x="1349" 
d="M344 1659q0 55 39 89q38 34 98 34q59 0 97 -34t38 -89q0 -57 -38 -91t-97 -34q-60 0 -98 34q-39 35 -39 91zM737 1659q0 55 39 89q38 34 96 34q59 0 97 -34q39 -34 39 -89q0 -57 -39 -91q-38 -34 -97 -34q-58 0 -96 34q-39 35 -39 91zM674 -20q-311 0 -452 187
q-140 186 -140 540q0 350 140 527q141 179 452 179q312 0 453 -179q141 -178 141 -527q0 -727 -594 -727zM674 1184q-164 0 -230 -108q-65 -106 -65 -369q0 -264 66 -381t229 -117q164 0 230 117q67 119 67 381q0 261 -66 369t-231 108z" />
    <glyph glyph-name="multiply" unicode="&#xd7;" horiz-adv-x="913" 
d="M457 426l-242 -242l-117 117l242 242l-242 243l117 117l242 -241l243 241l117 -117l-242 -243l242 -242l-117 -117z" />
    <glyph glyph-name="Oslash" unicode="&#xd8;" horiz-adv-x="1349" 
d="M1137 1516l-95 -203q226 -163 226 -606q0 -727 -594 -727q-131 0 -234 34l-63 -137h-156l94 201q-233 167 -233 629q0 350 140 527q141 179 452 179q140 0 244 -37l63 140h156zM379 707q0 -253 57 -365l379 815q-55 27 -141 27q-164 0 -230 -108q-65 -106 -65 -369z
M674 209q164 0 230 117q67 119 67 381q0 237 -51 342l-377 -816q55 -24 131 -24z" />
    <glyph glyph-name="Ugrave" unicode="&#xd9;" horiz-adv-x="1312" 
d="M680 1495l-289 107q-78 27 -78 98q0 38 28 64t71 26q44 0 96 -41l217 -164zM655 -20q-239 0 -382 118q-144 118 -144 375v920h287v-920q0 -113 58 -187q58 -75 181 -75q124 0 182 76t58 186v920h287v-920q0 -257 -143 -376q-141 -117 -384 -117z" />
    <glyph glyph-name="Uacute" unicode="&#xda;" horiz-adv-x="1312" 
d="M553 1585l217 164q52 41 94 41q43 0 72 -26t29 -64q0 -71 -78 -98l-289 -107zM655 -20q-239 0 -382 118q-144 118 -144 375v920h287v-920q0 -113 58 -187q58 -75 181 -75q124 0 182 76t58 186v920h287v-920q0 -257 -143 -376q-141 -117 -384 -117z" />
    <glyph glyph-name="Ucircumflex" unicode="&#xdb;" horiz-adv-x="1312" 
d="M342 1495l244 356h112l246 -356h-149l-152 168l-154 -168h-147zM655 -20q-239 0 -382 118q-144 118 -144 375v920h287v-920q0 -113 58 -187q58 -75 181 -75q124 0 182 76t58 186v920h287v-920q0 -257 -143 -376q-141 -117 -384 -117z" />
    <glyph glyph-name="Udieresis" unicode="&#xdc;" horiz-adv-x="1312" 
d="M309 1659q0 55 39 89q38 34 98 34q59 0 97 -34q39 -34 39 -89q0 -57 -39 -91q-38 -34 -97 -34q-60 0 -98 34q-39 35 -39 91zM702 1659q0 55 39 89q38 34 97 34q58 0 96 -34q39 -34 39 -89q0 -57 -39 -91q-38 -34 -96 -34q-59 0 -97 34q-39 35 -39 91zM655 -20
q-239 0 -382 118q-144 118 -144 375v920h287v-920q0 -113 58 -187q58 -75 181 -75q124 0 182 76t58 186v920h287v-920q0 -257 -143 -376q-141 -117 -384 -117z" />
    <glyph glyph-name="Yacute" unicode="&#xdd;" horiz-adv-x="1181" 
d="M555 1495l-45 90l217 164q52 41 94 41q43 0 72 -26t29 -64q0 -71 -78 -98zM1157 1339l-426 -888v-451h-287v461l-413 878v54h288l185 -418q50 -112 96 -234h2q53 149 92 234l189 418h274v-54z" />
    <glyph glyph-name="Thorn" unicode="&#xde;" horiz-adv-x="1193" 
d="M428 1145h190q523 0 523 -438q0 -455 -523 -455h-190v-252h-287v1393h287v-248zM428 492h190q127 0 176 52q50 53 50 163q0 108 -49 154t-177 46h-190v-415z" />
    <glyph glyph-name="germandbls" unicode="&#xdf;" horiz-adv-x="1220" 
d="M162 1024v41q0 117 42 203q43 87 112 134q72 49 150 71t167 22q176 0 290 -75q113 -74 113 -226q0 -77 -38 -145t-83 -107q-43 -37 -82 -81q-38 -43 -38 -75q0 -33 40 -67q48 -41 96 -70q41 -25 112 -79q56 -43 97 -114q40 -70 40 -157q0 -147 -104 -233t-265 -86
q-141 0 -248 40l-26 211q120 -55 225 -55q72 0 107 35q34 34 34 84q0 59 -54 116q-52 54 -118 94q-65 39 -118 99q-54 62 -54 131q0 76 93 206q93 131 93 214q0 65 -40 99t-103 34q-170 0 -170 -239v-1049h-270v834h-111v106z" />
    <glyph glyph-name="agrave" unicode="&#xe0;" horiz-adv-x="1073" 
d="M561 1126l-289 107q-77 27 -77 98q0 39 27 65q26 25 71 25q44 0 96 -41l217 -163zM647 137l-123 -108q-82 -49 -180 -49q-131 0 -210 75q-81 77 -81 193q0 231 309 297l285 59v82q0 174 -186 174q-136 0 -305 -74l-25 27l68 178q168 53 323 53q181 0 288 -77
q108 -78 108 -219v-496q0 -86 61 -86q33 0 65 14v-147q-77 -53 -194 -53q-170 0 -203 157zM645 477l-215 -61q-96 -29 -96 -121q0 -55 36 -85t93 -30q103 0 182 88v209z" />
    <glyph glyph-name="aacute" unicode="&#xe1;" horiz-adv-x="1073" 
d="M436 1217l217 163q52 41 95 41t71 -25q29 -26 29 -65q0 -71 -78 -98l-289 -107zM647 137l-123 -108q-82 -49 -180 -49q-131 0 -210 75q-81 77 -81 193q0 231 309 297l285 59v82q0 174 -186 174q-136 0 -305 -74l-25 27l68 178q168 53 323 53q181 0 288 -77
q108 -78 108 -219v-496q0 -86 61 -86q33 0 65 14v-147q-77 -53 -194 -53q-170 0 -203 157zM645 477l-215 -61q-96 -29 -96 -121q0 -55 36 -85t93 -30q103 0 182 88v209z" />
    <glyph glyph-name="acircumflex" unicode="&#xe2;" horiz-adv-x="1073" 
d="M223 1126l244 357h113l245 -357h-149l-152 168l-153 -168h-148zM647 137l-123 -108q-82 -49 -180 -49q-131 0 -210 75q-81 77 -81 193q0 231 309 297l285 59v82q0 174 -186 174q-136 0 -305 -74l-25 27l68 178q168 53 323 53q181 0 288 -77q108 -78 108 -219v-496
q0 -86 61 -86q33 0 65 14v-147q-77 -53 -194 -53q-170 0 -203 157zM645 477l-215 -61q-96 -29 -96 -121q0 -55 36 -85t93 -30q103 0 182 88v209z" />
    <glyph glyph-name="atilde" unicode="&#xe3;" horiz-adv-x="1073" 
d="M303 1126h-131q5 127 62 205q59 80 147 80q63 0 161 -48q97 -48 128 -48q64 0 82 80h122q-12 -273 -180 -273q-60 0 -168 48q-110 49 -139 49q-37 0 -56 -21q-21 -22 -28 -72zM647 137l-123 -108q-82 -49 -180 -49q-131 0 -210 75q-81 77 -81 193q0 231 309 297l285 59
v82q0 174 -186 174q-136 0 -305 -74l-25 27l68 178q168 53 323 53q181 0 288 -77q108 -78 108 -219v-496q0 -86 61 -86q33 0 65 14v-147q-77 -53 -194 -53q-170 0 -203 157zM645 477l-215 -61q-96 -29 -96 -121q0 -55 36 -85t93 -30q103 0 182 88v209z" />
    <glyph glyph-name="adieresis" unicode="&#xe4;" horiz-adv-x="1073" 
d="M193 1290q0 55 38 89t99 34q58 0 96 -34q39 -35 39 -89q0 -56 -39 -91q-38 -34 -96 -34q-61 0 -99 34t-38 91zM586 1290q0 54 39 89q38 34 96 34t96 -34q39 -35 39 -89q0 -56 -39 -91q-38 -34 -96 -34t-96 34q-39 35 -39 91zM647 137l-123 -108q-82 -49 -180 -49
q-131 0 -210 75q-81 77 -81 193q0 231 309 297l285 59v82q0 174 -186 174q-136 0 -305 -74l-25 27l68 178q168 53 323 53q181 0 288 -77q108 -78 108 -219v-496q0 -86 61 -86q33 0 65 14v-147q-77 -53 -194 -53q-170 0 -203 157zM645 477l-215 -61q-96 -29 -96 -121
q0 -55 36 -85t93 -30q103 0 182 88v209z" />
    <glyph glyph-name="aring" unicode="&#xe5;" horiz-adv-x="1073" 
d="M344 1274q0 79 49 125q50 47 131 47q79 0 129 -47q49 -46 49 -125q0 -78 -49 -124t-129 -46q-81 0 -130 46q-50 47 -50 124zM436 1274q0 -40 24 -62q23 -22 64 -22q86 0 86 84q0 86 -86 86q-39 0 -64 -23q-24 -23 -24 -63zM647 137l-123 -108q-82 -49 -180 -49
q-131 0 -210 75q-81 77 -81 193q0 231 309 297l285 59v82q0 174 -186 174q-136 0 -305 -74l-25 27l68 178q168 53 323 53q181 0 288 -77q108 -78 108 -219v-496q0 -86 61 -86q33 0 65 14v-147q-77 -53 -194 -53q-170 0 -203 157zM645 477l-215 -61q-96 -29 -96 -121
q0 -55 36 -85t93 -30q103 0 182 88v209z" />
    <glyph glyph-name="ae" unicode="&#xe6;" horiz-adv-x="1634" 
d="M1567 666q0 -81 -29 -211h-627q12 -141 89 -210q76 -69 194 -69q75 0 168 26q91 25 151 60v-201q-141 -81 -374 -81q-295 0 -420 219l-195 -170q-79 -49 -190 -49q-129 0 -204 74q-77 75 -77 194q0 237 299 297l295 59v82q0 174 -186 174q-135 0 -303 -74l-27 27l70 178
q164 53 323 53q199 0 299 -94q118 94 314 94q86 0 158 -18q77 -19 137 -58q63 -41 99 -118q36 -78 36 -184zM911 588l389 12q9 47 9 80q0 101 -51 141q-50 39 -113 39q-210 0 -234 -272zM459 180q107 0 219 111q-25 87 -31 186l-221 -61q-96 -29 -96 -121q0 -55 37 -85
t92 -30z" />
    <glyph glyph-name="ccedilla" unicode="&#xe7;" horiz-adv-x="966" 
d="M348 512q0 -336 260 -336q137 0 283 86v-201q-128 -71 -293 -79v-45q91 0 144 -43q55 -44 55 -119q0 -82 -53 -133q-54 -52 -148 -52q-90 0 -164 31v90q62 -22 105 -22q106 0 106 86q0 90 -145 90v117q-205 18 -316 159q-110 140 -110 371q0 246 130 389t373 143
q175 0 332 -63l-49 -166l-27 -27q-129 60 -237 60q-122 0 -184 -93q-62 -94 -62 -243z" />
    <glyph glyph-name="egrave" unicode="&#xe8;" horiz-adv-x="1075" 
d="M625 1126l-289 107q-78 27 -78 98q0 39 28 65q26 25 70 25q45 0 97 -41l217 -163zM1006 666q0 -81 -29 -211h-627q12 -141 89 -210t196 -69q74 0 167 26q89 25 150 60v-201q-141 -81 -374 -81q-240 0 -373 144q-133 143 -133 388q0 246 130 389t373 143q87 0 159 -18
q75 -19 136 -58q65 -42 100 -118q36 -78 36 -184zM352 588l389 12q9 68 9 80q0 101 -52 141q-51 39 -112 39q-212 0 -234 -272z" />
    <glyph glyph-name="eacute" unicode="&#xe9;" horiz-adv-x="1075" 
d="M543 1126l-45 91l217 163q52 41 94 41q44 0 72 -25t28 -65q0 -71 -78 -98zM1006 666q0 -81 -29 -211h-627q12 -141 89 -210t196 -69q74 0 167 26q89 25 150 60v-201q-141 -81 -374 -81q-240 0 -373 144q-133 143 -133 388q0 246 130 389t373 143q87 0 159 -18
q75 -19 136 -58q65 -42 100 -118q36 -78 36 -184zM352 588l389 12q9 68 9 80q0 101 -52 141q-51 39 -112 39q-212 0 -234 -272z" />
    <glyph glyph-name="ecircumflex" unicode="&#xea;" horiz-adv-x="1075" 
d="M434 1126h-147l243 357h113l246 -357h-150l-151 168zM1006 666q0 -81 -29 -211h-627q12 -141 89 -210t196 -69q74 0 167 26q89 25 150 60v-201q-141 -81 -374 -81q-240 0 -373 144q-133 143 -133 388q0 246 130 389t373 143q87 0 159 -18q75 -19 136 -58q65 -42 100 -118
q36 -78 36 -184zM352 588l389 12q9 68 9 80q0 101 -52 141q-51 39 -112 39q-212 0 -234 -272z" />
    <glyph glyph-name="edieresis" unicode="&#xeb;" horiz-adv-x="1075" 
d="M391 1165q-60 0 -98 34q-39 35 -39 91q0 54 39 89q38 34 98 34q58 0 96 -34q39 -35 39 -89q0 -56 -39 -91q-38 -34 -96 -34zM782 1165q-58 0 -96 34q-39 35 -39 91q0 54 39 89q38 34 96 34q59 0 97 -34q39 -35 39 -89q0 -56 -39 -91q-38 -34 -97 -34zM1006 666
q0 -81 -29 -211h-627q12 -141 89 -210t196 -69q74 0 167 26q89 25 150 60v-201q-141 -81 -374 -81q-240 0 -373 144q-133 143 -133 388q0 246 130 389t373 143q87 0 159 -18q75 -19 136 -58q65 -42 100 -118q36 -78 36 -184zM352 588l389 12q9 68 9 80q0 101 -52 141
q-51 39 -112 39q-212 0 -234 -272z" />
    <glyph glyph-name="igrave" unicode="&#xec;" horiz-adv-x="516" 
d="M295 1126l-289 107q-78 27 -78 98q0 39 28 65q26 25 71 25q44 0 96 -41l217 -163zM393 1024v-1024h-270v1024h270z" />
    <glyph glyph-name="iacute" unicode="&#xed;" horiz-adv-x="516" 
d="M168 1217l217 163q52 41 94 41q44 0 72 -25q29 -26 29 -65q0 -71 -78 -98l-289 -107zM393 1024v-1024h-270v1024h270z" />
    <glyph glyph-name="icircumflex" unicode="&#xee;" horiz-adv-x="516" 
d="M-43 1126l244 357h112l246 -357h-149l-152 168l-154 -168h-147zM393 1024v-1024h-270v1024h270z" />
    <glyph glyph-name="idieresis" unicode="&#xef;" horiz-adv-x="516" 
d="M-76 1290q0 54 39 89q38 34 98 34q59 0 97 -34q39 -35 39 -89q0 -56 -39 -91q-38 -34 -97 -34q-60 0 -98 34q-39 35 -39 91zM317 1290q0 54 39 89q38 34 97 34q58 0 96 -34q39 -35 39 -89q0 -56 -39 -91q-38 -34 -96 -34q-59 0 -97 34q-39 35 -39 91zM393 1024v-1024
h-270v1024h270z" />
    <glyph glyph-name="eth" unicode="&#xf0;" horiz-adv-x="1134" 
d="M922 1274l-148 -62q283 -260 283 -632q0 -277 -120 -439q-119 -161 -382 -161q-235 0 -357 141q-122 142 -122 366q0 219 115 347q116 129 337 129q85 0 166 -25q-48 94 -129 184l-192 -82l-51 119l143 62q-97 81 -248 172h283q96 -45 159 -90l211 90zM555 164
q129 0 177 95t48 321q0 101 -20 180q-91 31 -168 31q-240 0 -240 -304q0 -323 203 -323z" />
    <glyph glyph-name="ntilde" unicode="&#xf1;" 
d="M336 1126h-131q5 127 62 205q59 80 147 80q62 0 160 -48t128 -48q64 0 82 80h123q-12 -273 -180 -273q-60 0 -168 48q-110 49 -139 49q-36 0 -56 -21q-21 -22 -28 -72zM393 879h4l101 106q103 59 213 59q129 0 211 -76t82 -223v-745h-271v692q0 142 -125 142
q-87 0 -215 -76v-758h-270v1024h260z" />
    <glyph glyph-name="ograve" unicode="&#xf2;" 
d="M594 1126l-289 107q-78 27 -78 98q0 39 28 65q26 25 71 25q44 0 96 -41l217 -163zM559 -20q-237 0 -361 140t-124 392t124 392t361 140q238 0 362 -140q123 -139 123 -392t-123 -392q-124 -140 -362 -140zM559 860q-115 0 -162 -87q-47 -88 -47 -261t47 -261
q47 -87 162 -87t162 87q47 88 47 261t-47 261q-47 87 -162 87z" />
    <glyph glyph-name="oacute" unicode="&#xf3;" 
d="M469 1217l217 163q52 41 94 41q44 0 72 -25q29 -26 29 -65q0 -71 -78 -98l-289 -107zM559 -20q-237 0 -361 140t-124 392t124 392t361 140q238 0 362 -140q123 -139 123 -392t-123 -392q-124 -140 -362 -140zM559 860q-115 0 -162 -87q-47 -88 -47 -261t47 -261
q47 -87 162 -87t162 87q47 88 47 261t-47 261q-47 87 -162 87z" />
    <glyph glyph-name="ocircumflex" unicode="&#xf4;" 
d="M258 1126l244 357h112l246 -357h-149l-152 168l-153 -168h-148zM559 -20q-237 0 -361 140t-124 392t124 392t361 140q238 0 362 -140q123 -139 123 -392t-123 -392q-124 -140 -362 -140zM559 860q-115 0 -162 -87q-47 -88 -47 -261t47 -261q47 -87 162 -87t162 87
q47 88 47 261t-47 261q-47 87 -162 87z" />
    <glyph glyph-name="otilde" unicode="&#xf5;" 
d="M336 1126h-131q5 127 62 205q59 80 147 80q62 0 160 -48t128 -48q64 0 82 80h123q-12 -273 -180 -273q-60 0 -168 48q-110 49 -139 49q-36 0 -56 -21q-21 -22 -28 -72zM559 -20q-237 0 -361 140t-124 392t124 392t361 140q238 0 362 -140q123 -139 123 -392t-123 -392
q-124 -140 -362 -140zM559 860q-115 0 -162 -87q-47 -88 -47 -261t47 -261q47 -87 162 -87t162 87q47 88 47 261t-47 261q-47 87 -162 87z" />
    <glyph glyph-name="odieresis" unicode="&#xf6;" 
d="M225 1290q0 54 39 89q38 34 98 34q59 0 97 -34q39 -35 39 -89q0 -56 -39 -91q-38 -34 -97 -34q-60 0 -98 34q-39 35 -39 91zM618 1290q0 54 39 89q38 34 97 34q58 0 96 -34q39 -35 39 -89q0 -56 -39 -91q-38 -34 -96 -34q-59 0 -97 34q-39 35 -39 91zM559 -20
q-237 0 -361 140t-124 392t124 392t361 140q238 0 362 -140q123 -139 123 -392t-123 -392q-124 -140 -362 -140zM559 860q-115 0 -162 -87q-47 -88 -47 -261t47 -261q47 -87 162 -87t162 87q47 88 47 261t-47 261q-47 87 -162 87z" />
    <glyph glyph-name="divide" unicode="&#xf7;" horiz-adv-x="919" 
d="M336 893q0 53 37 90t90 37q50 0 88 -38q37 -37 37 -89q0 -54 -37 -91q-38 -38 -88 -38q-51 0 -89 38t-38 91zM96 459v168h729v-168h-729zM336 193q0 53 38 91t89 38q50 0 88 -38q37 -37 37 -91q0 -53 -37 -90t-88 -37q-54 0 -90 36q-37 37 -37 91z" />
    <glyph glyph-name="oslash" unicode="&#xf8;" 
d="M979 1085l-92 -147q157 -139 157 -426q0 -253 -123 -392q-124 -140 -362 -140q-142 0 -240 49l-57 -90h-133l96 153q-151 139 -151 420q0 252 124 392t361 140q132 0 234 -45l53 86h133zM350 512q0 -106 19 -188l313 497q-45 39 -123 39q-115 0 -162 -87
q-47 -88 -47 -261zM559 164q115 0 162 87q47 88 47 261q0 126 -23 201l-315 -504q45 -45 129 -45z" />
    <glyph glyph-name="ugrave" unicode="&#xf9;" 
d="M592 1126l-289 107q-78 27 -78 98q0 39 28 65q26 25 71 25q44 0 96 -41l217 -163zM725 145h-4l-100 -106q-103 -59 -213 -59q-129 0 -211 76t-82 223v745h270v-692q0 -142 125 -142q87 0 215 76v758h270v-1024h-260z" />
    <glyph glyph-name="uacute" unicode="&#xfa;" 
d="M467 1217l217 163q52 41 94 41q44 0 72 -25q29 -26 29 -65q0 -71 -78 -98l-289 -107zM725 145h-4l-100 -106q-103 -59 -213 -59q-129 0 -211 76t-82 223v745h270v-692q0 -142 125 -142q87 0 215 76v758h270v-1024h-260z" />
    <glyph glyph-name="ucircumflex" unicode="&#xfb;" 
d="M256 1126l244 357h112l246 -357h-149l-152 168l-154 -168h-147zM725 145h-4l-100 -106q-103 -59 -213 -59q-129 0 -211 76t-82 223v745h270v-692q0 -142 125 -142q87 0 215 76v758h270v-1024h-260z" />
    <glyph glyph-name="udieresis" unicode="&#xfc;" 
d="M223 1290q0 54 39 89q38 34 98 34q59 0 97 -34q39 -35 39 -89q0 -56 -39 -91q-38 -34 -97 -34q-60 0 -98 34q-39 35 -39 91zM616 1290q0 54 39 89q38 34 97 34q58 0 96 -34q39 -35 39 -89q0 -56 -39 -91q-38 -34 -96 -34q-59 0 -97 34q-39 35 -39 91zM725 145h-4
l-100 -106q-103 -59 -213 -59q-129 0 -211 76t-82 223v745h270v-692q0 -142 125 -142q87 0 215 76v758h270v-1024h-260z" />
    <glyph glyph-name="yacute" unicode="&#xfd;" horiz-adv-x="1042" 
d="M432 1217l217 163q52 41 94 41q44 0 72 -25q29 -26 29 -65q0 -71 -78 -98l-289 -107zM43 971v53h266l219 -760h4l209 760h260v-53l-225 -703q-124 -391 -368 -719h-289v54q165 188 250 356z" />
    <glyph glyph-name="thorn" unicode="&#xfe;" horiz-adv-x="1138" 
d="M696 1044q173 0 270 -146t97 -386q0 -248 -117 -390t-307 -142q-133 0 -246 69v-500h-270v1844l194 82h76v-588l123 108q82 49 180 49zM567 160q219 0 219 352q0 178 -54 257t-165 79q-82 0 -174 -80v-561q85 -47 174 -47z" />
    <glyph glyph-name="ydieresis" unicode="&#xff;" horiz-adv-x="1042" 
d="M188 1290q0 54 39 89q38 34 99 34q58 0 96 -34q39 -35 39 -89q0 -56 -39 -91q-38 -34 -96 -34q-61 0 -99 34q-39 35 -39 91zM582 1290q0 54 39 89q38 34 96 34t96 -34q39 -35 39 -89q0 -56 -39 -91q-38 -34 -96 -34t-96 34q-39 35 -39 91zM43 971v53h266l219 -760h4
l209 760h260v-53l-225 -703q-124 -391 -368 -719h-289v54q165 188 250 356z" />
    <glyph glyph-name="Amacron" unicode="&#x100;" horiz-adv-x="1236" 
d="M926 1524h-615v149h615v-149zM1200 53v-53h-285l-90 315h-430l-90 -315h-272v53l407 1350h361zM756 555l-72 248q-38 132 -72 291h-4q-37 -176 -71 -291l-72 -248h291z" />
    <glyph glyph-name="amacron" unicode="&#x101;" horiz-adv-x="1073" 
d="M217 1155v150h614v-150h-614zM647 137l-123 -108q-82 -49 -180 -49q-131 0 -210 75q-81 77 -81 193q0 231 309 297l285 59v82q0 174 -186 174q-136 0 -305 -74l-25 27l68 178q168 53 323 53q181 0 288 -77q108 -78 108 -219v-496q0 -86 61 -86q33 0 65 14v-147
q-77 -53 -194 -53q-170 0 -203 157zM645 477l-215 -61q-96 -29 -96 -121q0 -55 36 -85t93 -30q103 0 182 88v209z" />
    <glyph glyph-name="Abreve" unicode="&#x102;" horiz-adv-x="1236" 
d="M618 1495q-125 0 -185 91q-60 92 -60 231h112q23 -175 133 -175q109 0 132 175h112q0 -139 -60 -231q-60 -91 -184 -91zM1200 53v-53h-285l-90 315h-430l-90 -315h-272v53l407 1350h361zM756 555l-72 248q-38 132 -72 291h-4q-37 -176 -71 -291l-72 -248h291z" />
    <glyph glyph-name="abreve" unicode="&#x103;" horiz-adv-x="1073" 
d="M524 1126q-125 0 -185 92t-60 230h112q23 -174 133 -174q108 0 131 174h113q0 -138 -60 -230t-184 -92zM647 137l-123 -108q-82 -49 -180 -49q-131 0 -210 75q-81 77 -81 193q0 231 309 297l285 59v82q0 174 -186 174q-136 0 -305 -74l-25 27l68 178q168 53 323 53
q181 0 288 -77q108 -78 108 -219v-496q0 -86 61 -86q33 0 65 14v-147q-77 -53 -194 -53q-170 0 -203 157zM645 477l-215 -61q-96 -29 -96 -121q0 -55 36 -85t93 -30q103 0 182 88v209z" />
    <glyph glyph-name="Aogonek" unicode="&#x104;" horiz-adv-x="1236" 
d="M1135 -297q47 0 84 21v-84q-62 -50 -160 -50q-94 0 -143 46q-50 47 -50 116q0 146 176 248h-127l-90 315h-430l-90 -315h-272v53l407 1350h361l399 -1350v-53h-84q-88 -85 -88 -188q0 -48 28 -79q27 -30 79 -30zM756 555l-72 248q-38 132 -72 291h-4q-37 -176 -71 -291
l-72 -248h291z" />
    <glyph glyph-name="aogonek" unicode="&#x105;" horiz-adv-x="1073" 
d="M1044 180v-147q-49 -34 -141 -49q-72 -80 -72 -172q0 -48 28 -79q27 -30 79 -30q46 0 84 21v-84q-62 -50 -160 -50q-93 0 -142 46q-50 47 -50 116q0 131 145 230q-138 17 -168 155l-123 -108q-82 -49 -180 -49q-131 0 -210 75q-81 77 -81 193q0 231 309 297l285 59v82
q0 174 -186 174q-136 0 -305 -74l-25 27l68 178q168 53 323 53q181 0 288 -77q108 -78 108 -219v-496q0 -86 61 -86q33 0 65 14zM645 477l-215 -61q-96 -29 -96 -121q0 -55 36 -85t93 -30q103 0 182 88v209z" />
    <glyph glyph-name="Cacute" unicode="&#x106;" horiz-adv-x="1189" 
d="M592 1585l217 164q52 41 94 41q43 0 72 -26t29 -64q0 -71 -78 -98l-289 -107zM82 696q0 348 144 533q144 184 464 184q212 0 418 -98v-244q-208 113 -418 113q-179 0 -245 -125t-66 -363t66 -362q66 -125 245 -125q237 0 438 123l-20 -254q-206 -98 -418 -98
q-320 0 -464 184t-144 532z" />
    <glyph glyph-name="cacute" unicode="&#x107;" horiz-adv-x="966" 
d="M453 1217l217 163q52 41 94 41q44 0 72 -25t28 -65q0 -71 -78 -98l-288 -107zM594 848q-122 0 -184 -93q-62 -94 -62 -243q0 -336 260 -336q137 0 283 86v-201q-141 -81 -338 -81q-232 0 -356 143q-125 145 -125 389q0 246 130 389t373 143q175 0 332 -63l-49 -166
l-27 -27q-129 60 -237 60z" />
    <glyph glyph-name="Cdotaccent" unicode="&#x10a;" horiz-adv-x="1189" 
d="M532 1671q0 57 41 96t107 39q65 0 107 -39t42 -96t-41 -95t-108 -38q-66 0 -107 38t-41 95zM82 696q0 348 144 533q144 184 464 184q212 0 418 -98v-244q-208 113 -418 113q-179 0 -245 -125t-66 -363t66 -362q66 -125 245 -125q237 0 438 123l-20 -254
q-206 -98 -418 -98q-320 0 -464 184t-144 532z" />
    <glyph glyph-name="cdotaccent" unicode="&#x10b;" horiz-adv-x="966" 
d="M393 1303q0 57 41 96q40 39 107 39q65 0 107 -39t42 -96q0 -58 -41 -96t-108 -38q-66 0 -107 38t-41 96zM594 848q-122 0 -184 -93q-62 -94 -62 -243q0 -336 260 -336q137 0 283 86v-201q-141 -81 -338 -81q-232 0 -356 143q-125 145 -125 389q0 246 130 389t373 143
q175 0 332 -63l-49 -166l-27 -27q-129 60 -237 60z" />
    <glyph glyph-name="Ccaron" unicode="&#x10c;" horiz-adv-x="1189" 
d="M682 1686l152 165h149l-246 -356h-112l-244 356h147zM82 696q0 348 144 533q144 184 464 184q212 0 418 -98v-244q-208 113 -418 113q-179 0 -245 -125t-66 -363t66 -362q66 -125 245 -125q237 0 438 123l-20 -254q-206 -98 -418 -98q-320 0 -464 184t-144 532z" />
    <glyph glyph-name="ccaron" unicode="&#x10d;" horiz-adv-x="966" 
d="M543 1317l151 166h150l-246 -357h-113l-243 357h147zM594 848q-122 0 -184 -93q-62 -94 -62 -243q0 -336 260 -336q137 0 283 86v-201q-141 -81 -338 -81q-232 0 -356 143q-125 145 -125 389q0 246 130 389t373 143q175 0 332 -63l-49 -166l-27 -27q-129 60 -237 60z" />
    <glyph glyph-name="Dcaron" unicode="&#x10e;" horiz-adv-x="1339" 
d="M635 1686l151 165h150l-246 -356h-112l-244 356h147zM141 1393h521q314 0 454 -171q139 -170 139 -515q0 -351 -140 -528q-141 -179 -453 -179h-521v1393zM428 240h234q165 0 231 103q65 102 65 364q0 258 -64 352t-232 94h-234v-913z" />
    <glyph glyph-name="dcaron" unicode="&#x10f;" horiz-adv-x="1236" 
d="M1210 1491q68 0 105 -46t37 -110q0 -125 -150 -338h-117l107 236q-42 0 -80 35q-37 34 -37 94q0 54 39 91q40 38 96 38zM942 1475h74v-1475h-260l-11 137l-122 -108q-79 -49 -179 -49q-172 0 -270 146t-98 386q0 248 117 390t307 142q133 0 245 -67v416zM571 176
q88 0 174 80v561q-80 47 -174 47q-219 0 -219 -352q0 -177 56 -257q55 -79 163 -79z" />
    <glyph glyph-name="Dcroat" unicode="&#x110;" horiz-adv-x="1345" 
d="M147 1393h523q313 0 452 -171q140 -172 140 -515q0 -349 -141 -528t-451 -179h-523v590h-118v213h118v590zM434 240h236q166 0 230 103q65 104 65 364q0 256 -64 352q-63 94 -231 94h-236v-350h287v-213h-287v-350z" />
    <glyph glyph-name="dcroat" unicode="&#x111;" horiz-adv-x="1138" 
d="M1126 1155h-110v-1155h-260l-11 137l-122 -108q-79 -49 -179 -49q-172 0 -270 146t-98 386q0 248 117 390t307 142q133 0 245 -67v178h-247v150h247v88l197 82h74v-170h110v-150zM571 176q88 0 174 80v561q-80 47 -174 47q-219 0 -219 -352q0 -177 56 -257
q55 -79 163 -79z" />
    <glyph glyph-name="Emacron" unicode="&#x112;" horiz-adv-x="1142" 
d="M289 1524v149h614v-149h-614zM428 1153v-319h535v-238h-535v-356h643l-20 -240h-910v1393h914v-240h-627z" />
    <glyph glyph-name="emacron" unicode="&#x113;" horiz-adv-x="1075" 
d="M895 1155h-614v150h614v-150zM1006 666q0 -81 -29 -211h-627q12 -141 89 -210t196 -69q74 0 167 26q89 25 150 60v-201q-141 -81 -374 -81q-240 0 -373 144q-133 143 -133 388q0 246 130 389t373 143q87 0 159 -18q75 -19 136 -58q65 -42 100 -118q36 -78 36 -184z
M352 588l389 12q9 68 9 80q0 101 -52 141q-51 39 -112 39q-212 0 -234 -272z" />
    <glyph glyph-name="Edotaccent" unicode="&#x116;" horiz-adv-x="1142" 
d="M449 1671q0 57 40 96q41 39 107 39q65 0 107 -39t42 -96q0 -58 -40 -95q-41 -38 -109 -38q-66 0 -107 38q-40 37 -40 95zM428 1153v-319h535v-238h-535v-356h643l-20 -240h-910v1393h914v-240h-627z" />
    <glyph glyph-name="edotaccent" unicode="&#x117;" horiz-adv-x="1075" 
d="M586 1169q-66 0 -107 38t-41 96q0 57 41 96t107 39q65 0 107 -39t42 -96q0 -58 -41 -96t-108 -38zM1006 666q0 -81 -29 -211h-627q12 -141 89 -210t196 -69q74 0 167 26q89 25 150 60v-201q-141 -81 -374 -81q-240 0 -373 144q-133 143 -133 388q0 246 130 389t373 143
q87 0 159 -18q75 -19 136 -58q65 -42 100 -118q36 -78 36 -184zM352 588l389 12q9 68 9 80q0 101 -52 141q-51 39 -112 39q-212 0 -234 -272z" />
    <glyph glyph-name="Eogonek" unicode="&#x118;" horiz-adv-x="1142" 
d="M1067 -297q47 0 84 21v-84q-62 -50 -160 -50q-93 0 -142 46q-50 47 -50 116q0 146 176 248h-834v1393h914v-240h-627v-319h535v-238h-535v-356h643l-20 -240h-2q-88 -85 -88 -188q0 -49 27 -79t79 -30z" />
    <glyph glyph-name="eogonek" unicode="&#x119;" horiz-adv-x="1075" 
d="M971 -236q47 0 84 21v-84q-61 -49 -160 -49q-93 0 -142 46q-51 48 -51 116q0 104 95 190q-107 -24 -219 -24q-240 0 -373 144q-133 143 -133 388q0 246 130 389t373 143q87 0 159 -18q75 -19 136 -58q65 -42 100 -118q36 -78 36 -184q0 -81 -29 -211h-627
q12 -141 89 -210t196 -69q74 0 167 26q89 25 150 60v-201q-88 -85 -88 -188q0 -48 28 -79q27 -30 79 -30zM586 860q-212 0 -234 -272l389 12q9 68 9 80q0 101 -52 141q-51 39 -112 39z" />
    <glyph glyph-name="Ecaron" unicode="&#x11a;" horiz-adv-x="1142" 
d="M596 1686l152 165h149l-246 -356h-112l-244 356h147zM428 1153v-319h535v-238h-535v-356h643l-20 -240h-910v1393h914v-240h-627z" />
    <glyph glyph-name="ecaron" unicode="&#x11b;" horiz-adv-x="1075" 
d="M530 1126l-243 357h147l154 -166l151 166h150l-246 -357h-113zM1006 666q0 -81 -29 -211h-627q12 -141 89 -210t196 -69q74 0 167 26q89 25 150 60v-201q-141 -81 -374 -81q-240 0 -373 144q-133 143 -133 388q0 246 130 389t373 143q87 0 159 -18q75 -19 136 -58
q65 -42 100 -118q36 -78 36 -184zM352 588l389 12q9 68 9 80q0 101 -52 141q-51 39 -112 39q-212 0 -234 -272z" />
    <glyph glyph-name="Gbreve" unicode="&#x11e;" horiz-adv-x="1218" 
d="M686 1495q-125 0 -185 91q-61 93 -61 231h113q23 -175 133 -175q108 0 131 175h113q0 -138 -61 -231q-60 -91 -183 -91zM690 1184q-179 0 -245 -125t-66 -363t66 -362q66 -125 245 -125q62 0 131 10v295h-192v238h477v-113h2v-561q-206 -98 -418 -98q-320 0 -464 184
t-144 532t144 533q144 184 464 184q212 0 418 -98v-244q-208 113 -418 113z" />
    <glyph glyph-name="gbreve" unicode="&#x11f;" horiz-adv-x="1069" 
d="M496 1126q-126 0 -186 92t-60 230h112q23 -174 134 -174q108 0 131 174h112q0 -138 -60 -230t-183 -92zM367 211l381 -39q142 -15 219 -86t77 -201q0 -155 -128 -256q-127 -100 -412 -100q-245 0 -362 67q-115 66 -115 171q0 101 108 184l113 -33l-12 -74q0 -81 64 -114
t194 -33q280 0 280 139q0 48 -26 70t-91 28l-362 35q-89 7 -132 55q-42 47 -42 107q0 125 162 221q-203 89 -203 336q0 164 111 260t315 96q94 0 168 -18l336 18v-157h-125q53 -83 53 -199q0 -181 -110 -280t-316 -99q-46 0 -90 6zM502 870q-84 0 -126 -50t-42 -124
q0 -213 182 -213q166 0 166 195q0 93 -46 142q-47 50 -134 50z" />
    <glyph glyph-name="Gdotaccent" unicode="&#x120;" horiz-adv-x="1218" 
d="M684 1538q-65 0 -106 38t-41 95t41 96q40 39 106 39t108 -39t42 -96t-41 -95t-109 -38zM690 1184q-179 0 -245 -125t-66 -363t66 -362q66 -125 245 -125q62 0 131 10v295h-192v238h477v-113h2v-561q-206 -98 -418 -98q-320 0 -464 184t-144 532t144 533q144 184 464 184
q212 0 418 -98v-244q-208 113 -418 113z" />
    <glyph glyph-name="gdotaccent" unicode="&#x121;" horiz-adv-x="1069" 
d="M494 1169q-66 0 -107 38t-41 96q0 57 41 96q40 39 107 39q65 0 107 -39t42 -96q0 -58 -41 -96t-108 -38zM367 211l381 -39q142 -15 219 -86t77 -201q0 -155 -128 -256q-127 -100 -412 -100q-245 0 -362 67q-115 66 -115 171q0 101 108 184l113 -33l-12 -74q0 -81 64 -114
t194 -33q280 0 280 139q0 48 -26 70t-91 28l-362 35q-89 7 -132 55q-42 47 -42 107q0 125 162 221q-203 89 -203 336q0 164 111 260t315 96q94 0 168 -18l336 18v-157h-125q53 -83 53 -199q0 -181 -110 -280t-316 -99q-46 0 -90 6zM502 870q-84 0 -126 -50t-42 -124
q0 -213 182 -213q166 0 166 195q0 93 -46 142q-47 50 -134 50z" />
    <glyph glyph-name="Gcommaaccent" unicode="&#x122;" horiz-adv-x="1218" 
d="M690 1184q-179 0 -245 -125t-66 -363t66 -362q66 -125 245 -125q62 0 131 10v295h-192v238h477v-113h2v-561q-206 -98 -418 -98q-320 0 -464 184t-144 532t144 533q144 184 464 184q212 0 418 -98v-244q-208 113 -418 113zM680 -82q67 0 104 -46t37 -110
q0 -125 -149 -337h-117l107 235q-44 0 -79 34q-36 34 -36 95q0 54 38 92q37 37 95 37z" />
    <glyph glyph-name="gcommaaccent" unicode="&#x123;" horiz-adv-x="1069" 
d="M510 1128q-66 0 -104 47q-37 46 -37 109q0 126 149 338h117l-105 -236q42 0 78 -33q37 -34 37 -93q0 -56 -39 -94q-40 -38 -96 -38zM367 211l381 -39q142 -15 219 -86t77 -201q0 -155 -128 -256q-127 -100 -412 -100q-245 0 -362 67q-115 66 -115 171q0 101 108 184
l113 -33l-12 -74q0 -81 64 -114t194 -33q280 0 280 139q0 48 -26 70t-91 28l-362 35q-89 7 -132 55q-42 47 -42 107q0 125 162 221q-203 89 -203 336q0 164 111 260t315 96q94 0 168 -18l336 18v-157h-125q53 -83 53 -199q0 -181 -110 -280t-316 -99q-46 0 -90 6zM502 870
q-84 0 -126 -50t-42 -124q0 -213 182 -213q166 0 166 195q0 93 -46 142q-47 50 -134 50z" />
    <glyph glyph-name="Hbar" unicode="&#x126;" horiz-adv-x="1345" 
d="M1317 1001h-121v-1001h-287v596h-475v-596h-287v1001h-118v213h118v179h287v-179h475v179h287v-179h121v-213zM909 1001h-475v-167h475v167z" />
    <glyph glyph-name="hbar" unicode="&#x127;" 
d="M711 1044q129 0 211 -76t82 -223v-745h-271v692q0 142 -127 142q-85 0 -213 -76v-758h-270v1155h-111v150h111v88l194 82h76v-170h248v-150h-248v-276h4l99 106q103 59 215 59z" />
    <glyph glyph-name="Imacron" unicode="&#x12a;" horiz-adv-x="569" 
d="M-23 1524v149h615v-149h-615zM428 1393v-1393h-287v1393h287z" />
    <glyph glyph-name="imacron" unicode="&#x12b;" horiz-adv-x="516" 
d="M-49 1155v150h614v-150h-614zM393 1024v-1024h-270v1024h270z" />
    <glyph glyph-name="Iogonek" unicode="&#x12e;" horiz-adv-x="569" 
d="M383 -297q47 0 84 21v-84q-62 -50 -160 -50q-93 0 -142 46q-50 47 -50 116q0 146 176 248h-150v1393h287v-1393h-63q-89 -86 -89 -188q0 -48 28 -79q27 -30 79 -30z" />
    <glyph glyph-name="iogonek" unicode="&#x12f;" horiz-adv-x="516" 
d="M256 1169q-65 0 -106 38t-41 96q0 57 41 96q40 39 106 39t108 -39t42 -96q0 -58 -41 -96t-109 -38zM211 -188q0 -48 28 -79q27 -30 78 -30q47 0 84 21v-84q-62 -50 -159 -50q-94 0 -143 46q-50 47 -50 116q0 146 176 248h-102v1024h270v-1024h-94q-88 -85 -88 -188z" />
    <glyph glyph-name="Idotaccent" unicode="&#x130;" horiz-adv-x="569" 
d="M135 1671q0 57 41 96t107 39q65 0 107 -39t42 -96t-41 -95t-108 -38q-66 0 -107 38t-41 95zM428 1393v-1393h-287v1393h287z" />
    <glyph glyph-name="dotlessi" unicode="&#x131;" horiz-adv-x="516" 
d="M393 1024v-1024h-270v1024h270z" />
    <glyph glyph-name="IJ" unicode="&#x132;" horiz-adv-x="1144" 
d="M428 1393v-1393h-287v1393h287zM1004 1393v-1301q0 -77 -14 -142q-13 -61 -51 -128q-37 -66 -117 -114q-82 -49 -197 -77l-88 213q55 22 99 53q38 27 54 61q18 38 22 61q5 30 5 73v1301h287z" />
    <glyph glyph-name="ij" unicode="&#x133;" horiz-adv-x="1032" 
d="M109 1303q0 57 41 96q40 39 106 39t108 -39t42 -96q0 -58 -41 -96t-109 -38q-65 0 -106 38t-41 96zM625 1303q0 57 41 96q40 39 106 39t108 -39t42 -96q0 -58 -41 -96t-109 -38q-65 0 -106 38t-41 96zM393 1024v-1024h-270v1024h270zM909 1024v-1001q0 -163 -67 -276
q-68 -114 -252 -198l-109 160q98 62 128 123q30 60 30 191v1001h270z" />
    <glyph glyph-name="Kcommaaccent" unicode="&#x136;" horiz-adv-x="1263" 
d="M428 1393v-1393h-287v1393h287zM934 1393h289v-54l-430 -624l440 -662v-53h-305l-439 666v75zM530 -575l107 235q-44 0 -79 34q-36 34 -36 95q0 54 38 92q37 37 95 37q68 0 105 -46t37 -110q0 -124 -150 -337h-117z" />
    <glyph glyph-name="kcommaaccent" unicode="&#x137;" horiz-adv-x="1110" 
d="M319 1475h74v-1475h-270v1393zM807 0l-373 532l365 492h243v-53l-317 -416l358 -502v-53h-276zM420 -575l106 235q-44 0 -79 34t-35 95q0 54 38 92q37 37 95 37q67 0 104 -46t37 -110q0 -125 -149 -337h-117z" />
    <glyph glyph-name="Lacute" unicode="&#x139;" horiz-adv-x="1087" 
d="M166 1585l217 164q52 41 94 41q43 0 72 -26t29 -64q0 -71 -78 -98l-289 -107zM1051 240l-21 -240h-889v1393h287v-1153h623z" />
    <glyph glyph-name="lacute" unicode="&#x13a;" horiz-adv-x="550" 
d="M174 1667l217 164q52 41 94 41q43 0 72 -26t29 -64q0 -72 -78 -99l-289 -106zM315 1475h74v-1223q0 -86 62 -86q33 0 65 14v-168q-65 -32 -178 -32q-93 0 -157 44q-62 43 -62 136v1233z" />
    <glyph glyph-name="Lcommaaccent" unicode="&#x13b;" horiz-adv-x="1087" 
d="M1051 240l-21 -240h-889v1393h287v-1153h623zM420 -575l106 235q-44 0 -79 34t-35 95q0 54 38 92q37 37 95 37q67 0 104 -46t37 -110q0 -125 -149 -337h-117z" />
    <glyph glyph-name="lcommaaccent" unicode="&#x13c;" horiz-adv-x="550" 
d="M315 1475h74v-1223q0 -86 62 -86q33 0 65 14v-168q-65 -32 -178 -32q-93 0 -157 44q-62 43 -62 136v1233zM197 -575l106 235q-44 0 -79 34q-36 34 -36 95q0 54 38 92q37 37 96 37q67 0 104 -46t37 -110q0 -124 -150 -337h-116z" />
    <glyph glyph-name="Lcaron" unicode="&#x13d;" horiz-adv-x="1087" 
d="M614 915l105 236q-40 0 -78 35q-37 34 -37 94q0 54 39 91q40 38 96 38q68 0 105 -46t37 -110q0 -125 -150 -338h-117zM1051 240l-21 -240h-889v1393h287v-1153h623z" />
    <glyph glyph-name="lcaron" unicode="&#x13e;" horiz-adv-x="610" 
d="M459 997l104 236q-40 0 -78 35q-36 33 -36 94q0 55 37 92t96 37q69 0 105 -46q36 -47 36 -110q0 -125 -150 -338h-114zM315 1475h74v-1223q0 -86 62 -86q33 0 65 14v-168q-65 -32 -178 -32q-93 0 -157 44q-62 43 -62 136v1233z" />
    <glyph glyph-name="Ldot" unicode="&#x13f;" horiz-adv-x="1087" 
d="M1051 240l-21 -240h-889v1393h287v-1153h623zM604 774q0 51 37 87t88 36t87 -36t36 -87q0 -53 -36 -89t-87 -36q-53 0 -89 36t-36 89z" />
    <glyph glyph-name="ldot" unicode="&#x140;" horiz-adv-x="741" 
d="M315 1475h74v-1223q0 -86 62 -86q33 0 65 14v-168q-65 -32 -178 -32q-93 0 -157 44q-62 43 -62 136v1233zM494 711q0 52 35 87q36 36 87 36q52 0 89 -36q36 -35 36 -87q0 -54 -35 -89q-36 -36 -90 -36t-88 36q-34 35 -34 89z" />
    <glyph glyph-name="Lslash" unicode="&#x141;" horiz-adv-x="1095" 
d="M1059 240l-21 -240h-888v553l-121 -39v217l121 39v623h286v-529l246 80v-217l-246 -80v-407h623z" />
    <glyph glyph-name="lslash" unicode="&#x142;" horiz-adv-x="577" 
d="M471 166q31 0 66 14v-168q-70 -32 -181 -32q-91 0 -155 44t-64 136v377l-104 -80v190l104 80v666l197 82h74v-539l122 94v-188l-122 -94v-496q0 -86 63 -86z" />
    <glyph glyph-name="Nacute" unicode="&#x143;" horiz-adv-x="1329" 
d="M565 1585l217 164q52 41 95 41q42 0 71 -26t29 -64q0 -71 -78 -98l-289 -107zM428 1393l496 -873h10q-16 179 -16 438v435h272v-1393h-287l-497 872h-11q17 -190 17 -438v-434h-271v1393h287z" />
    <glyph glyph-name="nacute" unicode="&#x144;" 
d="M469 1217l217 163q52 41 94 41q44 0 72 -25q29 -26 29 -65q0 -71 -78 -98l-289 -107zM393 879h4l101 106q103 59 213 59q129 0 211 -76t82 -223v-745h-271v692q0 142 -125 142q-87 0 -215 -76v-758h-270v1024h260z" />
    <glyph glyph-name="Ncommaaccent" unicode="&#x145;" horiz-adv-x="1329" 
d="M428 1393l496 -873h10q-16 179 -16 438v435h272v-1393h-287l-497 872h-11q17 -190 17 -438v-434h-271v1393h287zM526 -575l107 235q-44 0 -79 34q-36 34 -36 95q0 54 38 92q37 37 95 37q68 0 105 -46t37 -110q0 -124 -150 -337h-117z" />
    <glyph glyph-name="ncommaaccent" unicode="&#x146;" 
d="M393 879h4l101 106q103 59 213 59q129 0 211 -76t82 -223v-745h-271v692q0 142 -125 142q-87 0 -215 -76v-758h-270v1024h260zM430 -575l107 235q-44 0 -79 34q-36 34 -36 95q0 54 38 92q37 37 95 37q67 0 104 -46t37 -110q0 -125 -149 -337h-117z" />
    <glyph glyph-name="Ncaron" unicode="&#x147;" horiz-adv-x="1329" 
d="M653 1686l152 165h149l-245 -356h-113l-244 356h148zM428 1393l496 -873h10q-16 179 -16 438v435h272v-1393h-287l-497 872h-11q17 -190 17 -438v-434h-271v1393h287z" />
    <glyph glyph-name="ncaron" unicode="&#x148;" 
d="M557 1317l152 166h149l-246 -357h-112l-244 357h147zM393 879h4l101 106q103 59 213 59q129 0 211 -76t82 -223v-745h-271v692q0 142 -125 142q-87 0 -215 -76v-758h-270v1024h260z" />
    <glyph glyph-name="Eng" unicode="&#x14a;" horiz-adv-x="1329" 
d="M1188 1393v-1405q-1 -69 -18 -136q-15 -61 -54 -122q-39 -62 -117 -108q-77 -46 -190 -73l-66 168q119 47 155 104t36 144v35l-528 872h-11q17 -190 17 -438v-434h-271v1393h287l496 -842h10q-16 180 -16 440v402h270z" />
    <glyph glyph-name="eng" unicode="&#x14b;" 
d="M397 879l99 106q103 59 215 59q129 0 211 -76t82 -223v-722q0 -161 -69 -275q-70 -116 -251 -199l-109 160q98 62 128 123q30 60 30 191v669q0 142 -127 142q-85 0 -213 -76v-758h-270v1024h260l10 -145h4z" />
    <glyph glyph-name="Omacron" unicode="&#x14c;" horiz-adv-x="1349" 
d="M371 1524v149h614v-149h-614zM674 -20q-311 0 -452 187q-140 186 -140 540q0 350 140 527q141 179 452 179q312 0 453 -179q141 -178 141 -527q0 -727 -594 -727zM674 1184q-164 0 -230 -108q-65 -106 -65 -369q0 -264 66 -381t229 -117q164 0 230 117q67 119 67 381
q0 261 -66 369t-231 108z" />
    <glyph glyph-name="omacron" unicode="&#x14d;" 
d="M252 1155v150h614v-150h-614zM559 -20q-237 0 -361 140t-124 392t124 392t361 140q238 0 362 -140q123 -139 123 -392t-123 -392q-124 -140 -362 -140zM559 860q-115 0 -162 -87q-47 -88 -47 -261t47 -261q47 -87 162 -87t162 87q47 88 47 261t-47 261q-47 87 -162 87z
" />
    <glyph glyph-name="Ohungarumlaut" unicode="&#x150;" horiz-adv-x="1349" 
d="M414 1563l223 233q33 33 72 33t63 -26q25 -27 25 -60q0 -55 -60 -88l-270 -160zM793 1563l225 233q28 33 67 33q42 0 66 -26q25 -27 25 -60q0 -59 -62 -88l-266 -160zM674 -20q-311 0 -452 187q-140 186 -140 540q0 350 140 527q141 179 452 179q312 0 453 -179
q141 -178 141 -527q0 -727 -594 -727zM674 1184q-164 0 -230 -108q-65 -106 -65 -369q0 -264 66 -381t229 -117q164 0 230 117q67 119 67 381q0 261 -66 369t-231 108z" />
    <glyph glyph-name="ohungarumlaut" unicode="&#x151;" 
d="M295 1194l223 233q33 33 72 33t63 -25q25 -27 25 -61q0 -55 -60 -88l-270 -160zM674 1194l225 233q29 33 68 33q41 0 65 -25q25 -27 25 -61q0 -59 -62 -88l-266 -160zM559 -20q-237 0 -361 140t-124 392t124 392t361 140q238 0 362 -140q123 -139 123 -392t-123 -392
q-124 -140 -362 -140zM559 860q-115 0 -162 -87q-47 -88 -47 -261t47 -261q47 -87 162 -87t162 87q47 88 47 261t-47 261q-47 87 -162 87z" />
    <glyph glyph-name="OE" unicode="&#x152;" horiz-adv-x="1972" 
d="M1901 240l-21 -240h-864v90q-126 -110 -342 -110q-311 0 -452 187q-140 186 -140 540q0 350 140 527q141 179 452 179q216 0 342 -104v84h868v-240h-627v-319h535v-238h-535v-356h644zM674 209q164 0 230 117q67 119 67 381q0 261 -66 369t-231 108q-164 0 -230 -108
q-65 -106 -65 -369q0 -264 66 -381t229 -117z" />
    <glyph glyph-name="oe" unicode="&#x153;" horiz-adv-x="1755" 
d="M1634 262v-201q-143 -81 -374 -81q-232 0 -355 139q-117 -139 -346 -139q-237 0 -361 140t-124 392t124 392t361 140q225 0 344 -137q125 137 354 137q87 0 159 -18q75 -19 136 -58q65 -42 100 -118q36 -78 36 -184q0 -81 -29 -211h-625q12 -142 88 -209q77 -68 193 -68
q72 0 169 25q92 24 150 59zM559 164q115 0 162 87q47 88 47 261t-47 261q-47 87 -162 87t-162 -87q-47 -88 -47 -261t47 -261q47 -87 162 -87zM1032 588l389 12q8 42 8 80q0 102 -50 141q-49 39 -113 39q-210 0 -234 -272z" />
    <glyph glyph-name="Racute" unicode="&#x154;" horiz-adv-x="1249" 
d="M563 1495l-45 90l217 164q52 41 94 41q43 0 72 -26t29 -64q0 -71 -78 -98zM1190 53v-53h-299l-156 393q-28 68 -66 102q-39 35 -124 35h-117v-530h-287v1393h477q523 0 523 -426q0 -293 -238 -389v-9q102 -40 168 -209zM428 770h190q126 0 176 47t50 150q0 100 -49 143
t-177 43h-190v-383z" />
    <glyph glyph-name="racute" unicode="&#x155;" horiz-adv-x="806" 
d="M358 1217l217 163q52 41 95 41t71 -25q29 -26 29 -65q0 -71 -78 -98l-289 -107zM393 838h4l101 151q68 55 172 55q52 0 121 -18l-86 -238q-54 13 -97 13q-118 0 -215 -92v-709h-270v1024h260z" />
    <glyph glyph-name="Rcommaaccent" unicode="&#x156;" horiz-adv-x="1249" 
d="M1190 53v-53h-299l-156 393q-28 68 -66 102q-39 35 -124 35h-117v-530h-287v1393h477q523 0 523 -426q0 -293 -238 -389v-9q102 -40 168 -209zM428 770h190q126 0 176 47t50 150q0 100 -49 143t-177 43h-190v-383zM627 -82q67 0 104 -46t37 -110q0 -124 -150 -337h-116
l106 235q-44 0 -79 34t-35 95q0 55 37 92t96 37z" />
    <glyph glyph-name="rcommaaccent" unicode="&#x157;" horiz-adv-x="806" 
d="M393 838h4l101 151q68 55 172 55q52 0 121 -18l-86 -238q-54 13 -97 13q-118 0 -215 -92v-709h-270v1024h260zM129 -575l107 235q-44 0 -79 34q-36 34 -36 95q0 54 38 92q37 37 95 37q67 0 104 -46t37 -110q0 -125 -149 -337h-117z" />
    <glyph glyph-name="Rcaron" unicode="&#x158;" horiz-adv-x="1249" 
d="M551 1495l-244 356h148l153 -165l152 165h149l-245 -356h-113zM1190 53v-53h-299l-156 393q-28 68 -66 102q-39 35 -124 35h-117v-530h-287v1393h477q523 0 523 -426q0 -293 -238 -389v-9q102 -40 168 -209zM428 770h190q126 0 176 47t50 150q0 100 -49 143t-177 43h-190
v-383z" />
    <glyph glyph-name="rcaron" unicode="&#x159;" horiz-adv-x="806" 
d="M449 1317l151 166h150l-246 -357h-113l-244 357h148zM393 838h4l101 151q68 55 172 55q52 0 121 -18l-86 -238q-54 13 -97 13q-118 0 -215 -92v-709h-270v1024h260z" />
    <glyph glyph-name="Sacute" unicode="&#x15a;" horiz-adv-x="1093" 
d="M459 1585l217 164q52 41 94 41q43 0 72 -26q28 -25 28 -64q0 -71 -77 -98l-289 -107zM94 1026q0 183 129 285t324 102q229 0 436 -96v-246q-208 113 -416 113q-90 0 -133 -37t-43 -92q0 -61 65 -111q63 -48 156 -91q97 -45 185 -95q89 -51 156 -149q65 -95 65 -222
q0 -186 -136 -297q-135 -110 -354 -110q-244 0 -444 98v248q257 -117 436 -117q201 0 201 151q0 70 -65 123q-69 56 -156 96q-99 45 -185 92q-91 49 -156 140t-65 215z" />
    <glyph glyph-name="sacute" unicode="&#x15b;" horiz-adv-x="901" 
d="M375 1217l217 163q52 41 94 41q44 0 72 -25t28 -65q0 -71 -77 -98l-289 -107zM481 848q-127 0 -127 -86q0 -41 50 -74q47 -31 122 -61q67 -27 144 -65q73 -36 122 -102q50 -67 50 -159q0 -146 -106 -234q-105 -87 -279 -87q-193 0 -357 71l-26 211q181 -86 354 -86
q70 0 104 29q33 29 33 69q0 43 -49 77q-50 35 -121 63q-77 31 -142 65q-71 38 -120 106t-49 165q0 144 112 220q110 74 273 74q175 0 332 -63l-47 -166l-29 -27q-129 60 -244 60z" />
    <glyph glyph-name="Scedilla" unicode="&#x15e;" horiz-adv-x="1093" 
d="M1018 387q0 -169 -117 -279t-307 -126v-45q91 0 144 -43q55 -44 55 -119q0 -82 -53 -133q-54 -52 -148 -52q-90 0 -164 31v90q62 -22 104 -22q107 0 107 86q0 90 -145 90v115q-229 11 -410 98v248q257 -117 436 -117q201 0 201 151q0 70 -65 123q-69 56 -156 96
q-99 45 -185 92q-91 49 -156 140t-65 215q0 183 129 285t324 102q229 0 436 -96v-246q-208 113 -416 113q-90 0 -133 -37t-43 -92q0 -61 65 -111q63 -48 156 -91q97 -45 185 -95q89 -51 156 -149q65 -95 65 -222z" />
    <glyph glyph-name="scedilla" unicode="&#x15f;" horiz-adv-x="901" 
d="M842 301q0 -138 -94 -223q-94 -86 -252 -96v-45q91 0 144 -43q54 -44 54 -119q0 -82 -52 -133q-54 -52 -148 -52q-90 0 -164 31v90q62 -22 104 -22q107 0 107 86q0 90 -146 90v117q-163 11 -295 69l-26 211q181 -86 354 -86q70 0 104 29q33 29 33 69q0 43 -49 77
q-50 35 -121 63q-77 31 -142 65q-71 38 -120 106t-49 165q0 144 112 220q110 74 273 74q175 0 332 -63l-47 -166l-29 -27q-129 60 -244 60q-127 0 -127 -86q0 -41 50 -74q47 -31 122 -61q67 -27 144 -65q73 -36 122 -102q50 -67 50 -159z" />
    <glyph glyph-name="Scaron" unicode="&#x160;" horiz-adv-x="1093" 
d="M547 1686l151 165h150l-246 -356h-113l-243 356h147zM94 1026q0 183 129 285t324 102q229 0 436 -96v-246q-208 113 -416 113q-90 0 -133 -37t-43 -92q0 -61 65 -111q63 -48 156 -91q97 -45 185 -95q89 -51 156 -149q65 -95 65 -222q0 -186 -136 -297
q-135 -110 -354 -110q-244 0 -444 98v248q257 -117 436 -117q201 0 201 151q0 70 -65 123q-69 56 -156 96q-99 45 -185 92q-91 49 -156 140t-65 215z" />
    <glyph glyph-name="scaron" unicode="&#x161;" horiz-adv-x="901" 
d="M463 1317l153 166h148l-244 -357h-114l-244 357h147zM481 848q-127 0 -127 -86q0 -41 50 -74q47 -31 122 -61q67 -27 144 -65q73 -36 122 -102q50 -67 50 -159q0 -146 -106 -234q-105 -87 -279 -87q-193 0 -357 71l-26 211q181 -86 354 -86q70 0 104 29q33 29 33 69
q0 43 -49 77q-50 35 -121 63q-77 31 -142 65q-71 38 -120 106t-49 165q0 144 112 220q110 74 273 74q175 0 332 -63l-47 -166l-29 -27q-129 60 -244 60z" />
    <glyph glyph-name="Tcedilla" unicode="&#x162;" horiz-adv-x="1085" 
d="M594 0v-63q91 0 144 -43q55 -44 55 -119q0 -82 -53 -133q-54 -52 -148 -52q-90 0 -164 31v90q62 -22 104 -22q107 0 107 86q0 90 -145 90v135h-95v1153h-346v240h979v-240h-346v-1153h-92z" />
    <glyph glyph-name="tcedilla" unicode="&#x163;" horiz-adv-x="714" 
d="M483 -18v-45q92 0 145 -43q54 -44 54 -119q0 -82 -52 -133q-54 -52 -149 -52q-90 0 -164 31v90q62 -22 105 -22q106 0 106 86q0 90 -145 90v119q-117 12 -172 74t-55 194v582h-107v106l107 84l184 227h86v-227h231v-190h-231v-543q0 -105 111 -105q66 0 125 25v-195
q-78 -29 -179 -34z" />
    <glyph glyph-name="Tcaron" unicode="&#x164;" horiz-adv-x="1085" 
d="M543 1686l151 165h150l-246 -356h-113l-243 356h147zM399 0v1153h-346v240h979v-240h-346v-1153h-287z" />
    <glyph glyph-name="tcaron" unicode="&#x165;" horiz-adv-x="714" 
d="M473 1096l105 235q-40 0 -78 35q-37 34 -37 94q0 54 39 91q40 38 96 38q67 0 104 -46t37 -109q0 -126 -149 -338h-117zM49 834v106l107 84l184 227h86v-227h231v-190h-231v-543q0 -105 111 -105q66 0 125 25v-195q-91 -36 -207 -36q-157 0 -228 61t-71 211v582h-107z" />
    <glyph glyph-name="Tbar" unicode="&#x166;" horiz-adv-x="1101" 
d="M694 1153v-385h215v-211h-215v-557h-286v557h-215v211h215v385h-347v240h979v-240h-346z" />
    <glyph glyph-name="tbar" unicode="&#x167;" horiz-adv-x="722" 
d="M545 186q64 0 123 25v-195q-91 -36 -207 -36q-157 0 -228 61t-71 211v194h-107v148h107v240h-107v106l107 84l184 227h86v-227h232v-190h-232v-240h232v-148h-232v-155q0 -105 113 -105z" />
    <glyph glyph-name="Umacron" unicode="&#x16a;" horiz-adv-x="1312" 
d="M336 1524v149h614v-149h-614zM655 -20q-239 0 -382 118q-144 118 -144 375v920h287v-920q0 -113 58 -187q58 -75 181 -75q124 0 182 76t58 186v920h287v-920q0 -257 -143 -376q-141 -117 -384 -117z" />
    <glyph glyph-name="umacron" unicode="&#x16b;" 
d="M250 1155v150h614v-150h-614zM725 145h-4l-100 -106q-103 -59 -213 -59q-129 0 -211 76t-82 223v745h270v-692q0 -142 125 -142q87 0 215 76v758h270v-1024h-260z" />
    <glyph glyph-name="Uring" unicode="&#x16e;" horiz-adv-x="1312" 
d="M463 1642q0 79 49 125q51 48 131 48q78 0 129 -48q49 -46 49 -125q0 -77 -49 -123t-129 -46q-81 0 -130 46q-50 47 -50 123zM555 1642q0 -38 24 -61q23 -22 64 -22q86 0 86 83q0 87 -86 87q-39 0 -64 -23q-24 -22 -24 -64zM655 -20q-239 0 -382 118q-144 118 -144 375
v920h287v-920q0 -113 58 -187q58 -75 181 -75q124 0 182 76t58 186v920h287v-920q0 -257 -143 -376q-141 -117 -384 -117z" />
    <glyph glyph-name="uring" unicode="&#x16f;" 
d="M375 1274q0 79 49 125q50 47 131 47q79 0 129 -47q49 -46 49 -125q0 -78 -49 -124t-129 -46q-81 0 -130 46q-50 47 -50 124zM467 1274q0 -40 23 -62t65 -22q86 0 86 84q0 86 -86 86q-40 0 -65 -23q-23 -22 -23 -63zM725 145h-4l-100 -106q-103 -59 -213 -59
q-129 0 -211 76t-82 223v745h270v-692q0 -142 125 -142q87 0 215 76v758h270v-1024h-260z" />
    <glyph glyph-name="Uhungarumlaut" unicode="&#x170;" horiz-adv-x="1312" 
d="M379 1563l223 233q33 33 72 33t63 -26q25 -27 25 -60q0 -55 -60 -88l-270 -160zM758 1563l225 233q29 33 68 33q41 0 65 -26q25 -27 25 -60q0 -59 -62 -88l-266 -160zM655 -20q-239 0 -382 118q-144 118 -144 375v920h287v-920q0 -113 58 -187q58 -75 181 -75
q124 0 182 76t58 186v920h287v-920q0 -257 -143 -376q-141 -117 -384 -117z" />
    <glyph glyph-name="uhungarumlaut" unicode="&#x171;" 
d="M293 1194l223 233q33 33 72 33t63 -25q25 -27 25 -61q0 -55 -60 -88l-270 -160zM672 1194l225 233q29 33 68 33q41 0 65 -25q25 -27 25 -61q0 -59 -62 -88l-266 -160zM725 145h-4l-100 -106q-103 -59 -213 -59q-129 0 -211 76t-82 223v745h270v-692q0 -142 125 -142
q87 0 215 76v758h270v-1024h-260z" />
    <glyph glyph-name="Uogonek" unicode="&#x172;" horiz-adv-x="1312" 
d="M1182 1393v-920q0 -463 -471 -491q-70 -84 -70 -170q0 -48 28 -79q27 -30 79 -30q46 0 83 21v-84q-62 -50 -159 -50q-94 0 -143 46q-50 47 -50 116q0 132 144 228q-224 8 -359 126t-135 367v920h287v-920q0 -113 58 -187q58 -75 181 -75q124 0 182 76t58 186v920h287z
" />
    <glyph glyph-name="uogonek" unicode="&#x173;" 
d="M938 -297q46 0 84 21v-84q-62 -50 -160 -50q-93 0 -142 46q-50 47 -50 116q0 146 176 248h-111l-10 145h-4l-100 -106q-103 -59 -213 -59q-129 0 -211 76t-82 223v745h270v-692q0 -142 125 -142q87 0 215 76v758h270v-1024h-75q-89 -86 -89 -188q0 -48 28 -79
q27 -30 79 -30z" />
    <glyph glyph-name="Wcircumflex" unicode="&#x174;" horiz-adv-x="1863" 
d="M801 1495h-148l244 356h113l245 -356h-149l-152 168zM1817 1393v-54l-342 -1349h-371l-172 766l-176 -766h-373l-332 1349v54h283l182 -801q42 -193 59 -297h5q10 63 63 297l170 801h264l164 -801q36 -166 55 -297h4q15 84 62 297l190 801h265z" />
    <glyph glyph-name="wcircumflex" unicode="&#x175;" horiz-adv-x="1609" 
d="M664 1126h-148l244 357h112l246 -357h-149l-152 168zM1573 1024v-53l-291 -981h-348l-127 633l-162 -633h-346l-240 981v53h267l163 -754h5l182 754h287l151 -754h4l195 754h260z" />
    <glyph glyph-name="Ycircumflex" unicode="&#x176;" horiz-adv-x="1181" 
d="M444 1495h-147l244 356h112l246 -356h-149l-152 168zM1157 1339l-426 -888v-451h-287v461l-413 878v54h288l185 -418q50 -112 96 -234h2q53 149 92 234l189 418h274v-54z" />
    <glyph glyph-name="ycircumflex" unicode="&#x177;" horiz-adv-x="1042" 
d="M219 1126l244 357h112l246 -357h-149l-152 168l-153 -168h-148zM43 971v53h266l219 -760h4l209 760h260v-53l-225 -703q-124 -391 -368 -719h-289v54q165 188 250 356z" />
    <glyph glyph-name="Ydieresis" unicode="&#x178;" horiz-adv-x="1181" 
d="M403 1534q-60 0 -98 34q-39 35 -39 91q0 55 39 89q38 34 98 34q59 0 97 -34q39 -34 39 -89q0 -57 -39 -91q-38 -34 -97 -34zM795 1534q-59 0 -97 34q-39 35 -39 91q0 55 39 89q38 34 97 34q58 0 96 -34q39 -34 39 -89q0 -57 -39 -91q-38 -34 -96 -34zM1157 1339
l-426 -888v-451h-287v461l-413 878v54h288l185 -418q50 -112 96 -234h2q53 149 92 234l189 418h274v-54z" />
    <glyph glyph-name="Zacute" unicode="&#x179;" horiz-adv-x="1079" 
d="M451 1585l217 164q52 41 94 41q43 0 72 -26q28 -25 28 -64q0 -71 -78 -98l-288 -107zM1022 240l-21 -240h-942v207l594 946h-555v240h891v-207l-588 -946h621z" />
    <glyph glyph-name="zacute" unicode="&#x17a;" horiz-adv-x="942" 
d="M381 1217l217 163q52 41 94 41q44 0 72 -25q29 -26 29 -65q0 -71 -78 -98l-289 -107zM393 190h490l-37 -190h-778v164l475 670h-475l57 190h737v-164z" />
    <glyph glyph-name="Zdotaccent" unicode="&#x17b;" horiz-adv-x="1079" 
d="M391 1671q0 57 41 96q40 39 107 39q65 0 107 -39t42 -96t-41 -95t-108 -38q-66 0 -107 38t-41 95zM1022 240l-21 -240h-942v207l594 946h-555v240h891v-207l-588 -946h621z" />
    <glyph glyph-name="zdotaccent" unicode="&#x17c;" horiz-adv-x="942" 
d="M322 1303q0 57 40 96q41 39 107 39t108 -39q41 -38 41 -96q0 -59 -40 -96q-41 -38 -109 -38q-66 0 -107 38q-40 37 -40 96zM393 190h490l-37 -190h-778v164l475 670h-475l57 190h737v-164z" />
    <glyph glyph-name="Zcaron" unicode="&#x17d;" horiz-adv-x="1079" 
d="M539 1686l151 165h150l-246 -356h-113l-243 356h147zM1022 240l-21 -240h-942v207l594 946h-555v240h891v-207l-588 -946h621z" />
    <glyph glyph-name="zcaron" unicode="&#x17e;" horiz-adv-x="942" 
d="M471 1317l152 166h149l-246 -357h-112l-244 357h147zM393 190h490l-37 -190h-778v164l475 670h-475l57 190h737v-164z" />
    <glyph glyph-name="florin" unicode="&#x192;" horiz-adv-x="1013" 
d="M379 852l33 235q15 108 50 180q36 74 84 118q50 46 122 69q80 26 147 33q78 8 180 8l-28 -209l-35 -14q-64 16 -113 16q-122 0 -143 -143l-41 -293h276l-26 -168h-275l-90 -645q-15 -107 -50 -179q-36 -76 -84 -119q-50 -46 -122 -69q-76 -25 -147 -32q-88 -9 -180 -9
l30 209l33 15q71 -17 113 -17q122 0 143 144l98 702h-280l26 168h279z" />
    <glyph glyph-name="Scommaaccent" unicode="&#x218;" horiz-adv-x="1093" 
d="M94 1026q0 183 129 285t324 102q229 0 436 -96v-246q-208 113 -416 113q-90 0 -133 -37t-43 -92q0 -61 65 -111q63 -48 156 -91q97 -45 185 -95q89 -51 156 -149q65 -95 65 -222q0 -186 -136 -297q-135 -110 -354 -110q-244 0 -444 98v248q257 -117 436 -117
q201 0 201 151q0 70 -65 123q-69 56 -156 96q-99 45 -185 92q-91 49 -156 140t-65 215zM416 -575l106 235q-44 0 -79 34t-35 95q0 55 37 92t96 37q67 0 104 -46t37 -110q0 -124 -150 -337h-116z" />
    <glyph glyph-name="scommaaccent" unicode="&#x219;" horiz-adv-x="901" 
d="M481 848q-127 0 -127 -86q0 -41 50 -74q47 -31 122 -61q67 -27 144 -65q73 -36 122 -102q50 -67 50 -159q0 -146 -106 -234q-105 -87 -279 -87q-193 0 -357 71l-26 211q181 -86 354 -86q70 0 104 29q33 29 33 69q0 43 -49 77q-50 35 -121 63q-77 31 -142 65
q-71 38 -120 106t-49 165q0 144 112 220q110 74 273 74q175 0 332 -63l-47 -166l-29 -27q-129 60 -244 60zM319 -575l107 235q-44 0 -79 34q-36 34 -36 95q0 54 38 92q37 37 95 37q68 0 105 -46t37 -110q0 -124 -150 -337h-117z" />
    <glyph glyph-name="uni021A" unicode="&#x21a;" horiz-adv-x="1085" 
d="M399 0v1153h-346v240h979v-240h-346v-1153h-287zM418 -575l106 235q-44 0 -79 34t-35 95q0 55 37 92t96 37q67 0 104 -46t37 -110q0 -125 -149 -337h-117z" />
    <glyph glyph-name="uni021B" unicode="&#x21b;" horiz-adv-x="714" 
d="M49 834v106l107 84l184 227h86v-227h231v-190h-231v-543q0 -105 111 -105q66 0 125 25v-195q-91 -36 -207 -36q-157 0 -228 61t-71 211v582h-107zM305 -575l107 235q-44 0 -79 34q-36 34 -36 95q0 54 38 92q37 37 95 37q68 0 105 -46q36 -45 36 -110q0 -125 -149 -337
h-117z" />
    <glyph glyph-name="dotlessj" unicode="&#x237;" horiz-adv-x="516" 
d="M393 1024v-1001q0 -163 -67 -276q-68 -114 -252 -198l-109 160q98 62 128 123q30 60 30 191v1001h270z" />
    <glyph glyph-name="circumflex" unicode="&#x2c6;" horiz-adv-x="925" 
d="M162 1126l244 357h112l246 -357h-150l-151 168l-154 -168h-147z" />
    <glyph glyph-name="ring" unicode="&#x2da;" horiz-adv-x="737" 
d="M188 1274q0 78 50 125t131 47q79 0 129 -47q49 -46 49 -125q0 -78 -49 -124t-129 -46q-81 0 -130 46q-51 48 -51 124zM281 1274q0 -40 23 -62t65 -22q86 0 86 84q0 86 -86 86q-40 0 -65 -23q-23 -22 -23 -63z" />
    <glyph glyph-name="tilde" unicode="&#x2dc;" horiz-adv-x="1069" 
d="M313 1126h-131q5 126 63 205q59 80 146 80q63 0 161 -48q97 -48 128 -48q64 0 82 80h123q-12 -273 -180 -273q-60 0 -168 48q-110 49 -140 49q-37 0 -56 -21q-21 -22 -28 -72z" />
    <glyph glyph-name="Wgrave" unicode="&#x1e80;" horiz-adv-x="1863" 
d="M991 1495l-289 107q-77 27 -77 98q0 38 27 64q28 26 71 26q44 0 96 -41l217 -164zM1817 1393v-54l-342 -1349h-371l-172 766l-176 -766h-373l-332 1349v54h283l182 -801q42 -193 59 -297h5q10 63 63 297l170 801h264l164 -801q36 -166 55 -297h4q15 84 62 297l190 801
h265z" />
    <glyph glyph-name="wgrave" unicode="&#x1e81;" horiz-adv-x="1609" 
d="M852 1126l-289 107q-78 27 -78 98q0 39 28 65q26 25 71 25q44 0 96 -41l217 -163zM1573 1024v-53l-291 -981h-348l-127 633l-162 -633h-346l-240 981v53h267l163 -754h5l182 754h287l151 -754h4l195 754h260z" />
    <glyph glyph-name="Wacute" unicode="&#x1e82;" horiz-adv-x="1863" 
d="M909 1495l-45 90l217 164q52 41 95 41q42 0 71 -26t29 -64q0 -71 -78 -98zM1817 1393v-54l-342 -1349h-371l-172 766l-176 -766h-373l-332 1349v54h283l182 -801q42 -193 59 -297h5q10 63 63 297l170 801h264l164 -801q36 -166 55 -297h4q15 84 62 297l190 801h265z" />
    <glyph glyph-name="wacute" unicode="&#x1e83;" horiz-adv-x="1609" 
d="M772 1126l-45 91l217 163q52 41 94 41q44 0 72 -25q29 -26 29 -65q0 -71 -78 -98zM1573 1024v-53l-291 -981h-348l-127 633l-162 -633h-346l-240 981v53h267l163 -754h5l182 754h287l151 -754h4l195 754h260z" />
    <glyph glyph-name="Wdieresis" unicode="&#x1e84;" horiz-adv-x="1863" 
d="M758 1534q-61 0 -99 34t-38 91q0 55 38 89t99 34q58 0 96 -34q39 -34 39 -89q0 -57 -39 -91q-38 -34 -96 -34zM1149 1534q-58 0 -96 34q-39 35 -39 91q0 55 39 89q38 34 96 34t96 -34q39 -34 39 -89q0 -57 -39 -91q-38 -34 -96 -34zM1817 1393v-54l-342 -1349h-371
l-172 766l-176 -766h-373l-332 1349v54h283l182 -801q42 -193 59 -297h5q10 63 63 297l170 801h264l164 -801q36 -166 55 -297h4q15 84 62 297l190 801h265z" />
    <glyph glyph-name="wdieresis" unicode="&#x1e85;" horiz-adv-x="1609" 
d="M621 1165q-61 0 -99 34q-39 35 -39 91q0 54 39 89q38 34 99 34q58 0 96 -34q39 -35 39 -89q0 -56 -39 -91q-38 -34 -96 -34zM1012 1165q-59 0 -97 34t-38 91q0 55 38 89t97 34q58 0 96 -34q39 -35 39 -89q0 -56 -39 -91q-38 -34 -96 -34zM1573 1024v-53l-291 -981h-348
l-127 633l-162 -633h-346l-240 981v53h267l163 -754h5l182 754h287l151 -754h4l195 754h260z" />
    <glyph glyph-name="Ygrave" unicode="&#x1ef2;" horiz-adv-x="1181" 
d="M635 1495l-289 107q-78 27 -78 98q0 38 28 64t71 26q44 0 96 -41l217 -164zM1157 1339l-426 -888v-451h-287v461l-413 878v54h288l185 -418q50 -112 96 -234h2q53 149 92 234l189 418h274v-54z" />
    <glyph glyph-name="ygrave" unicode="&#x1ef3;" horiz-adv-x="1042" 
d="M557 1126l-289 107q-78 27 -78 98q0 39 28 65q26 25 71 25q44 0 96 -41l217 -163zM43 971v53h266l219 -760h4l209 760h260v-53l-225 -703q-124 -391 -368 -719h-289v54q165 188 250 356z" />
    <glyph glyph-name="figuredash" unicode="&#x2012;" 
d="M117 492v165h884v-165h-884z" />
    <glyph glyph-name="endash" unicode="&#x2013;" horiz-adv-x="1331" 
d="M117 492v165h1097v-165h-1097z" />
    <glyph glyph-name="emdash" unicode="&#x2014;" horiz-adv-x="1740" 
d="M117 492v165h1507v-165h-1507z" />
    <glyph glyph-name="quoteleft" unicode="&#x2018;" horiz-adv-x="454" 
d="M350 1389l-104 -236q41 0 78 -34q36 -33 36 -93q0 -56 -38 -93q-40 -38 -97 -38q-67 0 -104 46t-37 110q0 126 149 338h117z" />
    <glyph glyph-name="quoteright" unicode="&#x2019;" horiz-adv-x="456" 
d="M113 915l104 236q-40 0 -78 35q-37 34 -37 94q0 54 39 91q40 38 97 38q67 0 104 -46t37 -110q0 -125 -150 -338h-116z" />
    <glyph glyph-name="quotesinglbase" unicode="&#x201a;" horiz-adv-x="473" 
d="M109 -256l106 236q-44 0 -80 33q-37 34 -37 96q0 53 39 91q40 38 96 38q67 0 105 -47q37 -46 37 -109q0 -125 -150 -338h-116z" />
    <glyph glyph-name="quotedblleft" unicode="&#x201c;" horiz-adv-x="845" 
d="M350 1389l-104 -236q41 0 78 -34q36 -33 36 -93q0 -56 -38 -93q-40 -38 -97 -38q-67 0 -104 46t-37 110q0 126 149 338h117zM741 1389l-104 -236q41 0 78 -34t37 -93q0 -55 -38 -93t-96 -38q-69 0 -105 46q-36 47 -36 110q0 125 150 338h114z" />
    <glyph glyph-name="quotedblright" unicode="&#x201d;" horiz-adv-x="847" 
d="M113 915l104 236q-40 0 -78 35q-37 34 -37 94q0 54 39 91q40 38 97 38q67 0 104 -46t37 -110q0 -125 -150 -338h-116zM504 915l106 236q-42 0 -80 35q-36 33 -36 94q0 54 38 91q40 38 97 38q67 0 104 -46t37 -110q0 -126 -149 -338h-117z" />
    <glyph glyph-name="quotedblbase" unicode="&#x201e;" horiz-adv-x="864" 
d="M109 -256l106 236q-44 0 -80 33q-37 34 -37 96q0 53 39 91q40 38 96 38q67 0 105 -47q37 -46 37 -109q0 -125 -150 -338h-116zM500 -256l106 236q-44 0 -80 33q-37 34 -37 96q0 53 39 91q40 38 97 38q66 0 104 -47q37 -46 37 -109q0 -125 -150 -338h-116z" />
    <glyph glyph-name="dagger" unicode="&#x2020;" horiz-adv-x="1144" 
d="M633 780l63 -780h-241l63 780l-450 -61v250l446 -51l-59 475h241l-59 -475l440 51v-250z" />
    <glyph glyph-name="daggerdbl" unicode="&#x2021;" horiz-adv-x="1191" 
d="M657 985l62 -248l-62 -248l443 62v-250l-438 51l57 -475h-240l58 475l-445 -51v250l449 -62l-62 248l62 248l-449 -61v250l445 -52l-58 475h240l-57 -475l438 52v-250z" />
    <glyph glyph-name="bullet" unicode="&#x2022;" horiz-adv-x="684" 
d="M143 475q0 89 59 146q58 57 140 57t140 -57q59 -57 59 -146q0 -87 -59 -144q-58 -57 -140 -57q-84 0 -141 57q-58 58 -58 144z" />
    <glyph glyph-name="onedotenleader" unicode="&#x2024;" horiz-adv-x="446" 
d="M96 109q0 51 38 89t89 38t88 -37t37 -90q0 -55 -37 -92t-88 -37q-53 0 -90 37t-37 92z" />
    <glyph glyph-name="ellipsis" unicode="&#x2026;" horiz-adv-x="1232" 
d="M96 109q0 51 38 89t89 38t88 -37t37 -90q0 -55 -37 -92t-88 -37q-53 0 -90 37t-37 92zM492 109q0 54 36 90q37 37 88 37q52 0 89 -37q36 -36 36 -90q0 -56 -36 -92q-37 -37 -89 -37q-51 0 -88 37q-36 36 -36 92zM885 109q0 53 37 90t88 37t89 -38t38 -89q0 -55 -37 -92
t-90 -37q-51 0 -88 37t-37 92z" />
    <glyph glyph-name="perthousand" unicode="&#x2030;" horiz-adv-x="2189" 
d="M340 649q-149 0 -212 99q-62 97 -62 284q0 186 62 278q63 93 212 93q147 0 210 -93q62 -92 62 -278q0 -187 -62 -284q-63 -99 -210 -99zM1100 1393h221l-483 -666l-107 41zM340 1288q-73 0 -100 -57t-27 -199q0 -141 28 -206q27 -62 99 -62t99 63q28 65 28 205
q0 137 -28 198q-27 58 -99 58zM1174 -10q-148 0 -210 98q-63 99 -63 285q0 184 63 277t210 93q148 0 211 -94q63 -95 63 -276q0 -184 -64 -285q-62 -98 -210 -98zM1853 -10q-150 0 -212 98q-62 97 -62 285q0 185 62 277q63 93 212 93q147 0 210 -93t63 -277q0 -186 -63 -285
q-62 -98 -210 -98zM406 0h-224l496 686l106 -41zM1174 629q-73 0 -100 -59q-27 -58 -27 -197q0 -142 27 -205q27 -64 100 -64q72 0 99 63t27 206t-26 198q-27 58 -100 58zM1853 629q-73 0 -100 -58q-27 -57 -27 -198t28 -206q27 -63 99 -63q73 0 100 64q27 63 27 205
q0 139 -27 197q-27 59 -100 59z" />
    <glyph glyph-name="guilsinglleft" unicode="&#x2039;" horiz-adv-x="673" 
d="M588 272l-117 -118l-387 346v106l387 346l117 -118l-269 -281z" />
    <glyph glyph-name="guilsinglright" unicode="&#x203a;" horiz-adv-x="673" 
d="M88 834l115 118l387 -346v-106l-387 -346l-115 118l266 281z" />
    <glyph glyph-name="exclamdbl" unicode="&#x203c;" horiz-adv-x="948" 
d="M119 1393h295l-68 -1026h-160zM532 1393h297l-69 -1026h-160zM145 109q0 53 37 90t88 37q52 0 90 -38q37 -37 37 -89q0 -55 -37 -92t-90 -37q-51 0 -88 37t-37 92zM559 109q0 52 37 89q38 38 88 38q52 0 90 -38q37 -37 37 -89q0 -55 -37 -92t-90 -37q-51 0 -88 37t-37 92
z" />
    <glyph glyph-name="fraction" unicode="&#x2044;" horiz-adv-x="372" 
d="M522 1393h223l-473 -666l-106 41zM-150 0h-223l486 686l106 -41z" />
    <glyph glyph-name="colonsign" unicode="&#x20a1;" horiz-adv-x="1218" 
d="M696 209q236 0 437 123l-21 -254q-205 -98 -416 -98q-320 0 -464 184t-144 532t144 533q144 184 464 184q211 0 416 -98v-244q-76 39 -135 62l-408 -902q54 -22 127 -22zM707 1184h-11q-178 0 -244 -125q-67 -126 -67 -363q0 -106 12 -194zM485 287l398 874q-36 9 -72 15
l-373 -818q16 -36 47 -71z" />
    <glyph glyph-name="uni20A8" unicode="&#x20a8;" horiz-adv-x="1095" 
d="M1012 1233h-191q64 -79 76 -195h115v-159h-117q-33 -217 -231 -297v-13q101 -40 167 -209l119 -307v-53h-299l-157 393q-17 41 -35 69q-17 26 -56 47t-98 21h-209v240h283q180 0 213 109h-496v159h500q-15 61 -65 88t-152 27h-283v240h916v-160z" />
    <glyph glyph-name="Euro" unicode="&#x20ac;" horiz-adv-x="1343" 
d="M817 209q235 0 436 123l-20 -254q-205 -98 -416 -98q-501 0 -590 483h-151v166h135l-2 67q0 44 2 76h-135v166h153q88 475 588 475q211 0 416 -98v-244q-208 113 -416 113q-234 0 -291 -246h396v-166h-414l-2 -76q0 -37 2 -67h414v-166h-398q53 -254 293 -254z" />
    <glyph glyph-name="uni2113" unicode="&#x2113;" horiz-adv-x="784" 
d="M207 545v497q0 207 74 310q77 102 180 102q80 0 126 -55t46 -148q0 -106 -55 -229q-60 -136 -234 -360v-345q0 -152 43 -217q38 -59 109 -59q64 0 114 59q60 60 99 211h32q-38 -171 -125 -260q-61 -71 -159 -71q-78 0 -140 50q-61 49 -90 134q-20 69 -20 219v106
l-148 -170l-22 23zM344 1112v-395q242 316 242 495q0 85 -34 134t-85 49q-50 0 -88 -58q-35 -61 -35 -225z" />
    <glyph glyph-name="trademark" unicode="&#x2122;" horiz-adv-x="1599" 
d="M301 606v651h-195v136h553v-136h-194v-651h-164zM1317 606v244q0 145 6 250h-2l-166 -494h-106l-164 494h-6q10 -100 10 -250v-244h-152v787h215l117 -359q31 -110 37 -133h8q7 50 31 133l115 359h213v-787h-156z" />
    <glyph glyph-name="minus" unicode="&#x2212;" horiz-adv-x="915" 
d="M115 459v168h688v-168h-688z" />
    <glyph glyph-name="zero.dnom" horiz-adv-x="784" 
d="M393 -12q-180 0 -256 111q-76 110 -76 325q0 213 75 318q76 106 257 106q180 0 255 -107t75 -317q0 -215 -76 -325q-77 -111 -254 -111zM393 711q-87 0 -121 -64q-32 -61 -32 -223q0 -163 32 -230q33 -69 121 -69q86 0 119 69t33 230q0 159 -32 223t-120 64z" />
    <glyph glyph-name="one.dnom" horiz-adv-x="444" 
d="M162 0v692h-123v119l194 31h101v-842h-172z" />
    <glyph glyph-name="two.dnom" horiz-adv-x="698" 
d="M635 143l-12 -143h-570v143q200 127 302 229q98 98 98 191q0 148 -156 148q-107 0 -219 -68v148q117 57 254 57t218 -66t81 -209q0 -75 -30 -138t-94 -118q-61 -52 -112 -87q-48 -33 -137 -83v-4h377z" />
    <glyph glyph-name="three.dnom" horiz-adv-x="708" 
d="M453 436v-6q91 -15 142 -65q52 -51 52 -129q0 -122 -88 -185q-89 -63 -233 -63q-150 0 -267 59v150q118 -72 244 -72q77 0 123 30q47 30 47 87q0 118 -207 118h-92v127h92q195 0 195 119q0 54 -46 79q-47 26 -106 26q-104 0 -231 -66v148q116 55 256 55q131 0 215 -57
t84 -158q0 -160 -180 -197z" />
    <glyph glyph-name="four.dnom" horiz-adv-x="743" 
d="M690 152h-92v-152h-172v152h-387v149l407 541h152v-547h92v-143zM426 295v278l-219 -278h219z" />
    <glyph glyph-name="five.dnom" horiz-adv-x="686" 
d="M225 692v-155q37 10 94 10q137 0 225 -66q89 -66 89 -209q0 -138 -85 -211t-226 -73q-144 0 -263 59v150q129 -72 230 -72q166 0 166 139q0 78 -47 111t-144 33q-68 0 -174 -25v453h512v-144h-377z" />
    <glyph glyph-name="six.dnom" horiz-adv-x="739" 
d="M399 553q141 0 213 -75t72 -197q0 -125 -81 -209t-226 -84q-318 0 -318 393q0 467 357 467q130 0 231 -60v-145q-106 68 -211 68q-81 0 -124 -46t-60 -143q76 31 147 31zM381 125q125 0 125 156q0 76 -33 113q-33 38 -113 38q-59 0 -118 -20v-45q0 -117 30 -180
q30 -62 109 -62z" />
    <glyph glyph-name="seven.dnom" horiz-adv-x="653" 
d="M358 0h-204q0 174 85 356q87 186 234 336h-432v144h582v-125q-127 -156 -196 -344q-69 -189 -69 -367z" />
    <glyph glyph-name="eight.dnom" horiz-adv-x="749" 
d="M539 438q155 -76 155 -205q0 -110 -92 -178q-91 -67 -233 -67q-155 0 -234 60q-80 60 -80 161q0 61 38 117q37 54 106 88q-125 74 -125 194q0 104 86 172t221 68q145 0 220 -60t75 -147q0 -134 -137 -203zM391 713q-55 0 -86 -25t-31 -67q0 -45 41 -75q39 -29 121 -63
q70 58 70 135q0 43 -32 69t-83 26zM362 121q59 0 97 27q37 27 37 75q0 11 -3 21q-3 9 -11 19q-1 1 -6 7.5t-8 9.5q-6 6 -21 16q-18 12 -22 14q-25 12 -29 14q-17 7 -28 12q-2 1 -32 13q-7 3 -18 7t-15 6q-72 -62 -72 -139q0 -45 36 -73q37 -29 95 -29z" />
    <glyph glyph-name="nine.dnom" horiz-adv-x="739" 
d="M360 848q318 0 318 -393q0 -467 -354 -467q-133 0 -232 59v146q106 -68 211 -68q81 0 124 46q44 47 60 142q-73 -30 -147 -30q-142 0 -213 74q-72 75 -72 198q0 124 80 209q79 84 225 84zM379 403q53 0 119 21v45q0 114 -31 179q-30 63 -109 63q-125 0 -125 -156
q0 -77 33 -114q33 -38 113 -38z" />
    <glyph glyph-name="zero.numr" horiz-adv-x="784" 
d="M393 545q-180 0 -256 111q-76 110 -76 325q0 213 75 318q76 106 257 106q180 0 255 -107t75 -317q0 -215 -76 -325q-77 -111 -254 -111zM393 1268q-87 0 -121 -64q-32 -61 -32 -223q0 -163 32 -230q33 -69 121 -69q86 0 119 69t33 230q0 159 -32 223t-120 64z" />
    <glyph glyph-name="one.numr" horiz-adv-x="444" 
d="M162 557v692h-123v119l194 31h101v-842h-172z" />
    <glyph glyph-name="two.numr" horiz-adv-x="698" 
d="M635 700l-12 -143h-570v143q200 127 302 229q98 98 98 191q0 148 -156 148q-107 0 -219 -68v148q117 57 254 57t218 -66t81 -209q0 -75 -30 -138t-94 -118q-61 -52 -112 -87q-39 -27 -137 -82v-5h377z" />
    <glyph glyph-name="three.numr" horiz-adv-x="708" 
d="M453 993v-6q91 -15 142 -65q52 -51 52 -129q0 -122 -88 -185q-89 -63 -233 -63q-150 0 -267 59v150q119 -72 244 -72q77 0 123 30q47 30 47 87q0 119 -207 119h-92v126h92q195 0 195 119q0 54 -46 79q-47 26 -106 26q-104 0 -231 -66v148q116 55 256 55q131 0 215 -57
t84 -158q0 -160 -180 -197z" />
    <glyph glyph-name="four.numr" horiz-adv-x="743" 
d="M690 709h-92v-152h-172v152h-387v149l407 541h152v-547h92v-143zM426 852v278l-219 -278h219z" />
    <glyph glyph-name="five.numr" horiz-adv-x="686" 
d="M225 1249v-155q37 10 94 10q137 0 225 -66q89 -66 89 -209q0 -138 -85 -211t-226 -73q-144 0 -263 59v150q129 -72 230 -72q166 0 166 139q0 78 -47 111t-144 33q-68 0 -174 -25v453h512v-144h-377z" />
    <glyph glyph-name="six.numr" horiz-adv-x="739" 
d="M399 1110q141 0 213 -75t72 -197q0 -125 -81 -209t-226 -84q-318 0 -318 393q0 467 357 467q132 0 231 -59v-146q-106 68 -211 68q-81 0 -124 -46t-60 -143q76 31 147 31zM381 682q125 0 125 156q0 76 -33 113q-33 38 -113 38q-59 0 -118 -20v-45q0 -117 30 -180
q30 -62 109 -62z" />
    <glyph glyph-name="seven.numr" horiz-adv-x="653" 
d="M358 557h-204q0 174 85 356q87 186 234 336h-432v144h582v-125q-127 -156 -196 -344q-69 -189 -69 -367z" />
    <glyph glyph-name="eight.numr" horiz-adv-x="749" 
d="M539 995q155 -76 155 -204q0 -111 -92 -179q-91 -67 -233 -67q-155 0 -234 60q-80 60 -80 161q0 61 38 117q37 54 106 88q-125 74 -125 194q0 104 86 172t221 68q146 0 220 -59q75 -60 75 -148q0 -134 -137 -203zM391 1270q-55 0 -86 -25t-31 -67q0 -45 41 -75
q39 -29 121 -63q70 58 70 136q0 42 -32 68t-83 26zM362 678q58 0 97 28q37 27 37 74q0 10 -3 21q-3 9 -11 19q-1 1 -6 7.5t-8 9.5q-6 6 -21 16q-18 12 -22 14q-25 12 -29 14q-17 7 -28 12q-2 1 -32 13q-5 2 -33 14q-72 -62 -72 -140q0 -44 36 -73q37 -29 95 -29z" />
    <glyph glyph-name="nine.numr" horiz-adv-x="739" 
d="M360 1405q318 0 318 -393q0 -467 -354 -467q-133 0 -232 59v146q106 -68 211 -68q81 0 124 46q44 47 60 142q-73 -30 -147 -30q-142 0 -213 74q-72 75 -72 198q0 124 80 209q79 84 225 84zM379 961q56 0 119 20v45q0 114 -31 179q-30 63 -109 63q-125 0 -125 -156
q0 -76 33 -114q33 -37 113 -37z" />
    </font>
</defs>
</svg>
