<?xml version="1.0" standalone="no"?>
<!DOCTYPE svg PUBLIC "-//W3C//DTD SVG 1.1//EN" "http://www.w3.org/Graphics/SVG/1.1/DTD/svg11.dtd" >
<svg xmlns="http://www.w3.org/2000/svg" xmlns:xlink="http://www.w3.org/1999/xlink" version="1.1">
<metadata>
Created by FontForge 20170731 at Mon Jun 27 16:03:35 2022
 By Aleksey,,,
Copyright (c) 2013 by Dino dos Santos. All rights reserved.
</metadata>
<defs>
<font id="BreveSansText-Medium" horiz-adv-x="1214" >
  <font-face 
    font-family="BreveSansText-Medium"
    font-weight="400"
    font-stretch="normal"
    units-per-em="2048"
    panose-1="0 0 6 0 0 0 0 0 0 0"
    ascent="1638"
    descent="-410"
    x-height="1024"
    cap-height="1393"
    bbox="-358 -543 2085 1860"
    underline-thickness="102"
    underline-position="-204"
    unicode-range="U+0020-2212"
  />
<missing-glyph horiz-adv-x="1114" 
d="M133 0v1024h848v-1024h-848zM940 999h-766l385 -469zM543 510l-389 483v-960zM573 510l388 -473v952zM936 25l-377 467l-381 -467h758z" />
    <glyph glyph-name="fi" unicode="fi" horiz-adv-x="1153" 
d="M170 1024v66q0 128 34 209q35 84 105 125q72 42 155 57q77 14 210 14v-182l-27 -15q-60 19 -115 19q-131 0 -131 -158v-135h226v-164h-226v-860h-231v860h-117v88zM774 1300q0 50 36 84q37 35 93 35t93 -35q36 -34 36 -84t-36 -85q-34 -33 -93 -33t-93 33q-36 35 -36 85z
M1020 1024v-1024h-232v1024h232z" />
    <glyph glyph-name="fl" unicode="fl" horiz-adv-x="1183" 
d="M170 1024v66q0 128 34 209q35 84 105 125q72 42 155 57q77 14 210 14v-182l-27 -15q-60 19 -115 19q-131 0 -131 -158v-135h226v-164h-226v-860h-231v860h-117v88zM954 1475h62v-1246q0 -86 63 -86q31 0 66 15v-152q-65 -26 -160 -26q-89 0 -145 44t-56 134v1235z" />
    <glyph glyph-name=".notdef" horiz-adv-x="1114" 
d="M133 0v1024h848v-1024h-848zM940 999h-766l385 -469zM543 510l-389 483v-960zM573 510l388 -473v952zM936 25l-377 467l-381 -467h758z" />
    <glyph glyph-name=".null" horiz-adv-x="0" 
 />
    <glyph glyph-name="nonmarkingreturn" horiz-adv-x="681" 
 />
    <glyph glyph-name="space" unicode=" " horiz-adv-x="448" 
 />
    <glyph glyph-name="exclam" unicode="!" horiz-adv-x="516" 
d="M127 1393h260l-61 -1039h-138zM147 98q0 48 34 82q35 35 81 35q44 0 79 -35q34 -34 34 -82q0 -50 -33 -84t-80 -34t-81 34t-34 84z" />
    <glyph glyph-name="quotedbl" unicode="&#x22;" horiz-adv-x="825" 
d="M109 1393h221l-31 -471h-158zM496 1393h221l-33 -471h-158z" />
    <glyph glyph-name="numbersign" unicode="#" horiz-adv-x="1071" 
d="M748 610v-135h223v-137h-223v-258h-140v258h-145v-258h-137v258h-224v137h224v135h-224v138h224v256h137v-256h145v256h140v-256h223v-138h-223zM608 610h-145v-135h145v135z" />
    <glyph glyph-name="dollar" unicode="$" horiz-adv-x="1081" 
d="M1001 377q0 -171 -122 -278q-121 -106 -314 -117l-6 -84h-123l6 86q-191 17 -346 92v215q196 -97 359 -113l26 434q-16 8 -109 54q-39 20 -97 60q-59 41 -90 80q-30 38 -54 99q-25 64 -25 133q0 174 121 273q120 97 305 102l7 82h120l-6 -86q153 -15 310 -88v-215
q-151 85 -322 108l-23 -385l92 -46q38 -20 86 -50q55 -35 83 -64q29 -31 62 -76q30 -42 46 -98q14 -50 14 -118zM362 1065q0 -95 138 -174l20 326q-82 -7 -120 -52q-38 -44 -38 -100zM600 553l-22 -375q85 12 127 60q40 46 40 116q0 114 -145 199z" />
    <glyph glyph-name="percent" unicode="%" horiz-adv-x="1486" 
d="M338 649q-145 0 -206 100q-60 99 -60 283q0 182 60 277q60 94 206 94t206 -94q60 -95 60 -277q0 -185 -61 -283q-62 -100 -205 -100zM1090 1393h192l-467 -666l-88 41zM338 1307q-80 0 -110 -64q-29 -61 -29 -211q0 -149 30 -218t109 -69q78 0 108 69q31 71 31 218
q0 148 -30 211q-30 64 -109 64zM1151 -10q-146 0 -206 99t-60 284q0 181 60 276q60 94 206 94q145 0 205 -94q59 -93 59 -276q0 -185 -60 -284t-204 -99zM387 0h-190l477 686l88 -41zM1151 647q-80 0 -110 -63q-29 -61 -29 -211q0 -149 30 -218t109 -69t109 69t30 218
q0 150 -29 211q-30 63 -110 63z" />
    <glyph glyph-name="ampersand" unicode="&#x26;" horiz-adv-x="1318" 
d="M1268 47v-47h-258l-72 76q-152 -96 -365 -96q-231 0 -354 104q-125 105 -125 281q0 208 223 376q-127 167 -127 318q0 171 117 263q116 91 318 91q209 0 312 -88t103 -217q0 -82 -42 -156t-113 -112h-180q110 98 110 217q0 73 -48 119q-49 47 -136 47q-104 0 -154 -47
q-49 -46 -49 -119q0 -82 50 -153q45 -64 202 -232l17 -18q10 -10 14 -15l239 -254q66 131 66 338h211q0 -304 -129 -494zM596 170q120 0 205 49l-361 379l-4 4q-98 -89 -98 -211q0 -104 70 -163q68 -58 188 -58z" />
    <glyph glyph-name="quotesingle" unicode="'" horiz-adv-x="440" 
d="M109 1393h221l-31 -471h-158z" />
    <glyph glyph-name="parenleft" unicode="(" horiz-adv-x="598" 
d="M84 696q0 267 94 486q95 222 250 374h125q-223 -337 -223 -860t223 -860h-125q-154 151 -250 375q-94 219 -94 485z" />
    <glyph glyph-name="parenright" unicode=")" horiz-adv-x="598" 
d="M514 696q0 -266 -94 -485q-96 -224 -250 -375h-125q223 337 223 860t-223 860h125q155 -152 250 -374q94 -219 94 -486z" />
    <glyph glyph-name="asterisk" unicode="*" horiz-adv-x="751" 
d="M170 1327q18 18 39 19q24 2 41 -13q4 -4 110 -178q-9 49 -17 83q-9 36 -19 82q-9 41 -9 42q0 20 20 35q18 14 42 14t41 -14q18 -15 18 -35q0 -10 -7 -42q-2 -7 -5 -23t-6 -30.5t-7 -29.5q-11 -47 -18 -80q11 16 40 66q23 38 45 73q20 31 26 37q17 15 39 14q23 -1 39 -18
t18 -39q2 -24 -14 -41q-11 -11 -176 -112q49 9 82 17q18 5 45.5 12t34.5 9q34 9 42 9q21 0 36 -20q16 -21 16 -42q0 -22 -16 -41q-15 -18 -36 -18q-10 0 -41 7q-11 3 -38 8.5t-42 8.5q-62 13 -81 17q7 -4 17 -10t24.5 -15t24.5 -15q16 -10 41.5 -25t30.5 -18q30 -18 36 -24
q15 -16 13 -40q-1 -23 -17 -39q-18 -18 -40 -19q-24 -2 -40 14q-7 5 -111 172q3 -18 19 -79q15 -59 20 -80q8 -35 8 -41q0 -21 -19 -36t-42 -15t-41 15q-19 16 -19 36q0 6 8 41q2 10 7.5 37t9.5 43q8 37 16 79q-16 -24 -40 -65q-34 -58 -43 -73q-19 -32 -23 -36
q-15 -14 -40 -12q-22 1 -40 19q-17 17 -18 38q-2 24 14 41q3 3 174 109q-49 -9 -83 -17q-70 -17 -81 -20q-35 -8 -41 -8q-20 0 -35 19q-14 18 -14 42t14 41q16 19 35 19q5 0 42 -8q11 -2 38 -8.5t44 -10.5q34 -8 81 -16q-170 102 -176 110q-15 16 -13 39q2 24 17 39z" />
    <glyph glyph-name="plus" unicode="+" horiz-adv-x="870" 
d="M772 469h-262v-262h-148v262h-264v147h264v265h148v-265h262v-147z" />
    <glyph glyph-name="comma" unicode="," horiz-adv-x="468" 
d="M121 -244l100 224q-42 0 -77 31t-35 87q0 50 34 84q35 35 88 35q62 0 96 -43q33 -42 33 -100q0 -115 -137 -318h-102z" />
    <glyph glyph-name="hyphen" unicode="-" horiz-adv-x="919" 
d="M123 496v147h674v-147h-674z" />
    <glyph glyph-name="period" unicode="." horiz-adv-x="440" 
d="M106 98q0 47 35 82t80 35q44 0 79 -35q34 -34 34 -82q0 -50 -33 -84t-80 -34t-81 34t-34 84z" />
    <glyph glyph-name="slash" unicode="/" horiz-adv-x="610" 
d="M549 1434l-324 -1475h-164l322 1475h166z" />
    <glyph glyph-name="zero" unicode="0" horiz-adv-x="1267" 
d="M633 -20q-293 0 -414 185t-121 542q0 352 120 529t415 177t416 -178q120 -176 120 -528q0 -356 -121 -541q-122 -186 -415 -186zM633 1219q-159 0 -219 -117t-60 -395q0 -281 61 -408q60 -125 218 -125q160 0 220 125t60 408q0 280 -59 395q-60 117 -221 117z" />
    <glyph glyph-name="one" unicode="1" horiz-adv-x="679" 
d="M262 0v1188h-205v164l318 51h133v-1403h-246z" />
    <glyph glyph-name="two" unicode="2" horiz-adv-x="1128" 
d="M1028 205l-20 -205h-924v205q372 252 528 419q160 171 160 332q0 263 -283 263q-179 0 -358 -113v215q192 92 412 92t351 -107q132 -108 132 -339q0 -97 -38 -190q-36 -89 -89 -157q-53 -69 -150 -148t-170 -129q-47 -32 -202 -130v-8h651z" />
    <glyph glyph-name="three" unicode="3" horiz-adv-x="1134" 
d="M713 725v-10q144 -21 236 -107q91 -85 91 -223q0 -196 -141 -301q-140 -104 -377 -104q-220 0 -428 96v215q201 -117 400 -117q136 0 216 56q81 57 81 163q0 112 -100 167q-99 54 -267 54h-141v185h141q141 0 243 51q101 50 101 174q0 98 -77 146q-78 49 -187 49
q-159 0 -379 -107v213q200 88 414 88q211 0 343 -96t132 -258q0 -139 -81 -224q-82 -86 -220 -110z" />
    <glyph glyph-name="four" unicode="4" horiz-adv-x="1179" 
d="M1102 266h-150v-266h-245v266h-646v211l687 926h204v-932h150v-205zM707 471v533l-408 -533h408z" />
    <glyph glyph-name="five" unicode="5" horiz-adv-x="1103" 
d="M338 1188v-305q84 18 166 18q224 0 370 -109q148 -110 148 -350q0 -221 -139 -342q-138 -120 -369 -120q-216 0 -418 96v215q214 -117 381 -117q289 0 289 262q0 147 -86 207q-84 59 -250 59q-121 0 -283 -38v729h824v-205h-633z" />
    <glyph glyph-name="six" unicode="6" horiz-adv-x="1196" 
d="M651 922q232 0 346 -129q115 -130 115 -328q0 -202 -128 -344q-128 -141 -368 -141q-142 0 -246 51q-102 50 -163 143q-58 89 -86 206q-27 114 -27 255q0 377 145 578q144 200 437 200q201 0 375 -96v-211q-179 113 -355 113q-146 0 -226 -92q-79 -91 -103 -275
q155 70 284 70zM621 174q122 0 179 82q56 81 56 209q0 136 -61 207t-211 71q-107 0 -230 -53v-69q0 -211 60 -329t207 -118z" />
    <glyph glyph-name="seven" unicode="7" horiz-adv-x="1042" 
d="M543 0h-287q0 295 143 606q145 315 385 582h-723v205h938v-179q-212 -268 -334 -592q-122 -325 -122 -622z" />
    <glyph glyph-name="eight" unicode="8" horiz-adv-x="1202" 
d="M836 733q127 -62 202 -146q74 -83 74 -212q0 -182 -149 -289q-151 -109 -373 -109q-243 0 -372 100q-128 99 -128 261q0 106 66 204q66 97 190 154q-221 125 -221 332q0 167 136 276t351 109q228 0 347 -96q118 -96 118 -242q0 -231 -241 -342zM621 1223q-102 0 -158 -46
q-57 -47 -57 -128q0 -44 21 -82q21 -37 67 -68q43 -29 86 -51q34 -18 110 -49q146 95 146 245q0 86 -61 133q-59 46 -154 46zM584 168q109 0 179 53q68 52 68 139q0 46 -23 82q-24 37 -70 67q-49 32 -92 51q-64 29 -114 50l-14 6q-1 0 -5 2.5t-7 3.5q-10 4 -14 5
q-154 -112 -154 -267q0 -84 66 -138t180 -54z" />
    <glyph glyph-name="nine" unicode="9" horiz-adv-x="1196" 
d="M578 1413q142 0 247 -51q104 -50 163 -143q58 -90 85 -206q27 -114 27 -255q0 -378 -145 -579q-144 -199 -435 -199q-201 0 -375 96v211q179 -113 355 -113q147 0 226 91t103 278q-147 -72 -284 -72q-232 0 -346 129q-115 130 -115 328q0 204 127 344q127 141 367 141z
M612 649q107 0 230 53v70q0 210 -60 329q-60 118 -207 118q-125 0 -180 -81q-55 -80 -55 -210q0 -136 61 -207q62 -72 211 -72z" />
    <glyph glyph-name="colon" unicode=":" horiz-adv-x="473" 
d="M123 682q0 48 33 83q33 34 80 34q46 0 79 -34q33 -35 33 -83t-34 -82q-35 -35 -78 -35q-44 0 -79 35q-34 34 -34 82zM123 98q0 48 34 82q35 35 79 35q43 0 78 -35q34 -34 34 -82q0 -50 -33 -84t-79 -34q-47 0 -80 34t-33 84z" />
    <glyph glyph-name="semicolon" unicode=";" horiz-adv-x="509" 
d="M133 682q0 48 33 83q33 34 80 34t81 -34q33 -33 33 -83q0 -49 -33 -82q-35 -35 -81 -35q-44 0 -79 35q-34 34 -34 82zM141 -244l103 224q-44 0 -79 31q-36 31 -36 87q0 50 36 84q37 35 87 35q63 0 96 -43q33 -44 33 -100q0 -115 -137 -318h-103z" />
    <glyph glyph-name="less" unicode="&#x3c;" horiz-adv-x="856" 
d="M729 418v-162l-635 252v172l635 252v-162l-436 -176z" />
    <glyph glyph-name="equal" unicode="=" horiz-adv-x="917" 
d="M121 618v148h676v-148h-676zM121 319v148h676v-148h-676z" />
    <glyph glyph-name="greater" unicode="&#x3e;" horiz-adv-x="856" 
d="M127 770v162l635 -252v-172l-635 -252v162l436 176z" />
    <glyph glyph-name="question" unicode="?" horiz-adv-x="974" 
d="M907 1008q0 -129 -43 -216q-44 -90 -115 -133q-67 -41 -145 -60q-68 -17 -153 -17l-19 -228h-135l-25 375q185 0 287 57q103 58 103 205q0 105 -60 166q-60 62 -176 62q-153 0 -352 -113v215q193 92 393 92q197 0 319 -108q121 -108 121 -297zM252 98q0 48 34 82
q35 35 79 35q45 0 80 -35q34 -34 34 -82q0 -50 -34 -84t-80 -34q-47 0 -80 34t-33 84z" />
    <glyph glyph-name="at" unicode="@" horiz-adv-x="1654" 
d="M1174 877q-5 -21 -29 -148q-5 -24 -12.5 -64t-10.5 -54q-1 -6 -7 -36.5t-9 -48.5q-7 -40 -12 -65q-6 -28 -8 -44q-1 -8 -4 -38q-1 -10 -1 -31q0 -110 84 -110q97 0 161 98q65 100 65 297q0 160 -77 272q-76 110 -192 156q-114 45 -258 45q-288 0 -447 -170t-159 -459
q0 -287 167 -425t462 -138q276 0 473 127v-137q-198 -135 -522 -135q-328 0 -540 195t-212 523q0 325 214 543q214 219 566 219q293 0 491 -165q197 -164 197 -449q0 -222 -118 -377q-118 -156 -316 -156q-175 0 -205 150l-122 -115q-50 -35 -119 -35q-93 0 -148 79t-55 208
q0 259 93 395q94 138 302 138q152 0 308 -45zM909 354l68 412q-75 25 -146 25q-91 0 -141 -89q-49 -88 -49 -303q0 -143 98 -143q72 0 170 98z" />
    <glyph glyph-name="A" unicode="A" 
d="M1169 47v-47h-243l-101 342h-448l-101 -342h-233v47l410 1356h313zM766 547l-90 303q-45 144 -74 291h-2q-23 -116 -74 -291l-90 -303h330z" />
    <glyph glyph-name="B" unicode="B" horiz-adv-x="1206" 
d="M877 721v-4q107 -33 177 -120q70 -86 70 -214q0 -177 -114 -280q-113 -103 -310 -103h-548v1393h514q190 0 299 -97q108 -96 108 -262q0 -112 -54 -196t-142 -117zM397 815h240q88 0 139 48t51 141q0 86 -51 136t-135 48h-244v-373zM397 205h267q91 -2 147 50
q57 53 57 155q0 98 -60 149t-161 51h-250v-405z" />
    <glyph glyph-name="C" unicode="C" horiz-adv-x="1175" 
d="M90 696q0 717 590 717q209 0 410 -96v-211q-208 113 -410 113q-188 0 -261 -136q-73 -137 -73 -387t73 -387q72 -135 261 -135q229 0 430 123l-20 -221q-201 -96 -410 -96q-590 0 -590 716z" />
    <glyph glyph-name="D" unicode="D" horiz-adv-x="1325" 
d="M152 1393h503q306 0 442 -172t136 -514q0 -346 -137 -527q-137 -180 -441 -180h-503v1393zM397 205h258q179 0 250 113q72 114 72 389q0 269 -71 375t-251 106h-258v-983z" />
    <glyph glyph-name="E" unicode="E" horiz-adv-x="1128" 
d="M397 1188v-373h545v-205h-545v-405h652l-21 -205h-876v1393h882v-205h-637z" />
    <glyph glyph-name="F" unicode="F" horiz-adv-x="1110" 
d="M397 1188v-406h545v-204h-545v-578h-245v1393h882v-205h-637z" />
    <glyph glyph-name="G" unicode="G" horiz-adv-x="1208" 
d="M680 1219q-188 0 -261 -136q-73 -137 -73 -387t73 -387q72 -135 261 -135q80 0 164 19v335h-226v205h472v-657q-201 -96 -410 -96q-590 0 -590 716q0 717 590 717q209 0 410 -96v-211q-208 113 -410 113z" />
    <glyph glyph-name="H" unicode="H" horiz-adv-x="1314" 
d="M397 1393v-578h523v578h245v-1393h-245v610h-523v-610h-245v1393h245z" />
    <glyph glyph-name="I" unicode="I" horiz-adv-x="546" 
d="M397 1393v-1393h-245v1393h245z" />
    <glyph glyph-name="J" unicode="J" horiz-adv-x="555" 
d="M403 1393v-1315q0 -172 -70 -282q-71 -112 -280 -165l-73 176q114 50 146 110q32 61 32 161v1315h245z" />
    <glyph glyph-name="K" unicode="K" horiz-adv-x="1216" 
d="M397 1393v-1393h-245v1393h245zM926 1393h241v-47l-454 -629l465 -670v-47h-256l-463 666v77z" />
    <glyph glyph-name="L" unicode="L" horiz-adv-x="1069" 
d="M1028 205l-20 -205h-856v1393h245v-1188h631z" />
    <glyph glyph-name="M" unicode="M" horiz-adv-x="1560" 
d="M1176 0v573q0 261 12 441h-10l-304 -742h-194l-303 742h-10q12 -180 12 -441v-573h-227v1393h319l236 -568q42 -114 75 -225h9q22 90 71 225l228 568h321v-1393h-235z" />
    <glyph glyph-name="N" unicode="N" horiz-adv-x="1314" 
d="M397 1393l539 -947h10q-14 171 -14 443v504h233v-1393h-245l-541 946h-10q14 -171 14 -442v-504h-231v1393h245z" />
    <glyph glyph-name="O" unicode="O" horiz-adv-x="1333" 
d="M668 -20q-578 0 -578 727q0 343 137 525q136 181 441 181q302 0 438 -181q137 -182 137 -525q0 -727 -575 -727zM668 1219q-178 0 -250 -119q-72 -118 -72 -393q0 -277 73 -406q72 -127 249 -127q175 0 247 127q72 128 72 406q0 275 -72 393q-72 119 -247 119z" />
    <glyph glyph-name="P" unicode="P" horiz-adv-x="1181" 
d="M152 1393h471q254 0 378 -112q123 -111 123 -312q0 -203 -123 -322q-124 -119 -378 -119h-226v-528h-245v1393zM397 733h226q134 0 190 58q55 56 55 178q0 121 -54 170q-53 49 -191 49h-226v-455z" />
    <glyph glyph-name="Q" unicode="Q" horiz-adv-x="1333" 
d="M801 -10q23 -97 100 -143t254 -46l-20 -163q-291 0 -418 71q-129 72 -168 279q-459 72 -459 719q0 343 137 525q136 181 441 181q302 0 438 -181q137 -182 137 -525q0 -638 -442 -717zM346 707q0 -277 73 -406q72 -127 249 -127q175 0 247 127q72 128 72 406
q0 275 -72 393q-72 119 -247 119q-178 0 -250 -119q-72 -118 -72 -393z" />
    <glyph glyph-name="R" unicode="R" horiz-adv-x="1232" 
d="M1161 47v-47h-252l-151 385q-15 38 -26 59q-9 19 -35 52q-25 32 -65 47q-38 14 -95 14h-140v-557h-245v1393h471q254 0 378 -110q123 -109 123 -302q0 -297 -258 -387v-10q63 -23 100 -72q36 -47 74 -145zM397 762h226q134 0 190 53q55 52 55 166q0 111 -54 159t-191 48
h-226v-426z" />
    <glyph glyph-name="S" unicode="S" horiz-adv-x="1075" 
d="M100 1038q0 177 125 276q124 99 314 99q217 0 419 -92v-215q-199 113 -403 113q-102 0 -151 -44q-48 -43 -48 -110q0 -69 66 -125q64 -54 160 -98q89 -41 188 -96q95 -53 160 -146t65 -223q0 -179 -133 -288t-340 -109q-230 0 -432 96v215q242 -117 424 -117
q115 0 170 49t55 131q0 81 -65 140q-63 57 -160 102q-102 47 -188 92q-94 49 -160 138q-66 88 -66 212z" />
    <glyph glyph-name="T" unicode="T" horiz-adv-x="1069" 
d="M412 0v1188h-355v205h955v-205h-355v-1188h-245z" />
    <glyph glyph-name="U" unicode="U" horiz-adv-x="1298" 
d="M649 -20q-238 0 -373 119q-137 120 -137 376v918h246v-918q0 -127 60 -211t204 -84q142 0 202 85t60 210v918h246v-918q0 -256 -137 -376q-135 -119 -371 -119z" />
    <glyph glyph-name="V" unicode="V" horiz-adv-x="1220" 
d="M449 -10l-400 1356v47h246l248 -848q42 -145 71 -289h4q24 110 74 289l248 848h236v-47l-408 -1356h-319z" />
    <glyph glyph-name="W" unicode="W" horiz-adv-x="1816" 
d="M1761 1393v-47l-342 -1356h-319l-191 852l-194 -852h-318l-340 1356v47h240l203 -848q34 -145 61 -297h2q10 58 36 169q27 117 30 128l176 848h229l174 -848q39 -192 56 -297h4q24 146 63 297l205 848h225z" />
    <glyph glyph-name="X" unicode="X" horiz-adv-x="1136" 
d="M1104 47v-47h-256l-295 508l-279 -508h-241v47l389 688l-354 611v47h254l262 -451l237 451h242v-47l-346 -633z" />
    <glyph glyph-name="Y" unicode="Y" horiz-adv-x="1161" 
d="M1124 1346l-422 -879v-467h-245v463l-418 883v47h248l202 -445q63 -140 99 -235h2q47 133 96 237l203 443h235v-47z" />
    <glyph glyph-name="Z" unicode="Z" horiz-adv-x="1056" 
d="M995 205l-20 -205h-912v178l615 1010h-578v205h861v-179l-611 -1009h645z" />
    <glyph glyph-name="bracketleft" unicode="[" horiz-adv-x="661" 
d="M590 1556v-157h-191v-1405h191v-158h-436v1720h436z" />
    <glyph glyph-name="backslash" unicode="\" horiz-adv-x="610" 
d="M549 -41h-164l-324 1475h166z" />
    <glyph glyph-name="bracketright" unicode="]" horiz-adv-x="661" 
d="M72 -164v158h190v1405h-190v157h436v-1720h-436z" />
    <glyph glyph-name="asciicircum" unicode="^" horiz-adv-x="792" 
d="M104 1126l244 351h96l246 -351h-139l-154 174l-155 -174h-138z" />
    <glyph glyph-name="underscore" unicode="_" horiz-adv-x="1112" 
d="M123 -225v147h868v-147h-868z" />
    <glyph glyph-name="grave" unicode="`" horiz-adv-x="733" 
d="M530 1126l-286 109q-70 29 -70 90q0 38 26 61t66 23q37 0 84 -35l223 -164z" />
    <glyph glyph-name="a" unicode="a" horiz-adv-x="1048" 
d="M653 135l-123 -106q-76 -49 -182 -49q-124 0 -207 72q-82 72 -82 190q0 232 316 295l278 57v102q0 84 -41 134q-42 51 -155 51q-144 0 -299 -70l-23 25l62 161q164 47 311 47q174 0 275 -75q104 -77 104 -211v-529q0 -86 63 -86q32 0 66 15v-131q-73 -47 -174 -47
q-159 0 -189 155zM653 481l-247 -67q-107 -30 -107 -135q0 -63 40 -94t103 -31q120 0 211 100v227z" />
    <glyph glyph-name="b" unicode="b" horiz-adv-x="1118" 
d="M670 1044q172 0 269 -147q97 -146 97 -385q0 -251 -124 -391q-124 -141 -330 -141q-161 0 -291 88l-84 -78h-74v1403l170 82h62v-586l124 106q71 49 181 49zM555 123q246 0 246 389q0 191 -61 278q-59 84 -181 84q-60 0 -112 -26q-53 -27 -82 -57v-621q100 -47 190 -47z
" />
    <glyph glyph-name="c" unicode="c" horiz-adv-x="962" 
d="M584 874q-135 0 -200 -101q-67 -104 -67 -261q0 -362 275 -362q142 0 289 90v-179q-144 -81 -334 -81q-223 0 -344 142t-121 390t127 390t362 142q167 0 322 -59l-41 -147l-27 -23q-125 59 -241 59z" />
    <glyph glyph-name="d" unicode="d" horiz-adv-x="1120" 
d="M989 1475v-1475h-223l-10 135l-123 -106q-76 -49 -182 -49q-173 0 -270 147q-97 146 -97 385q0 249 116 391q116 141 306 141q137 0 250 -73v422l172 82h61zM561 150q93 0 195 96v585q-91 56 -195 56q-242 0 -242 -375q0 -191 61 -278q59 -84 181 -84z" />
    <glyph glyph-name="e" unicode="e" horiz-adv-x="1064" 
d="M985 664q0 -86 -24 -203h-642q12 -157 93 -235q79 -76 206 -76q77 0 168 26q96 27 156 64v-179q-144 -81 -369 -81q-230 0 -360 143q-131 145 -131 389q0 248 127 390t362 142q66 0 120 -10q58 -11 112 -37q55 -27 94 -67q40 -42 64 -110q24 -69 24 -156zM319 582l439 12
q6 43 6 80q0 64 -20 110t-52 65t-58 25q-30 7 -54 7q-238 0 -261 -299z" />
    <glyph glyph-name="f" unicode="f" horiz-adv-x="655" 
d="M168 1024v66q0 128 34 209q35 84 105 125q72 42 156 57q78 14 211 14v-182l-27 -15q-65 19 -115 19q-131 0 -131 -158v-135h226v-164h-226v-860h-233v860h-115v88z" />
    <glyph glyph-name="g" unicode="g" horiz-adv-x="1050" 
d="M346 197l379 -39q297 -30 297 -285q0 -147 -128 -246q-126 -98 -392 -98q-243 0 -354 67q-109 66 -109 173q0 104 102 192l99 -29l-15 -92q0 -90 68 -126q67 -36 203 -36q290 0 290 158q0 53 -28 80q-29 28 -101 35l-360 35q-84 6 -123 49t-39 100q0 116 154 207
q-203 95 -203 340q0 162 108 262q107 100 302 100q88 0 155 -18l330 18v-143h-135q65 -87 65 -219q0 -178 -106 -280q-105 -101 -301 -101q-48 0 -92 6zM492 891q-94 0 -140 -55q-47 -56 -47 -140q0 -241 203 -241q186 0 186 215q0 109 -52 165t-150 56z" />
    <glyph glyph-name="h" unicode="h" horiz-adv-x="1095" 
d="M369 887l100 100q107 57 213 57q130 0 210 -74q81 -75 81 -218v-752h-234v707q0 153 -135 153q-104 0 -239 -84v-776h-232v1393l170 82h62v-588h4z" />
    <glyph glyph-name="i" unicode="i" horiz-adv-x="497" 
d="M119 1300q0 50 36 84q37 35 93 35t93 -35q36 -34 36 -84t-36 -85q-34 -33 -93 -33t-93 33q-36 35 -36 85zM365 1024v-1024h-232v1024h232z" />
    <glyph glyph-name="j" unicode="j" horiz-adv-x="497" 
d="M119 1300q0 50 36 84q37 35 93 35t93 -35q36 -34 36 -84t-36 -85q-34 -33 -93 -33t-93 33q-36 35 -36 85zM365 1024v-1010q0 -160 -64 -271q-63 -110 -242 -194l-90 138q104 66 134 128q30 63 30 199v1010h232z" />
    <glyph glyph-name="k" unicode="k" horiz-adv-x="1067" 
d="M303 1475h62v-1475h-232v1393zM801 0l-395 532l382 492h207v-47l-338 -428l379 -502v-47h-235z" />
    <glyph glyph-name="l" unicode="l" horiz-adv-x="528" 
d="M299 1475h61v-1246q0 -86 64 -86q30 0 65 15v-152q-65 -26 -159 -26q-90 0 -146 44q-55 43 -55 134v1235z" />
    <glyph glyph-name="m" unicode="m" horiz-adv-x="1689" 
d="M948 870l115 117q107 57 213 57q130 0 210 -74q81 -75 81 -218v-752h-234v707q0 153 -135 153q-96 0 -231 -84v-776h-234v707q0 153 -133 153q-100 0 -235 -84v-776h-232v1024h221l11 -137h4l100 100q107 57 213 57q206 0 262 -174h4z" />
    <glyph glyph-name="n" unicode="n" horiz-adv-x="1095" 
d="M365 887h4l100 100q107 57 213 57q130 0 210 -74q81 -75 81 -218v-752h-234v707q0 153 -135 153q-104 0 -239 -84v-776h-232v1024h221z" />
    <glyph glyph-name="o" unicode="o" horiz-adv-x="1099" 
d="M551 -20q-233 0 -351 139t-118 393t118 393t351 139q231 0 349 -139t118 -393t-118 -393t-349 -139zM551 881q-129 0 -181 -91q-53 -92 -53 -278t53 -278q52 -91 181 -91q127 0 179 91t52 278t-52 278t-179 91z" />
    <glyph glyph-name="p" unicode="p" horiz-adv-x="1120" 
d="M670 1044q172 0 269 -147q97 -146 97 -385q0 -251 -115 -391q-115 -141 -307 -141q-137 0 -249 75v-506h-232v1475h221l11 -135l124 106q71 49 181 49zM559 137q242 0 242 375q0 191 -61 278q-59 84 -181 84q-80 0 -194 -96v-581q92 -60 194 -60z" />
    <glyph glyph-name="q" unicode="q" horiz-adv-x="1118" 
d="M987 1034v-1485h-233v586l-123 -106q-76 -49 -182 -49q-173 0 -270 147q-97 146 -97 385q0 251 124 391q124 141 333 141q155 0 292 -92l95 82h61zM559 150q60 0 112 26q55 27 83 57v621q-100 47 -191 47q-246 0 -246 -389q0 -191 61 -278q59 -84 181 -84z" />
    <glyph glyph-name="r" unicode="r" horiz-adv-x="770" 
d="M365 846h4l100 145q68 53 168 53q58 0 113 -16l-76 -207q-47 13 -90 13q-118 0 -219 -111v-723h-232v1024h221z" />
    <glyph glyph-name="s" unicode="s" horiz-adv-x="894" 
d="M475 874q-78 0 -114 -29q-37 -30 -37 -77q0 -49 52 -86q53 -38 127 -66q72 -28 148 -63q74 -35 126 -100t52 -158q0 -145 -103 -230t-271 -85q-192 0 -349 71l-24 189q178 -90 352 -90q83 0 121 35q39 36 39 85q0 50 -51 88q-49 36 -125 67q-91 37 -149 65
q-74 35 -126 106q-51 69 -51 166q0 138 108 210t267 72q166 0 321 -59l-40 -147l-27 -23q-125 59 -246 59z" />
    <glyph glyph-name="t" unicode="t" horiz-adv-x="684" 
d="M51 860v88l113 76l164 219h67v-219h230v-164h-230v-596q0 -58 26 -82q25 -24 85 -24q72 0 125 26v-170q-81 -34 -191 -34q-144 0 -210 57t-66 196v627h-113z" />
    <glyph glyph-name="u" unicode="u" horiz-adv-x="1097" 
d="M733 137h-4l-100 -100q-107 -57 -213 -57q-130 0 -210 74q-81 75 -81 218v752h233v-707q0 -153 136 -153q104 0 239 84v776h232v-1024h-222z" />
    <glyph glyph-name="v" unicode="v" horiz-adv-x="1021" 
d="M653 -10h-291l-307 987v47h226l237 -795h4l228 795h221v-47z" />
    <glyph glyph-name="w" unicode="w" horiz-adv-x="1574" 
d="M1528 1024v-47l-299 -987h-297l-141 690l-177 -690h-297l-249 987v47h225l186 -788h4l195 788h244l163 -788h5l217 788h221z" />
    <glyph glyph-name="x" unicode="x" horiz-adv-x="989" 
d="M952 47v-47h-231l-234 350l-235 -350h-215v47l330 483l-299 447v47h227l211 -313l207 313h211v-47l-299 -445z" />
    <glyph glyph-name="y" unicode="y" horiz-adv-x="1015" 
d="M49 977v47h225l238 -795h4l227 795h222v-47l-236 -735q-44 -136 -91 -244q-51 -118 -104 -203q-60 -96 -84 -131q-9 -13 -83 -115h-238v48q166 191 252 362z" />
    <glyph glyph-name="z" unicode="z" horiz-adv-x="929" 
d="M348 164h518l-35 -164h-757v143l501 717h-501l51 164h721v-143z" />
    <glyph glyph-name="braceleft" unicode="{" horiz-adv-x="647" 
d="M264 700v-6q95 -17 139 -68q46 -54 46 -122q0 -71 -29 -181t-29 -165q0 -89 40 -126q41 -38 134 -38v-158q-214 0 -311 62q-96 62 -96 204q0 86 28 198q29 116 29 151q0 86 -32 120q-31 33 -105 33v184q74 0 105 33q32 34 32 121q0 35 -29 151q-28 112 -28 197
q0 143 96 205q95 61 311 61v-157q-93 0 -134 -38q-40 -37 -40 -126q0 -55 29 -165t29 -181q0 -69 -46 -120q-47 -51 -139 -69z" />
    <glyph glyph-name="bar" unicode="|" horiz-adv-x="505" 
d="M348 1434v-1475h-190v1475h190z" />
    <glyph glyph-name="braceright" unicode="}" horiz-adv-x="647" 
d="M383 694v6q-92 18 -139 69q-45 50 -45 120q0 75 28 181q29 110 29 165q0 89 -40 126q-41 38 -134 38v157q216 0 311 -61q96 -62 96 -205q0 -85 -28 -197q-29 -116 -29 -151q0 -87 32 -121q32 -33 105 -33v-184q-73 0 -105 -33q-32 -34 -32 -120q0 -35 29 -151
q28 -112 28 -198q0 -142 -96 -204q-97 -62 -311 -62v158q93 0 134 38q40 37 40 126q0 55 -29 165q-28 106 -28 181q0 70 45 122q44 51 139 68z" />
    <glyph glyph-name="asciitilde" unicode="~" horiz-adv-x="901" 
d="M242 1126h-121q7 123 63 198t140 75q56 0 152 -47t126 -47q61 0 82 81h115q-16 -256 -174 -256q-54 0 -164 48q-108 47 -135 47q-40 0 -58 -24q-19 -25 -26 -75z" />
    <glyph glyph-name="exclamdown" unicode="&#xa1;" horiz-adv-x="487" 
d="M133 926q0 50 34 84t81 34t80 -34q32 -33 32 -84q0 -49 -33 -82q-35 -35 -79 -35q-46 0 -81 35q-34 34 -34 82zM311 670l62 -1039h-260l61 1039h137z" />
    <glyph glyph-name="cent" unicode="&#xa2;" horiz-adv-x="1206" 
d="M1116 297l-20 -221q-169 -80 -324 -92v-86h-123v82q-555 22 -555 716t555 717v82h123v-86q155 -12 324 -92v-211q-166 90 -324 108v-1036q183 21 344 119zM350 696q0 -239 65 -374q65 -134 234 -146v1041q-85 -6 -148 -48q-60 -41 -92 -113q-31 -71 -45 -159
q-14 -89 -14 -201z" />
    <glyph glyph-name="sterling" unicode="&#xa3;" horiz-adv-x="1085" 
d="M993 205l-20 -205h-858v174q204 98 204 318q0 58 -28 114h-176v148h90q-92 152 -92 270q0 186 124 288q123 101 312 101q218 0 420 -92v-215q-199 113 -396 113q-198 0 -198 -175q0 -28 6 -57q6 -27 12 -49q4 -14 22 -50q17 -34 22 -43q2 -4 6 -10.5t10.5 -17t12.5 -19.5
q8 -13 17 -27t11 -17h378v-148h-313q10 -43 10 -86q0 -182 -139 -305v-10h563z" />
    <glyph glyph-name="currency" unicode="&#xa4;" horiz-adv-x="1337" 
d="M809 174q229 0 430 123l-20 -221q-201 -96 -410 -96q-494 0 -573 499h-154v148h139l-2 69q0 48 2 84h-139v148h156q84 485 571 485q209 0 410 -96v-211q-208 113 -410 113q-263 0 -315 -291h407v-148h-424q-2 -36 -2 -84l2 -69h424v-148h-412q27 -149 102 -227t218 -78z
" />
    <glyph glyph-name="yen" unicode="&#xa5;" horiz-adv-x="1196" 
d="M1141 1346l-383 -797h266v-148h-307v-401h-246v401h-307v148h268l-377 797v47h246l205 -445q56 -125 96 -235h4q43 126 94 237l205 443h236v-47z" />
    <glyph glyph-name="brokenbar" unicode="&#xa6;" horiz-adv-x="505" 
d="M348 1434v-656h-190v656h190zM348 614v-655h-190v655h190z" />
    <glyph glyph-name="section" unicode="&#xa7;" horiz-adv-x="1064" 
d="M119 1229q0 191 124 293q125 102 314 102q218 0 420 -92v-215q-199 113 -404 113q-198 0 -198 -175q0 -59 56 -115q59 -59 136 -101l160 -88q77 -42 136 -101q57 -57 57 -119q0 -58 -32 -93q-31 -34 -89 -63q-45 57 -131 114q-91 60 -179 110q-100 57 -176 110
q-87 61 -140 142q-54 83 -54 178zM946 164q0 -191 -124 -293t-314 -102q-218 0 -420 92v215q199 -113 404 -113q198 0 198 174q0 60 -56 116q-56 57 -136 100q-83 45 -160 89q-76 43 -136 103q-57 57 -57 119q0 58 32 92q30 32 89 61q45 -57 131 -114t178 -109
q98 -55 177 -111q88 -62 140 -141q54 -83 54 -178z" />
    <glyph glyph-name="dieresis" unicode="&#xa8;" horiz-adv-x="940" 
d="M158 1288q0 50 35 80q36 31 86 31q49 0 85 -31q33 -29 33 -80q0 -55 -33 -84q-34 -30 -85 -30q-52 0 -86 30q-35 30 -35 84zM543 1288q0 50 34 80q36 31 85 31q48 0 84 -31q34 -30 34 -80q0 -54 -34 -84t-84 -30q-51 0 -85 30t-34 84z" />
    <glyph glyph-name="copyright" unicode="&#xa9;" horiz-adv-x="1607" 
d="M803 -20q-298 0 -507 209q-210 210 -210 507t210 507t507 210t507 -210t210 -507t-210 -507q-209 -209 -507 -209zM803 66q262 0 447 185q186 186 186 445q0 260 -186 446q-185 185 -447 185q-263 0 -447 -184t-184 -447q0 -262 184 -446t447 -184zM487 696
q0 404 332 404q117 0 232 -53v-119q-114 63 -232 63q-107 0 -147 -76q-41 -77 -41 -219t41 -219q40 -76 147 -76q131 0 244 70l-12 -125q-115 -53 -232 -53q-332 0 -332 403z" />
    <glyph glyph-name="ordfeminine" unicode="&#xaa;" horiz-adv-x="854" 
d="M510 809l-84 -74q-46 -30 -119 -30q-81 0 -134 48q-52 48 -52 126q0 152 203 196l186 37v70q0 53 -28 89q-27 34 -103 34q-100 0 -199 -48l-16 19l41 106q105 31 209 31q113 0 177 -49t64 -141v-353q0 -57 43 -57q19 0 43 8v-86q-45 -30 -106 -30q-109 0 -125 104z
M510 1038l-168 -45q-72 -21 -72 -90q0 -40 28 -62t67 -22q82 0 145 68v151zM98 516v92h664v-92h-664z" />
    <glyph glyph-name="guillemotleft" unicode="&#xab;" horiz-adv-x="1112" 
d="M573 260l-108 -106l-375 354v90l375 354l108 -106l-278 -293zM1016 260l-107 -106l-374 354v90l374 354l107 -106l-279 -293z" />
    <glyph glyph-name="logicalnot" unicode="&#xac;" horiz-adv-x="989" 
d="M713 190v314h-592v151h743v-465h-151z" />
    <glyph glyph-name="softhyphen" unicode="&#xad;" horiz-adv-x="919" 
d="M123 496v147h674v-147h-674z" />
    <glyph glyph-name="registered" unicode="&#xae;" horiz-adv-x="1607" 
d="M803 1413q297 0 507 -210t210 -507t-210 -507q-209 -209 -507 -209t-507 209q-210 210 -210 507t210 507t507 210zM803 66q262 0 447 185q186 186 186 445q0 260 -186 446q-185 185 -447 185q-263 0 -447 -184t-184 -447q0 -262 184 -446t447 -184zM948 639v-6
q65 -25 99 -123l71 -180v-27h-145l-84 217q-8 20 -21 46q-8 16 -35 34t-69 18h-78v-315h-141v787h266q283 0 283 -234q0 -167 -146 -217zM686 733h125q79 0 109 30t30 93q0 65 -30 92t-109 27h-125v-242z" />
    <glyph glyph-name="macron" unicode="&#xaf;" horiz-adv-x="907" 
d="M152 1161v131h604v-131h-604z" />
    <glyph glyph-name="degree" unicode="&#xb0;" horiz-adv-x="651" 
d="M88 1176q0 104 70 171q69 66 168 66t168 -66t69 -171q0 -102 -69 -170q-70 -68 -168 -68t-168 68t-70 170zM203 1176q0 -48 30 -86q30 -37 93 -37q62 0 92 37q31 39 31 86q0 51 -30 87q-29 35 -93 35t-93 -35q-30 -36 -30 -87z" />
    <glyph glyph-name="plusminus" unicode="&#xb1;" horiz-adv-x="915" 
d="M795 672v-148h-263v-250h-147v250h-264v148h264v250h147v-250h263zM121 207h674v-148h-674v148z" />
    <glyph glyph-name="twosuperior" unicode="&#xb2;" horiz-adv-x="688" 
d="M623 885l-13 -123h-555v123q227 155 318 251q96 102 96 199q0 158 -170 158q-109 0 -215 -68v129q112 56 246 56q291 0 291 -269q0 -71 -29 -135q-29 -65 -94 -122q-59 -53 -117 -95q-46 -34 -150 -100v-4h392z" />
    <glyph glyph-name="threesuperior" unicode="&#xb3;" horiz-adv-x="694" 
d="M432 1196v-6q87 -12 142 -64t55 -133q0 -118 -85 -181q-84 -62 -227 -62q-133 0 -256 57v129q120 -70 240 -70q83 0 130 34q48 34 48 97q0 133 -219 133h-84v111h84q82 0 144 31q61 30 61 104q0 60 -46 88q-47 29 -112 29q-93 0 -227 -63v126q120 54 248 54
q125 0 206 -58q78 -56 78 -153q0 -170 -180 -203z" />
    <glyph glyph-name="acute" unicode="&#xb4;" horiz-adv-x="733" 
d="M158 1210l221 164q52 35 86 35q40 0 66 -23t26 -61q0 -61 -70 -90l-288 -109z" />
    <glyph glyph-name="paragraph" unicode="&#xb6;" horiz-adv-x="1181" 
d="M760 0v1167h-144v-661h-88q-222 0 -342 115q-118 114 -118 329t118 329t342 114h478v-1393h-246z" />
    <glyph glyph-name="periodcentered" unicode="&#xb7;" horiz-adv-x="456" 
d="M117 563q0 48 31 79q32 32 79 32q46 0 80 -32q33 -32 33 -79q0 -50 -33 -80t-80 -30t-79 30q-31 30 -31 80z" />
    <glyph glyph-name="cedilla" unicode="&#xb8;" horiz-adv-x="708" 
d="M342 0v-63q87 0 140 -43q55 -44 55 -121q0 -82 -54 -133q-53 -50 -141 -50q-95 0 -156 29v82q61 -23 105 -23q110 0 110 95q0 94 -153 94v133h94z" />
    <glyph glyph-name="onesuperior" unicode="&#xb9;" horiz-adv-x="428" 
d="M164 762v713h-123v98l190 31h80v-842h-147z" />
    <glyph glyph-name="ordmasculine" unicode="&#xba;" horiz-adv-x="860" 
d="M428 705q-303 0 -303 354t303 354t303 -354t-303 -354zM428 1305q-86 0 -121 -61t-35 -185q0 -125 35 -186q35 -60 121 -60t121 60q35 61 35 186q0 124 -35 185t-121 61zM100 516v92h664v-92h-664z" />
    <glyph glyph-name="guillemotright" unicode="&#xbb;" horiz-adv-x="1112" 
d="M94 846l109 106l375 -354v-90l-375 -354l-109 106l279 293zM539 846l106 106l377 -354v-90l-377 -354l-106 106l278 293z" />
    <glyph glyph-name="onequarter" unicode="&#xbc;" horiz-adv-x="1632" 
d="M182 557v713h-123v98l191 31h80v-842h-148zM1303 1393l-459 -666l-88 41l356 625h191zM1565 160h-90v-160h-148v160h-387v127l412 555h123v-559h90v-123zM702 686l89 -41l-369 -645h-191zM1327 283v319l-244 -319h244z" />
    <glyph glyph-name="onehalf" unicode="&#xbd;" horiz-adv-x="1720" 
d="M182 557v713h-123v98l191 31h80v-842h-148zM1303 1393l-459 -666l-88 41l356 625h191zM1638 123l-12 -123h-555v123q227 155 318 251q96 102 96 199q0 158 -170 158q-111 0 -215 -67v129q110 55 248 55q288 0 288 -268q0 -75 -28 -137q-27 -60 -92 -120q-63 -58 -117 -97
q-49 -35 -152 -99v-4h391zM702 686l89 -41l-369 -645h-191z" />
    <glyph glyph-name="threequarters" unicode="&#xbe;" horiz-adv-x="1843" 
d="M657 788q0 -118 -85 -181q-84 -62 -226 -62q-133 0 -256 57v129q118 -69 240 -69q82 0 129 33q49 34 49 98q0 133 -221 133h-84v110h84q207 0 207 135q0 60 -47 89q-46 28 -111 28q-96 0 -227 -63v127q118 53 247 53q126 0 206 -57q79 -57 79 -154q0 -168 -180 -203v-6
q85 -12 141 -63q55 -51 55 -134zM1513 1393l-458 -666l-88 41l356 625h190zM1776 160h-90v-160h-148v160h-387v127l412 555h123v-559h90v-123zM913 686l88 -41l-368 -645h-191zM1538 283v319l-244 -319h244z" />
    <glyph glyph-name="questiondown" unicode="&#xbf;" horiz-adv-x="962" 
d="M717 926q0 -48 -34 -82q-35 -35 -79 -35q-46 0 -81 35q-34 34 -34 82q0 50 34 84t81 34t80 -34t33 -84zM61 16q0 129 43 216q44 89 116 133q67 41 145 60q68 17 153 17l19 228h135l24 -375q-184 0 -286 -57q-103 -58 -103 -205q0 -105 60 -166q60 -62 176 -62
q153 0 352 113v-215q-193 -92 -395 -92q-196 0 -318 108q-121 108 -121 297z" />
    <glyph glyph-name="Agrave" unicode="&#xc0;" 
d="M641 1495l-287 109q-69 28 -69 90q0 39 25 61q26 23 67 23q37 0 84 -35l223 -164zM1169 47v-47h-243l-101 342h-448l-101 -342h-233v47l410 1356h313zM766 547l-90 303q-45 144 -74 291h-2q-23 -116 -74 -291l-90 -303h330z" />
    <glyph glyph-name="Aacute" unicode="&#xc1;" 
d="M567 1495l-41 84l222 164q52 35 86 35q40 0 66 -23t26 -61q0 -61 -70 -90zM1169 47v-47h-243l-101 342h-448l-101 -342h-233v47l410 1356h313zM766 547l-90 303q-45 144 -74 291h-2q-23 -116 -74 -291l-90 -303h330z" />
    <glyph glyph-name="Acircumflex" unicode="&#xc2;" 
d="M451 1495h-138l246 350h94l246 -350h-137l-154 174zM1169 47v-47h-243l-101 342h-448l-101 -342h-233v47l410 1356h313zM766 547l-90 303q-45 144 -74 291h-2q-23 -116 -74 -291l-90 -303h330z" />
    <glyph glyph-name="Atilde" unicode="&#xc3;" 
d="M471 1593q-40 0 -57 -23q-20 -26 -27 -75h-121q7 122 64 198q55 74 139 74q57 0 153 -47t126 -47q60 0 81 82h115q-16 -256 -174 -256q-56 0 -164 47t-135 47zM1169 47v-47h-243l-101 342h-448l-101 -342h-233v47l410 1356h313zM766 547l-90 303q-45 144 -74 291h-2
q-23 -116 -74 -291l-90 -303h330z" />
    <glyph glyph-name="Adieresis" unicode="&#xc4;" 
d="M416 1542q-50 0 -86 31q-35 30 -35 84q0 50 35 80t86 30q50 0 85 -30q34 -30 34 -80q0 -54 -34 -84q-36 -31 -85 -31zM799 1542q-49 0 -85 31q-34 30 -34 84q0 50 34 80t85 30t85 -30t34 -80q0 -54 -34 -84q-36 -31 -85 -31zM1169 47v-47h-243l-101 342h-448l-101 -342
h-233v47l410 1356h313zM766 547l-90 303q-45 144 -74 291h-2q-23 -116 -74 -291l-90 -303h330z" />
    <glyph glyph-name="Aring" unicode="&#xc5;" 
d="M606 1479q-79 0 -126 43q-48 44 -48 120t47 121q46 45 127 45q80 0 127 -45t47 -121t-47 -120q-46 -43 -127 -43zM606 1735q-90 0 -90 -93q0 -41 24 -65q25 -25 66 -25q42 0 67 25q23 23 23 65q0 93 -90 93zM1169 47v-47h-243l-101 342h-448l-101 -342h-233v47l410 1356
h313zM766 547l-90 303q-45 144 -74 291h-2q-23 -116 -74 -291l-90 -303h330z" />
    <glyph glyph-name="AE" unicode="&#xc6;" horiz-adv-x="1671" 
d="M1593 205l-20 -205h-817v342h-357l-147 -342h-240v47l594 1346h971v-205h-576v-373h486v-205h-486v-405h592zM756 547v641h-19q-52 -182 -100 -291l-150 -350h269z" />
    <glyph glyph-name="Ccedilla" unicode="&#xc7;" horiz-adv-x="1175" 
d="M1110 297l-20 -221q-178 -86 -363 -96v-43q87 0 140 -43q55 -44 55 -121q0 -82 -54 -133q-53 -50 -141 -50q-95 0 -156 29v82q61 -23 105 -23q110 0 110 95q0 94 -153 94v115q-543 28 -543 714q0 717 590 717q209 0 410 -96v-211q-208 113 -410 113q-188 0 -261 -136
q-73 -137 -73 -387t73 -387q72 -135 261 -135q229 0 430 123z" />
    <glyph glyph-name="Egrave" unicode="&#xc8;" horiz-adv-x="1128" 
d="M627 1495l-287 109q-70 29 -70 90q0 38 26 61t66 23q37 0 84 -35l224 -164zM397 1188v-373h547v-205h-547v-405h652l-21 -205h-876v1393h884v-205h-639z" />
    <glyph glyph-name="Eacute" unicode="&#xc9;" horiz-adv-x="1128" 
d="M512 1579l221 164q52 35 86 35q41 0 67 -23q25 -22 25 -61q0 -62 -69 -90l-289 -109zM397 1188v-373h547v-205h-547v-405h652l-21 -205h-876v1393h884v-205h-639z" />
    <glyph glyph-name="Ecircumflex" unicode="&#xca;" horiz-adv-x="1128" 
d="M299 1495l246 350h94l246 -350h-137l-154 174l-158 -174h-137zM397 1188v-373h547v-205h-547v-405h652l-21 -205h-876v1393h884v-205h-639z" />
    <glyph glyph-name="Edieresis" unicode="&#xcb;" horiz-adv-x="1128" 
d="M281 1657q0 50 34 80q35 30 86 30t85 -30t34 -80q0 -54 -34 -84q-36 -31 -85 -31q-50 0 -86 31q-34 30 -34 84zM666 1657q0 51 33 80q35 30 85 30t85 -30q34 -30 34 -80q0 -54 -34 -84q-36 -31 -85 -31t-85 31q-33 29 -33 84zM397 1188v-373h547v-205h-547v-405h652
l-21 -205h-876v1393h884v-205h-639z" />
    <glyph glyph-name="Igrave" unicode="&#xcc;" horiz-adv-x="546" 
d="M307 1495l-287 109q-69 28 -69 90q0 39 25 61q26 23 67 23q37 0 84 -35l223 -164zM397 1393v-1393h-245v1393h245z" />
    <glyph glyph-name="Iacute" unicode="&#xcd;" horiz-adv-x="546" 
d="M193 1579l221 164q52 35 86 35q40 0 66 -23t26 -61q0 -61 -70 -90l-289 -109zM397 1393v-1393h-245v1393h245z" />
    <glyph glyph-name="Icircumflex" unicode="&#xce;" horiz-adv-x="546" 
d="M-18 1495l245 350h95l245 -350h-137l-154 174l-157 -174h-137zM397 1393v-1393h-245v1393h245z" />
    <glyph glyph-name="Idieresis" unicode="&#xcf;" horiz-adv-x="546" 
d="M-39 1657q0 50 35 80q34 30 86 30q50 0 85 -30q34 -30 34 -80q0 -54 -34 -84q-36 -31 -85 -31q-50 0 -86 31q-35 30 -35 84zM346 1657q0 50 34 80t85 30t85 -30t34 -80q0 -54 -34 -84q-36 -31 -85 -31t-85 31q-34 30 -34 84zM397 1393v-1393h-245v1393h245z" />
    <glyph glyph-name="Eth" unicode="&#xd0;" horiz-adv-x="1331" 
d="M158 1393h504q305 0 441 -172t136 -514q0 -346 -137 -527q-136 -180 -440 -180h-504v604h-131v184h131v605zM403 205h259q178 0 249 113q72 114 72 389q0 269 -71 375t-250 106h-259v-400h308v-184h-308v-399z" />
    <glyph glyph-name="Ntilde" unicode="&#xd1;" horiz-adv-x="1314" 
d="M426 1495h-121q7 122 64 198q55 74 139 74q56 0 152 -47t126 -47q61 0 82 82h115q-16 -256 -174 -256q-56 0 -164 47t-135 47q-40 0 -57 -23q-20 -26 -27 -75zM397 1393l539 -947h10q-12 183 -12 443v504h231v-1393h-245l-539 946h-10q12 -183 12 -442v-504h-231v1393
h245z" />
    <glyph glyph-name="Ograve" unicode="&#xd2;" horiz-adv-x="1333" 
d="M705 1495l-287 109q-70 29 -70 90q0 38 26 61t66 23q37 0 84 -35l224 -164zM668 -20q-578 0 -578 727q0 343 137 525q136 181 441 181q302 0 438 -181q137 -182 137 -525q0 -727 -575 -727zM668 1219q-178 0 -250 -119q-72 -118 -72 -393q0 -277 73 -406
q72 -127 249 -127q175 0 247 127q72 128 72 406q0 275 -72 393q-72 119 -247 119z" />
    <glyph glyph-name="Oacute" unicode="&#xd3;" horiz-adv-x="1333" 
d="M590 1579l221 164q52 35 86 35q41 0 67 -23q25 -22 25 -61q0 -62 -69 -90l-289 -109zM668 -20q-578 0 -578 727q0 343 137 525q136 181 441 181q302 0 438 -181q137 -182 137 -525q0 -727 -575 -727zM668 1219q-178 0 -250 -119q-72 -118 -72 -393q0 -277 73 -406
q72 -127 249 -127q175 0 247 127q72 128 72 406q0 275 -72 393q-72 119 -247 119z" />
    <glyph glyph-name="Ocircumflex" unicode="&#xd4;" horiz-adv-x="1333" 
d="M377 1495l246 350h94l246 -350h-138l-153 174l-158 -174h-137zM668 -20q-578 0 -578 727q0 343 137 525q136 181 441 181q302 0 438 -181q137 -182 137 -525q0 -727 -575 -727zM668 1219q-178 0 -250 -119q-72 -118 -72 -393q0 -277 73 -406q72 -127 249 -127
q175 0 247 127q72 128 72 406q0 275 -72 393q-72 119 -247 119z" />
    <glyph glyph-name="Otilde" unicode="&#xd5;" horiz-adv-x="1333" 
d="M451 1495h-121q8 123 63 198q55 74 139 74q57 0 153 -47t126 -47q61 0 82 82h115q-16 -256 -174 -256q-56 0 -164 47t-135 47q-41 0 -58 -23q-19 -25 -26 -75zM668 -20q-578 0 -578 727q0 343 137 525q136 181 441 181q302 0 438 -181q137 -182 137 -525
q0 -727 -575 -727zM668 1219q-178 0 -250 -119q-72 -118 -72 -393q0 -277 73 -406q72 -127 249 -127q175 0 247 127q72 128 72 406q0 275 -72 393q-72 119 -247 119z" />
    <glyph glyph-name="Odieresis" unicode="&#xd6;" horiz-adv-x="1333" 
d="M358 1657q0 50 35 80q34 30 86 30q51 0 85 -30t34 -80q0 -54 -34 -84q-36 -31 -85 -31q-50 0 -86 31q-35 30 -35 84zM743 1657q0 50 34 80q35 30 85 30q51 0 85 -30t34 -80q0 -54 -34 -84q-36 -31 -85 -31t-85 31q-34 30 -34 84zM668 -20q-578 0 -578 727q0 343 137 525
q136 181 441 181q302 0 438 -181q137 -182 137 -525q0 -727 -575 -727zM668 1219q-178 0 -250 -119q-72 -118 -72 -393q0 -277 73 -406q72 -127 249 -127q175 0 247 127q72 128 72 406q0 275 -72 393q-72 119 -247 119z" />
    <glyph glyph-name="multiply" unicode="&#xd7;" horiz-adv-x="915" 
d="M459 440l-246 -245l-104 104l245 246l-245 243l104 103l246 -244l243 244l103 -103l-244 -243l244 -246l-103 -104z" />
    <glyph glyph-name="Oslash" unicode="&#xd8;" horiz-adv-x="1333" 
d="M1124 1516l-94 -207q213 -167 213 -602q0 -727 -575 -727q-137 0 -232 36l-63 -139h-150l94 203q-227 169 -227 627q0 343 137 525q136 181 441 181q134 0 241 -39l66 142h149zM346 707q0 -283 72 -406l405 885q-60 33 -155 33q-178 0 -250 -119q-72 -118 -72 -393z
M668 174q175 0 247 127q72 128 72 406q0 255 -61 376l-404 -880q64 -29 146 -29z" />
    <glyph glyph-name="Ugrave" unicode="&#xd9;" horiz-adv-x="1298" 
d="M668 1495l-287 109q-70 29 -70 90q0 38 26 61t66 23q37 0 84 -35l224 -164zM647 -20q-236 0 -371 119q-137 120 -137 376v918h246v-918q0 -127 60 -211t202 -84q144 0 204 85t60 210v918h246v-918q0 -256 -137 -376q-135 -119 -373 -119z" />
    <glyph glyph-name="Uacute" unicode="&#xda;" horiz-adv-x="1298" 
d="M553 1579l221 164q52 35 86 35q41 0 67 -23q25 -22 25 -61q0 -62 -69 -90l-289 -109zM647 -20q-236 0 -371 119q-137 120 -137 376v918h246v-918q0 -127 60 -211t202 -84q144 0 204 85t60 210v918h246v-918q0 -256 -137 -376q-135 -119 -373 -119z" />
    <glyph glyph-name="Ucircumflex" unicode="&#xdb;" horiz-adv-x="1298" 
d="M342 1495l246 350h94l246 -350h-137l-154 174l-158 -174h-137zM647 -20q-236 0 -371 119q-137 120 -137 376v918h246v-918q0 -127 60 -211t202 -84q144 0 204 85t60 210v918h246v-918q0 -256 -137 -376q-135 -119 -373 -119z" />
    <glyph glyph-name="Udieresis" unicode="&#xdc;" horiz-adv-x="1298" 
d="M322 1657q0 50 34 80t86 30q50 0 85 -30q34 -30 34 -80q0 -54 -34 -84q-36 -31 -85 -31q-50 0 -86 31q-34 30 -34 84zM707 1657q0 51 33 80q34 30 85 30q50 0 85 -30q34 -30 34 -80q0 -54 -34 -84q-36 -31 -85 -31t-85 31q-33 29 -33 84zM647 -20q-236 0 -371 119
q-137 120 -137 376v918h246v-918q0 -127 60 -211t202 -84q144 0 204 85t60 210v918h246v-918q0 -256 -137 -376q-135 -119 -373 -119z" />
    <glyph glyph-name="Yacute" unicode="&#xdd;" horiz-adv-x="1161" 
d="M549 1495l-41 84l221 164q52 35 86 35q41 0 67 -23q25 -22 25 -61q0 -62 -69 -90zM1124 1346l-422 -879v-467h-245v463l-418 883v47h246l204 -445q61 -136 97 -235h4q43 126 94 237l205 443h235v-47z" />
    <glyph glyph-name="Thorn" unicode="&#xde;" horiz-adv-x="1183" 
d="M397 1130h226q255 0 378 -111t123 -312q0 -203 -123 -322q-124 -119 -378 -119h-226v-266h-245v1393h245v-263zM397 471h226q135 0 190 57q55 56 55 179q0 119 -54 169q-55 50 -191 50h-226v-455z" />
    <glyph glyph-name="germandbls" unicode="&#xdf;" horiz-adv-x="1196" 
d="M168 1024v41q0 119 40 203q41 87 106 134q66 48 144 71q75 22 160 22q171 0 279 -75q109 -76 109 -222q0 -63 -26 -121t-61 -96q-32 -35 -72 -73q-42 -40 -62 -65q-25 -31 -25 -59q0 -34 40 -70q42 -37 97 -72q59 -37 115 -80q55 -42 97 -115q40 -70 40 -154
q0 -149 -103 -231t-260 -82q-140 0 -241 40l-25 189q131 -59 232 -59q87 0 124 40t37 99q0 55 -36 101q-38 49 -90 86l-104 76q-50 36 -89 87q-37 49 -37 106q0 51 31 105q29 51 68 93q42 45 69 101q31 64 31 125q0 79 -48 113q-49 35 -116 35q-191 0 -191 -270v-1047h-233
v860h-115v88z" />
    <glyph glyph-name="agrave" unicode="&#xe0;" horiz-adv-x="1048" 
d="M543 1126l-287 109q-70 29 -70 90q0 38 26 61t67 23q36 0 83 -35l224 -164zM653 135l-125 -106q-71 -49 -180 -49q-124 0 -207 72q-82 72 -82 190q0 232 314 295l280 57v102q0 84 -42 134q-43 51 -156 51q-142 0 -297 -70l-23 25l62 161q164 47 311 47q174 0 274 -75
q103 -77 103 -211v-529q0 -86 65 -86q28 0 66 15v-131q-73 -47 -174 -47q-162 0 -189 155zM653 481l-247 -67q-107 -30 -107 -135q0 -63 40 -94t103 -31q120 0 211 100v227z" />
    <glyph glyph-name="aacute" unicode="&#xe1;" horiz-adv-x="1048" 
d="M428 1210l221 164q52 35 86 35q41 0 67 -23q25 -22 25 -61q0 -61 -69 -90l-289 -109zM653 135l-125 -106q-71 -49 -180 -49q-124 0 -207 72q-82 72 -82 190q0 232 314 295l280 57v102q0 84 -42 134q-43 51 -156 51q-142 0 -297 -70l-23 25l62 161q164 47 311 47
q174 0 274 -75q103 -77 103 -211v-529q0 -86 65 -86q28 0 66 15v-131q-73 -47 -174 -47q-162 0 -189 155zM653 481l-247 -67q-107 -30 -107 -135q0 -63 40 -94t103 -31q120 0 211 100v227z" />
    <glyph glyph-name="acircumflex" unicode="&#xe2;" horiz-adv-x="1048" 
d="M215 1126l246 351h94l246 -351h-137l-154 174l-158 -174h-137zM653 135l-125 -106q-71 -49 -180 -49q-124 0 -207 72q-82 72 -82 190q0 232 314 295l280 57v102q0 84 -42 134q-43 51 -156 51q-142 0 -297 -70l-23 25l62 161q164 47 311 47q174 0 274 -75
q103 -77 103 -211v-529q0 -86 65 -86q28 0 66 15v-131q-73 -47 -174 -47q-162 0 -189 155zM653 481l-247 -67q-107 -30 -107 -135q0 -63 40 -94t103 -31q120 0 211 100v227z" />
    <glyph glyph-name="atilde" unicode="&#xe3;" horiz-adv-x="1048" 
d="M291 1126h-121q8 123 63 198t140 75q56 0 152 -47t126 -47q61 0 82 81h115q-16 -256 -174 -256q-54 0 -164 48q-108 47 -135 47q-40 0 -58 -24q-19 -25 -26 -75zM653 135l-125 -106q-71 -49 -180 -49q-124 0 -207 72q-82 72 -82 190q0 232 314 295l280 57v102
q0 84 -42 134q-43 51 -156 51q-142 0 -297 -70l-23 25l62 161q164 47 311 47q174 0 274 -75q103 -77 103 -211v-529q0 -86 65 -86q28 0 66 15v-131q-73 -47 -174 -47q-162 0 -189 155zM653 481l-248 -67q-106 -30 -106 -135q0 -63 40 -94t103 -31q120 0 211 100v227z" />
    <glyph glyph-name="adieresis" unicode="&#xe4;" horiz-adv-x="1048" 
d="M197 1288q0 50 34 80q36 31 86 31q49 0 85 -31q34 -30 34 -80q0 -54 -34 -84q-35 -30 -85 -30q-51 0 -86 30q-34 30 -34 84zM582 1288q0 51 33 80q36 31 85 31t85 -31q34 -30 34 -80q0 -54 -34 -84q-35 -30 -85 -30t-85 30q-33 29 -33 84zM653 135l-125 -106
q-71 -49 -180 -49q-124 0 -207 72q-82 72 -82 190q0 232 314 295l280 57v102q0 84 -42 134q-43 51 -156 51q-142 0 -297 -70l-23 25l62 161q164 47 311 47q174 0 274 -75q103 -77 103 -211v-529q0 -86 65 -86q28 0 66 15v-131q-73 -47 -174 -47q-162 0 -189 155zM653 481
l-247 -67q-107 -30 -107 -135q0 -63 40 -94t103 -31q120 0 211 100v227z" />
    <glyph glyph-name="aring" unicode="&#xe5;" horiz-adv-x="1048" 
d="M334 1274q0 76 47 121t127 45t127 -45t47 -121q0 -77 -47 -121q-46 -43 -127 -43q-79 0 -126 43q-48 43 -48 121zM418 1274q0 -43 23 -66q24 -24 67 -24q42 0 66 24t24 66q0 92 -90 92t-90 -92zM653 135l-125 -106q-71 -49 -180 -49q-124 0 -207 72q-82 72 -82 190
q0 232 314 295l280 57v102q0 84 -42 134q-43 51 -156 51q-142 0 -297 -70l-23 25l62 161q164 47 311 47q174 0 274 -75q103 -77 103 -211v-529q0 -86 65 -86q28 0 66 15v-131q-73 -47 -174 -47q-162 0 -189 155zM653 481l-247 -67q-107 -30 -107 -135q0 -63 40 -94t103 -31
q120 0 211 100v227z" />
    <glyph glyph-name="ae" unicode="&#xe6;" horiz-adv-x="1622" 
d="M1544 664q0 -95 -26 -203h-641q12 -158 92 -235q79 -76 207 -76q79 0 169 26q94 27 154 64v-179q-144 -81 -366 -81q-291 0 -410 221l-195 -172q-76 -49 -188 -49q-126 0 -202 72q-77 72 -77 190q0 229 306 295l286 57v102q0 84 -42 134q-43 51 -156 51q-139 0 -299 -70
l-23 25l62 161q168 47 311 47q209 0 303 -106q122 106 319 106q87 0 152 -17q74 -19 131 -57q61 -40 97 -119t36 -187zM877 582l438 12q8 61 8 80q0 66 -19 110q-20 45 -53 65q-32 19 -58 25q-30 7 -54 7q-239 0 -262 -299zM436 154q117 0 252 129q-34 93 -35 198l-252 -67
q-104 -28 -104 -135q0 -63 39 -94q38 -31 100 -31z" />
    <glyph glyph-name="ccedilla" unicode="&#xe7;" horiz-adv-x="962" 
d="M317 512q0 -362 275 -362q142 0 289 90v-179q-134 -73 -289 -79v-45q87 0 140 -43q54 -44 54 -121q0 -83 -53 -133t-141 -50q-95 0 -156 29v82q61 -23 105 -23q110 0 110 95q0 94 -153 94v115q-202 15 -309 155t-107 375q0 248 127 390t362 142q169 0 324 -59l-41 -147
l-27 -23q-127 59 -243 59q-135 0 -200 -101q-67 -104 -67 -261z" />
    <glyph glyph-name="egrave" unicode="&#xe8;" horiz-adv-x="1064" 
d="M616 1126l-286 109q-70 29 -70 90q0 38 26 61t66 23q37 0 84 -35l223 -164zM987 664q0 -95 -26 -203h-642q12 -157 93 -235q79 -76 206 -76q79 0 169 26q96 28 155 64v-179q-144 -81 -367 -81q-232 0 -362 143q-131 145 -131 389q0 248 127 390t362 142q87 0 152 -17
q74 -19 131 -57q61 -40 97 -119t36 -187zM319 582l439 12q8 61 8 80q0 64 -20 110t-52 65t-58 25q-30 7 -54 7q-240 0 -263 -299z" />
    <glyph glyph-name="eacute" unicode="&#xe9;" horiz-adv-x="1064" 
d="M543 1126l-41 84l221 164q52 35 86 35q41 0 67 -23q25 -22 25 -61q0 -61 -70 -90zM987 664q0 -95 -26 -203h-642q12 -157 93 -235q79 -76 206 -76q79 0 169 26q96 28 155 64v-179q-144 -81 -367 -81q-232 0 -362 143q-131 145 -131 389q0 248 127 390t362 142
q87 0 152 -17q74 -19 131 -57q61 -40 97 -119t36 -187zM319 582l439 12q8 61 8 80q0 64 -20 110t-52 65t-58 25q-30 7 -54 7q-240 0 -263 -299z" />
    <glyph glyph-name="ecircumflex" unicode="&#xea;" horiz-adv-x="1064" 
d="M426 1126h-137l246 351h94l245 -351h-137l-153 174zM987 664q0 -95 -26 -203h-642q12 -157 93 -235q79 -76 206 -76q79 0 169 26q96 28 155 64v-179q-144 -81 -367 -81q-232 0 -362 143q-131 145 -131 389q0 248 127 390t362 142q87 0 152 -17q74 -19 131 -57
q61 -40 97 -119t36 -187zM319 582l439 12q8 61 8 80q0 64 -20 110t-52 65t-58 25q-30 7 -54 7q-240 0 -263 -299z" />
    <glyph glyph-name="edieresis" unicode="&#xeb;" horiz-adv-x="1064" 
d="M391 1174q-51 0 -86 30t-35 84q0 50 35 80q36 31 86 31q49 0 85 -31q34 -30 34 -80q0 -54 -34 -84t-85 -30zM774 1174q-50 0 -85 30q-34 30 -34 84q0 50 34 80q36 31 85 31t85 -31q34 -30 34 -80q0 -54 -34 -84q-35 -30 -85 -30zM987 664q0 -95 -26 -203h-642
q12 -157 93 -235q79 -76 206 -76q79 0 169 26q96 28 155 64v-179q-144 -81 -367 -81q-232 0 -362 143q-131 145 -131 389q0 248 127 390t362 142q87 0 152 -17q74 -19 131 -57q61 -40 97 -119t36 -187zM319 582l439 12q8 61 8 80q0 64 -20 110t-52 65t-58 25q-30 7 -54 7
q-240 0 -263 -299z" />
    <glyph glyph-name="igrave" unicode="&#xec;" horiz-adv-x="497" 
d="M283 1126l-287 109q-70 29 -70 90q0 38 26 61t66 23q37 0 84 -35l224 -164zM365 1024v-1024h-232v1024h232z" />
    <glyph glyph-name="iacute" unicode="&#xed;" horiz-adv-x="497" 
d="M168 1210l221 164q52 35 86 35q41 0 67 -23q25 -22 25 -61q0 -61 -69 -90l-289 -109zM365 1024v-1024h-232v1024h232z" />
    <glyph glyph-name="icircumflex" unicode="&#xee;" horiz-adv-x="497" 
d="M-45 1126l246 351h94l246 -351h-138l-153 174l-158 -174h-137zM365 1024v-1024h-232v1024h232z" />
    <glyph glyph-name="idieresis" unicode="&#xef;" horiz-adv-x="497" 
d="M-63 1288q0 50 34 80q36 31 86 31q49 0 85 -31q34 -30 34 -80q0 -54 -34 -84t-85 -30t-86 30q-34 30 -34 84zM322 1288q0 51 33 80q36 31 85 31t85 -31q34 -30 34 -80q0 -54 -34 -84q-35 -30 -85 -30t-85 30q-33 29 -33 84zM365 1024v-1024h-232v1024h232z" />
    <glyph glyph-name="eth" unicode="&#xf0;" horiz-adv-x="1118" 
d="M922 1284l-166 -70q276 -258 276 -620q0 -614 -485 -614q-230 0 -346 143q-117 144 -117 362q0 214 109 346t335 132q92 0 191 -33q-55 107 -150 205l-213 -91l-47 109l166 70q-103 84 -254 170h268q76 -34 162 -95l226 95zM547 143q143 0 196 108q54 111 54 343
q0 88 -19 172q-105 39 -196 39q-263 0 -263 -320q0 -155 57 -248q58 -94 171 -94z" />
    <glyph glyph-name="ntilde" unicode="&#xf1;" horiz-adv-x="1095" 
d="M330 1126h-121q7 123 63 198q55 75 140 75q56 0 152 -47t126 -47q61 0 82 81h115q-16 -256 -174 -256q-54 0 -164 48q-108 47 -135 47q-40 0 -58 -24q-19 -25 -26 -75zM365 887h4l100 100q107 57 213 57q130 0 210 -74q81 -75 81 -218v-752h-232v707q0 153 -137 153
q-100 0 -239 -84v-776h-232v1024h221z" />
    <glyph glyph-name="ograve" unicode="&#xf2;" horiz-adv-x="1099" 
d="M582 1126l-287 109q-70 29 -70 90q0 38 26 61t66 23q37 0 84 -35l224 -164zM549 -20q-231 0 -349 139t-118 393t118 393t349 139q233 0 351 -139t118 -393t-118 -393t-351 -139zM549 881q-127 0 -179 -91q-53 -92 -53 -278t53 -278q52 -91 179 -91q129 0 181 91t52 278
t-52 278t-181 91z" />
    <glyph glyph-name="oacute" unicode="&#xf3;" horiz-adv-x="1099" 
d="M467 1210l221 164q52 35 86 35q41 0 67 -23q25 -22 25 -61q0 -61 -69 -90l-289 -109zM549 -20q-231 0 -349 139t-118 393t118 393t349 139q233 0 351 -139t118 -393t-118 -393t-351 -139zM549 881q-127 0 -179 -91q-53 -92 -53 -278t53 -278q52 -91 179 -91q129 0 181 91
t52 278t-52 278t-181 91z" />
    <glyph glyph-name="ocircumflex" unicode="&#xf4;" horiz-adv-x="1099" 
d="M254 1126l246 351h94l246 -351h-138l-153 174l-158 -174h-137zM549 -20q-231 0 -349 139t-118 393t118 393t349 139q233 0 351 -139t118 -393t-118 -393t-351 -139zM549 881q-127 0 -179 -91q-53 -92 -53 -278t53 -278q52 -91 179 -91q129 0 181 91t52 278t-52 278
t-181 91z" />
    <glyph glyph-name="otilde" unicode="&#xf5;" horiz-adv-x="1099" 
d="M330 1126h-121q7 123 63 198q55 75 140 75q56 0 152 -47t126 -47q61 0 82 81h115q-16 -256 -174 -256q-54 0 -164 48q-108 47 -135 47q-40 0 -58 -24q-19 -25 -26 -75zM549 -20q-231 0 -349 139t-118 393t118 393t349 139q233 0 351 -139t118 -393t-118 -393t-351 -139z
M549 881q-127 0 -179 -91q-53 -92 -53 -278t53 -278q52 -91 179 -91q129 0 181 91t52 278t-52 278t-181 91z" />
    <glyph glyph-name="odieresis" unicode="&#xf6;" horiz-adv-x="1099" 
d="M236 1288q0 50 34 80q36 31 86 31q49 0 85 -31q34 -30 34 -80q0 -54 -34 -84t-85 -30q-52 0 -86 30t-34 84zM621 1288q0 51 33 80q36 31 85 31t85 -31q34 -30 34 -80q0 -54 -34 -84t-85 -30t-85 30q-33 29 -33 84zM549 -20q-231 0 -349 139t-118 393t118 393t349 139
q233 0 351 -139t118 -393t-118 -393t-351 -139zM549 881q-127 0 -179 -91q-53 -92 -53 -278t53 -278q52 -91 179 -91q129 0 181 91t52 278t-52 278t-181 91z" />
    <glyph glyph-name="divide" unicode="&#xf7;" horiz-adv-x="933" 
d="M354 881q0 48 34 82t81 34q45 0 79 -34t34 -82t-34 -83q-34 -36 -79 -36q-47 0 -81 36q-34 35 -34 83zM111 469v147h712v-147h-712zM354 207q0 48 34 82q35 35 81 35q44 0 79 -35q34 -34 34 -82q0 -49 -33 -84t-80 -35q-46 0 -81 35q-34 34 -34 84z" />
    <glyph glyph-name="oslash" unicode="&#xf8;" horiz-adv-x="1099" 
d="M971 1085l-97 -153q144 -136 144 -420q0 -254 -118 -393t-349 -139q-138 0 -240 51l-57 -92h-131l98 157q-139 136 -139 416q0 254 118 393t351 139q135 0 233 -49l56 90h131zM317 512q0 -136 27 -219l342 547q-53 41 -135 41q-129 0 -181 -91q-53 -92 -53 -278zM551 143
q127 0 179 91t52 278q0 147 -28 225l-344 -549q51 -45 141 -45z" />
    <glyph glyph-name="ugrave" unicode="&#xf9;" horiz-adv-x="1097" 
d="M580 1126l-287 109q-70 29 -70 90q0 38 26 61t66 23q37 0 84 -35l224 -164zM733 137h-4l-100 -100q-107 -57 -213 -57q-130 0 -210 74q-81 75 -81 218v752h231v-707q0 -153 138 -153q100 0 239 84v776h232v-1024h-222z" />
    <glyph glyph-name="uacute" unicode="&#xfa;" horiz-adv-x="1097" 
d="M465 1210l221 164q52 35 86 35q41 0 67 -23q25 -22 25 -61q0 -61 -69 -90l-289 -109zM733 137h-4l-100 -100q-107 -57 -213 -57q-130 0 -210 74q-81 75 -81 218v752h231v-707q0 -153 138 -153q100 0 239 84v776h232v-1024h-222z" />
    <glyph glyph-name="ucircumflex" unicode="&#xfb;" horiz-adv-x="1097" 
d="M252 1126l246 351h94l246 -351h-138l-153 174l-158 -174h-137zM733 137h-4l-100 -100q-107 -57 -213 -57q-130 0 -210 74q-81 75 -81 218v752h231v-707q0 -153 138 -153q100 0 239 84v776h232v-1024h-222z" />
    <glyph glyph-name="udieresis" unicode="&#xfc;" horiz-adv-x="1097" 
d="M233 1288q0 50 35 80q36 31 86 31q49 0 85 -31q34 -30 34 -80q0 -54 -34 -84q-35 -30 -85 -30q-52 0 -86 30q-35 30 -35 84zM618 1288q0 50 34 80q36 31 85 31t85 -31q34 -30 34 -80q0 -54 -34 -84t-85 -30t-85 30t-34 84zM733 137h-4l-100 -100q-107 -57 -213 -57
q-130 0 -210 74q-81 75 -81 218v752h231v-707q0 -153 138 -153q100 0 239 84v776h232v-1024h-222z" />
    <glyph glyph-name="yacute" unicode="&#xfd;" horiz-adv-x="1015" 
d="M424 1210l221 164q52 35 86 35q41 0 67 -23q25 -22 25 -61q0 -61 -69 -90l-289 -109zM49 977v47h225l238 -795h4l225 795h224v-47l-238 -735q-57 -178 -131 -324q-78 -155 -116 -211q-43 -64 -113 -158h-240v48q170 195 254 362z" />
    <glyph glyph-name="thorn" unicode="&#xfe;" horiz-adv-x="1120" 
d="M670 1044q172 0 269 -147q97 -146 97 -385q0 -251 -115 -391q-115 -141 -307 -141q-137 0 -249 75v-506h-232v1844l170 82h62v-586l124 106q71 49 181 49zM559 137q242 0 242 375q0 191 -61 278q-59 84 -181 84q-80 0 -194 -96v-581q92 -60 194 -60z" />
    <glyph glyph-name="ydieresis" unicode="&#xff;" horiz-adv-x="1015" 
d="M193 1288q0 50 34 80q36 31 86 31q49 0 85 -31q34 -30 34 -80q0 -54 -34 -84t-85 -30t-86 30q-34 30 -34 84zM578 1288q0 51 33 80q36 31 85 31t85 -31q34 -30 34 -80q0 -54 -34 -84q-35 -30 -85 -30t-85 30q-33 29 -33 84zM49 977v47h225l238 -795h4l225 795h224v-47
l-238 -735q-57 -178 -131 -324q-78 -155 -116 -211q-43 -64 -113 -158h-240v48q170 195 254 362z" />
    <glyph glyph-name="Amacron" unicode="&#x100;" 
d="M909 1530h-604v131h604v-131zM1169 47v-47h-243l-101 342h-448l-101 -342h-233v47l410 1356h313zM766 547l-90 303q-45 144 -74 291h-2q-23 -116 -74 -291l-90 -303h330z" />
    <glyph glyph-name="amacron" unicode="&#x101;" horiz-adv-x="1048" 
d="M207 1161v131h604v-131h-604zM653 135l-125 -106q-71 -49 -180 -49q-124 0 -207 72q-82 72 -82 190q0 232 314 295l280 57v102q0 84 -42 134q-43 51 -156 51q-142 0 -297 -70l-23 25l62 161q164 47 311 47q174 0 274 -75q103 -77 103 -211v-529q0 -86 65 -86q28 0 66 15
v-131q-73 -47 -174 -47q-162 0 -189 155zM653 481l-247 -67q-107 -30 -107 -135q0 -63 40 -94t103 -31q120 0 211 100v227z" />
    <glyph glyph-name="Abreve" unicode="&#x102;" 
d="M606 1495q-122 0 -184 89t-62 231h111q6 -59 16 -92q11 -36 40 -67q30 -32 79 -32t79 32q29 31 40 67q10 33 16 92h111q0 -143 -61 -231q-62 -89 -185 -89zM1169 47v-47h-243l-101 342h-448l-101 -342h-233v47l410 1356h313zM766 547l-90 303q-45 144 -74 291h-2
q-23 -116 -74 -291l-90 -303h330z" />
    <glyph glyph-name="abreve" unicode="&#x103;" horiz-adv-x="1048" 
d="M508 1126q-122 0 -184 89t-62 231h111q6 -57 16 -91q11 -37 40 -68q30 -32 79 -32t79 32q29 31 40 68q10 34 16 91h111q0 -142 -62 -231t-184 -89zM653 135l-125 -106q-71 -49 -180 -49q-124 0 -207 72q-82 72 -82 190q0 232 314 295l280 57v102q0 84 -42 134
q-43 51 -156 51q-142 0 -297 -70l-23 25l62 161q164 47 311 47q174 0 274 -75q103 -77 103 -211v-529q0 -86 65 -86q28 0 66 15v-131q-73 -47 -174 -47q-162 0 -189 155zM653 481l-247 -67q-107 -30 -107 -135q0 -63 40 -94t103 -31q120 0 211 100v227z" />
    <glyph glyph-name="Aogonek" unicode="&#x104;" 
d="M1112 -307q47 0 86 20v-75q-63 -48 -151 -48q-85 0 -134 45t-49 115q0 143 164 250h-102l-101 342h-448l-101 -342h-233v47l410 1356h313l403 -1356v-47h-71q-92 -90 -92 -195q0 -51 27 -81q28 -31 79 -31zM766 547l-90 303q-45 144 -74 291h-2q-23 -116 -74 -291
l-90 -303h330z" />
    <glyph glyph-name="aogonek" unicode="&#x105;" horiz-adv-x="1048" 
d="M1016 158v-131q-49 -32 -127 -43q-76 -83 -76 -179q0 -50 28 -81t79 -31q47 0 86 20v-75q-63 -48 -152 -48q-84 0 -133 45t-49 115q0 131 137 232q-134 15 -156 153l-125 -106q-71 -49 -180 -49q-124 0 -207 72q-82 72 -82 190q0 232 314 295l280 57v102q0 84 -42 134
q-43 51 -156 51q-142 0 -297 -70l-23 25l62 161q164 47 311 47q174 0 274 -75q103 -77 103 -211v-529q0 -86 65 -86q28 0 66 15zM653 481l-247 -67q-107 -30 -107 -135q0 -63 40 -94t103 -31q120 0 211 100v227z" />
    <glyph glyph-name="Cacute" unicode="&#x106;" horiz-adv-x="1175" 
d="M590 1579l221 164q52 35 86 35q41 0 67 -23q25 -22 25 -61q0 -62 -69 -90l-289 -109zM90 696q0 717 590 717q209 0 410 -96v-211q-208 113 -410 113q-188 0 -261 -136q-73 -137 -73 -387t73 -387q72 -135 261 -135q229 0 430 123l-20 -221q-201 -96 -410 -96
q-590 0 -590 716z" />
    <glyph glyph-name="cacute" unicode="&#x107;" horiz-adv-x="962" 
d="M459 1210l221 164q52 35 86 35q41 0 67 -23q25 -22 25 -61q0 -61 -70 -90l-288 -109zM584 874q-135 0 -200 -101q-67 -104 -67 -261q0 -362 275 -362q142 0 289 90v-179q-144 -81 -334 -81q-223 0 -344 142t-121 390t127 390t362 142q169 0 324 -59l-41 -147l-27 -23
q-127 59 -243 59z" />
    <glyph glyph-name="Cdotaccent" unicode="&#x10a;" horiz-adv-x="1175" 
d="M541 1669q0 49 36 84q37 35 93 35t93 -35q36 -35 36 -84q0 -51 -36 -85q-35 -34 -93 -34t-93 34q-36 34 -36 85zM90 696q0 717 590 717q209 0 410 -96v-211q-208 113 -410 113q-188 0 -261 -136q-73 -137 -73 -387t73 -387q72 -135 261 -135q229 0 430 123l-20 -221
q-201 -96 -410 -96q-590 0 -590 716z" />
    <glyph glyph-name="cdotaccent" unicode="&#x10b;" horiz-adv-x="962" 
d="M410 1300q0 50 35 84q37 35 94 35q56 0 93 -35q36 -34 36 -84t-36 -85q-34 -33 -93 -33q-60 0 -94 33q-35 34 -35 85zM584 874q-135 0 -200 -101q-67 -104 -67 -261q0 -362 275 -362q142 0 289 90v-179q-144 -81 -334 -81q-223 0 -344 142t-121 390t127 390t362 142
q169 0 324 -59l-41 -147l-27 -23q-127 59 -243 59z" />
    <glyph glyph-name="Ccaron" unicode="&#x10c;" horiz-adv-x="1175" 
d="M672 1671l153 174h138l-246 -350h-94l-246 350h137zM90 696q0 717 590 717q209 0 410 -96v-211q-208 113 -410 113q-188 0 -261 -136q-73 -137 -73 -387t73 -387q72 -135 261 -135q229 0 430 123l-20 -221q-201 -96 -410 -96q-590 0 -590 716z" />
    <glyph glyph-name="ccaron" unicode="&#x10d;" horiz-adv-x="962" 
d="M541 1303l153 174h137l-245 -351h-94l-246 351h137zM584 874q-135 0 -200 -101q-67 -104 -67 -261q0 -362 275 -362q142 0 289 90v-179q-144 -81 -334 -81q-223 0 -344 142t-121 390t127 390t362 142q169 0 324 -59l-41 -147l-27 -23q-127 59 -243 59z" />
    <glyph glyph-name="Dcaron" unicode="&#x10e;" horiz-adv-x="1325" 
d="M633 1671l153 174h138l-246 -350h-94l-246 350h137zM152 1393h505q304 0 440 -172t136 -514q0 -346 -137 -527q-137 -180 -439 -180h-505v1393zM397 205h260q179 0 249 113q71 115 71 389q0 268 -70 375q-70 106 -250 106h-260v-983z" />
    <glyph glyph-name="dcaron" unicode="&#x10f;" horiz-adv-x="1198" 
d="M1180 1493q61 0 95 -43t34 -100q0 -113 -138 -318h-102l100 223q-39 0 -76 32q-36 31 -36 87q0 49 35 84t88 35zM928 1475h61v-1475h-223l-10 135l-123 -106q-76 -49 -182 -49q-173 0 -270 147q-97 146 -97 385q0 249 116 391q116 141 306 141q137 0 250 -73v422z
M561 150q93 0 195 96v585q-91 56 -195 56q-242 0 -242 -375q0 -191 61 -278q59 -84 181 -84z" />
    <glyph glyph-name="Dcroat" unicode="&#x110;" horiz-adv-x="1331" 
d="M158 1393h504q305 0 441 -172t136 -514q0 -346 -137 -527q-136 -180 -440 -180h-504v604h-131v184h131v605zM403 205h259q178 0 249 113q72 114 72 389q0 269 -71 375t-250 106h-259v-400h308v-184h-308v-399z" />
    <glyph glyph-name="dcroat" unicode="&#x111;" horiz-adv-x="1120" 
d="M1108 1161h-119v-1161h-223l-10 135l-123 -106q-76 -49 -182 -49q-173 0 -270 147q-97 146 -97 385q0 249 116 391q116 141 306 141q137 0 250 -73v190h-264v131h264v101l172 82h61v-183h119v-131zM561 150q93 0 195 96v585q-91 56 -195 56q-242 0 -242 -375
q0 -191 61 -278q59 -84 181 -84z" />
    <glyph glyph-name="Emacron" unicode="&#x112;" horiz-adv-x="1128" 
d="M291 1530v131h604v-131h-604zM397 1188v-373h547v-205h-547v-405h652l-21 -205h-876v1393h884v-205h-639z" />
    <glyph glyph-name="emacron" unicode="&#x113;" horiz-adv-x="1064" 
d="M885 1161h-604v131h604v-131zM987 664q0 -95 -26 -203h-642q12 -157 93 -235q79 -76 206 -76q79 0 169 26q96 28 155 64v-179q-144 -81 -367 -81q-232 0 -362 143q-131 145 -131 389q0 248 127 390t362 142q87 0 152 -17q74 -19 131 -57q61 -40 97 -119t36 -187zM319 582
l439 12q8 61 8 80q0 64 -20 110t-52 65t-58 25q-30 7 -54 7q-240 0 -263 -299z" />
    <glyph glyph-name="Edotaccent" unicode="&#x116;" horiz-adv-x="1128" 
d="M463 1669q0 49 36 84q37 35 93 35t93 -35q36 -35 36 -84q0 -51 -36 -85q-35 -34 -93 -34t-93 34q-36 34 -36 85zM397 1188v-373h547v-205h-547v-405h652l-21 -205h-876v1393h884v-205h-639z" />
    <glyph glyph-name="edotaccent" unicode="&#x117;" horiz-adv-x="1064" 
d="M582 1182q-60 0 -94 33q-35 34 -35 85q0 50 35 84q37 35 94 35q56 0 93 -35q36 -34 36 -84t-36 -85q-34 -33 -93 -33zM987 664q0 -95 -26 -203h-642q12 -157 93 -235q79 -76 206 -76q79 0 169 26q96 28 155 64v-179q-144 -81 -367 -81q-232 0 -362 143q-131 145 -131 389
q0 248 127 390t362 142q87 0 152 -17q74 -19 131 -57q61 -40 97 -119t36 -187zM319 582l439 12q8 61 8 80q0 64 -20 110t-52 65t-58 25q-30 7 -54 7q-240 0 -263 -299z" />
    <glyph glyph-name="Eogonek" unicode="&#x118;" horiz-adv-x="1128" 
d="M1042 -307q47 0 86 20v-75q-63 -48 -151 -48q-83 0 -133 45q-49 45 -49 115q0 144 163 250h-806v1393h884v-205h-639v-373h547v-205h-547v-405h652l-21 -205q-92 -90 -92 -195q0 -50 28 -81t78 -31z" />
    <glyph glyph-name="eogonek" unicode="&#x119;" horiz-adv-x="1064" 
d="M956 -246q46 0 86 21v-76q-62 -47 -151 -47q-83 0 -133 45q-49 45 -49 115q0 108 94 196q-112 -28 -228 -28q-232 0 -362 143q-131 145 -131 389q0 248 127 390t362 142q87 0 152 -17q74 -19 131 -57q61 -40 97 -119t36 -187q0 -95 -26 -203h-642q12 -157 93 -235
q79 -76 206 -76q79 0 169 26q96 28 155 64v-179q-92 -90 -92 -194q0 -51 28 -82t78 -31zM582 881q-240 0 -263 -299l439 12q8 61 8 80q0 64 -20 110t-52 65t-58 25q-30 7 -54 7z" />
    <glyph glyph-name="Ecaron" unicode="&#x11a;" horiz-adv-x="1128" 
d="M594 1671l154 174h137l-246 -350h-94l-246 350h137zM397 1188v-373h547v-205h-547v-405h652l-21 -205h-876v1393h884v-205h-639z" />
    <glyph glyph-name="ecaron" unicode="&#x11b;" horiz-adv-x="1064" 
d="M535 1126l-246 351h137l158 -174l153 174h137l-245 -351h-94zM987 664q0 -95 -26 -203h-642q12 -157 93 -235q79 -76 206 -76q79 0 169 26q96 28 155 64v-179q-144 -81 -367 -81q-232 0 -362 143q-131 145 -131 389q0 248 127 390t362 142q87 0 152 -17q74 -19 131 -57
q61 -40 97 -119t36 -187zM319 582l439 12q8 61 8 80q0 64 -20 110t-52 65t-58 25q-30 7 -54 7q-240 0 -263 -299z" />
    <glyph glyph-name="Gbreve" unicode="&#x11e;" horiz-adv-x="1208" 
d="M676 1495q-122 0 -184 89t-62 231h111q6 -59 16 -92q11 -36 40 -67q30 -32 79 -32t79 32q29 31 40 67q10 33 16 92h111q0 -142 -62 -231t-184 -89zM680 1219q-188 0 -261 -136q-73 -137 -73 -387t73 -387q72 -135 261 -135q80 0 164 19v335h-226v205h472v-657
q-201 -96 -410 -96q-590 0 -590 716q0 717 590 717q209 0 410 -96v-211q-208 113 -410 113z" />
    <glyph glyph-name="gbreve" unicode="&#x11f;" horiz-adv-x="1050" 
d="M492 1126q-123 0 -185 89q-61 88 -61 231h110q6 -52 17 -91q11 -37 40 -68q30 -32 79 -32q48 0 78 32q29 31 40 68q11 39 17 91h110q0 -143 -61 -231q-62 -89 -184 -89zM346 197l379 -39q297 -30 297 -285q0 -147 -128 -246q-126 -98 -392 -98q-243 0 -354 67
q-109 66 -109 173t104 192l99 -29l-17 -92q0 -90 68 -126q67 -36 203 -36q290 0 290 158q0 53 -28 80q-29 28 -101 35l-358 35q-84 6 -124 49t-40 100q0 116 154 207q-203 95 -203 340q0 162 108 262q107 100 302 100q88 0 155 -18l330 18v-143h-135q65 -87 65 -219
q0 -178 -106 -280q-105 -101 -301 -101q-48 0 -92 6zM492 891q-94 0 -140 -55q-47 -56 -47 -140q0 -241 203 -241q186 0 186 215q0 109 -52 165t-150 56z" />
    <glyph glyph-name="Gdotaccent" unicode="&#x120;" horiz-adv-x="1208" 
d="M678 1550q-58 0 -93 34q-36 34 -36 85q0 49 36 84q37 35 93 35t93 -35q36 -35 36 -84q0 -51 -36 -85q-35 -34 -93 -34zM680 1219q-188 0 -261 -136q-73 -137 -73 -387t73 -387q72 -135 261 -135q80 0 164 19v335h-226v205h472v-657q-201 -96 -410 -96q-590 0 -590 716
q0 717 590 717q209 0 410 -96v-211q-208 113 -410 113z" />
    <glyph glyph-name="gdotaccent" unicode="&#x121;" horiz-adv-x="1050" 
d="M494 1182q-60 0 -94 33q-35 34 -35 85q0 50 35 84q37 35 94 35q56 0 93 -35q36 -34 36 -84t-36 -85q-34 -33 -93 -33zM346 197l379 -39q297 -30 297 -285q0 -147 -128 -246q-126 -98 -392 -98q-243 0 -354 67q-109 66 -109 173t104 192l99 -29l-17 -92q0 -90 68 -126
q67 -36 203 -36q290 0 290 158q0 53 -28 80q-29 28 -101 35l-358 35q-84 6 -124 49t-40 100q0 116 154 207q-203 95 -203 340q0 162 108 262q107 100 302 100q88 0 155 -18l330 18v-143h-135q65 -87 65 -219q0 -178 -106 -280q-105 -101 -301 -101q-48 0 -92 6zM492 891
q-94 0 -140 -55q-47 -56 -47 -140q0 -241 203 -241q186 0 186 215q0 109 -52 165t-150 56z" />
    <glyph glyph-name="Gcommaaccent" unicode="&#x122;" horiz-adv-x="1208" 
d="M680 1219q-188 0 -261 -136q-73 -137 -73 -387t73 -387q72 -135 261 -135q80 0 164 19v335h-226v205h472v-657q-201 -96 -410 -96q-590 0 -590 716q0 717 590 717q209 0 410 -96v-211q-208 113 -410 113zM674 -82q63 0 96 -43t33 -100q0 -115 -137 -318h-103l103 224
q-44 0 -79 31q-36 32 -36 87q0 49 36 84q37 35 87 35z" />
    <glyph glyph-name="gcommaaccent" unicode="&#x123;" horiz-adv-x="1050" 
d="M510 1128q-63 0 -96 43q-33 44 -33 101q0 114 137 317h103l-103 -223q40 0 77 -32q36 -32 36 -87q0 -49 -35 -84t-86 -35zM346 197l379 -39q297 -30 297 -285q0 -147 -128 -246q-126 -98 -392 -98q-243 0 -354 67q-109 66 -109 173t104 192l99 -29l-17 -92q0 -90 68 -126
q67 -36 203 -36q290 0 290 158q0 53 -28 80q-29 28 -101 35l-358 35q-84 6 -124 49t-40 100q0 116 154 207q-203 95 -203 340q0 162 108 262q107 100 302 100q88 0 155 -18l330 18v-143h-135q65 -87 65 -219q0 -178 -106 -280q-105 -101 -301 -101q-48 0 -92 6zM492 891
q-94 0 -140 -55q-47 -56 -47 -140q0 -241 203 -241q186 0 186 215q0 109 -52 165t-150 56z" />
    <glyph glyph-name="Hbar" unicode="&#x126;" horiz-adv-x="1327" 
d="M1300 1008h-129v-1008h-245v610h-523v-610h-245v1008h-131v184h131v201h245v-201h523v201h245v-201h129v-184zM926 1008h-523v-193h523v193z" />
    <glyph glyph-name="hbar" unicode="&#x127;" horiz-adv-x="1095" 
d="M682 1044q130 0 210 -74q81 -75 81 -218v-752h-234v707q0 153 -135 153q-104 0 -239 -84v-776h-232v1161h-121v131h121v101l170 82h62v-183h266v-131h-266v-274h4l100 100q107 57 213 57z" />
    <glyph glyph-name="Imacron" unicode="&#x12a;" horiz-adv-x="546" 
d="M-27 1530v131h605v-131h-605zM397 1393v-1393h-245v1393h245z" />
    <glyph glyph-name="imacron" unicode="&#x12b;" horiz-adv-x="497" 
d="M-53 1161v131h604v-131h-604zM365 1024v-1024h-232v1024h232z" />
    <glyph glyph-name="Iogonek" unicode="&#x12e;" horiz-adv-x="546" 
d="M354 -307q47 0 86 20v-75q-63 -48 -151 -48q-83 0 -133 45t-50 115q0 143 164 250h-118v1393h245v-1393h-57q-92 -90 -92 -195q0 -51 27 -81q28 -31 79 -31z" />
    <glyph glyph-name="iogonek" unicode="&#x12f;" horiz-adv-x="497" 
d="M248 1182q-59 0 -93 33q-36 35 -36 85t36 84q37 35 93 35t93 -35q36 -34 36 -84t-36 -85q-34 -33 -93 -33zM301 -307q47 0 86 20v-75q-63 -48 -151 -48q-84 0 -134 45q-49 45 -49 115q0 143 164 250h-84v1024h232v-1024h-78q-92 -90 -92 -195q0 -51 27 -81q28 -31 79 -31
z" />
    <glyph glyph-name="Idotaccent" unicode="&#x130;" horiz-adv-x="546" 
d="M145 1669q0 49 36 84q37 35 93 35q57 0 94 -35q35 -34 35 -84q0 -51 -35 -85t-94 -34q-58 0 -93 34q-36 34 -36 85zM397 1393v-1393h-245v1393h245z" />
    <glyph glyph-name="dotlessi" unicode="&#x131;" horiz-adv-x="497" 
d="M365 1024v-1024h-232v1024h232z" />
    <glyph glyph-name="IJ" unicode="&#x132;" horiz-adv-x="1101" 
d="M397 1393v-1393h-245v1393h245zM950 1393v-1315q0 -172 -70 -282q-71 -112 -280 -165l-74 176q116 50 147 110q32 61 32 161v1315h245z" />
    <glyph glyph-name="ij" unicode="&#x133;" horiz-adv-x="993" 
d="M119 1300q0 50 36 84q37 35 93 35t93 -35q36 -34 36 -84t-36 -85q-34 -33 -93 -33t-93 33q-36 35 -36 85zM616 1300q0 50 36 84q37 35 93 35q57 0 94 -35q35 -34 35 -84q0 -51 -35 -85q-34 -33 -94 -33q-59 0 -93 33q-36 35 -36 85zM365 1024v-1024h-232v1024h232z
M862 1024v-1010q0 -162 -63 -271q-63 -110 -242 -194l-90 138q104 66 134 128q30 63 30 199v1010h231z" />
    <glyph glyph-name="Kcommaaccent" unicode="&#x136;" horiz-adv-x="1216" 
d="M397 1393v-1393h-245v1393h245zM926 1393h243v-47l-456 -629l467 -670v-47h-258l-463 666v77zM518 -543l103 224q-44 0 -79 31q-36 32 -36 87q0 49 36 84q37 35 87 35q63 0 96 -43t33 -100q0 -115 -137 -318h-103z" />
    <glyph glyph-name="kcommaaccent" unicode="&#x137;" horiz-adv-x="1067" 
d="M303 1475h62v-1475h-232v1393zM801 0l-395 532l382 492h207v-47l-338 -428l379 -502v-47h-235zM420 -543l102 224q-44 0 -79 31t-35 87q0 50 35 84q37 35 87 35q64 0 97 -43q32 -42 32 -100q0 -115 -137 -318h-102z" />
    <glyph glyph-name="Lacute" unicode="&#x139;" horiz-adv-x="1069" 
d="M174 1579l221 164q52 35 86 35q41 0 67 -23q25 -22 25 -61q0 -62 -69 -90l-289 -109zM1028 205l-20 -205h-856v1393h245v-1188h631z" />
    <glyph glyph-name="lacute" unicode="&#x13a;" horiz-adv-x="528" 
d="M170 1661l221 164q52 35 86 35q41 0 67 -23q25 -22 25 -61q0 -62 -69 -90l-289 -109zM299 1475h61v-1246q0 -86 66 -86q28 0 66 15v-152q-64 -26 -162 -26q-87 0 -145 44q-56 43 -56 134v1235z" />
    <glyph glyph-name="Lcommaaccent" unicode="&#x13b;" horiz-adv-x="1069" 
d="M1028 205l-20 -205h-856v1393h245v-1188h631zM434 -543l103 224q-44 0 -79 31q-36 32 -36 87q0 49 36 84q37 35 87 35q63 0 96 -43t33 -100q0 -115 -137 -318h-103z" />
    <glyph glyph-name="lcommaaccent" unicode="&#x13c;" horiz-adv-x="528" 
d="M299 1475h61v-1246q0 -86 66 -86q28 0 66 15v-152q-64 -26 -162 -26q-87 0 -145 44q-56 43 -56 134v1235zM205 -543l102 224q-44 0 -79 31t-35 87q0 50 35 84q37 35 87 35q64 0 97 -43q32 -42 32 -100q0 -115 -137 -318h-102z" />
    <glyph glyph-name="Lcaron" unicode="&#x13d;" horiz-adv-x="1069" 
d="M596 950l102 224q-43 0 -78 31q-36 31 -36 87q0 50 36 84q37 35 87 35q63 0 96 -43q33 -44 33 -100q0 -113 -138 -318h-102zM1028 205l-20 -205h-856v1393h245v-1188h631z" />
    <glyph glyph-name="lcaron" unicode="&#x13e;" horiz-adv-x="571" 
d="M440 1032l103 223q-42 0 -79 32q-36 31 -36 87q0 50 36 84q37 35 87 35q63 0 96 -43q33 -44 33 -100q0 -115 -137 -318h-103zM299 1475h61v-1246q0 -86 66 -86q28 0 66 15v-152q-64 -26 -162 -26q-87 0 -145 44q-56 43 -56 134v1235z" />
    <glyph glyph-name="Ldot" unicode="&#x13f;" horiz-adv-x="1069" 
d="M1028 205l-20 -205h-856v1393h245v-1188h631zM584 768q0 48 31 79q32 32 79 32q46 0 80 -32q33 -31 33 -79q0 -50 -33 -80q-34 -31 -80 -31t-79 31q-31 30 -31 80z" />
    <glyph glyph-name="ldot" unicode="&#x140;" horiz-adv-x="698" 
d="M299 1475h61v-1246q0 -86 66 -86q28 0 66 15v-152q-64 -26 -162 -26q-87 0 -145 44q-56 43 -56 134v1235zM475 713q0 47 32 79q31 31 79 31t80 -31t32 -79q0 -51 -32 -80q-34 -31 -80 -31t-79 31q-32 30 -32 80z" />
    <glyph glyph-name="Lslash" unicode="&#x141;" horiz-adv-x="1077" 
d="M1036 205l-20 -205h-858v573l-129 -45v189l129 45v631h245v-543l246 86v-188l-246 -86v-457h633z" />
    <glyph glyph-name="lslash" unicode="&#x142;" horiz-adv-x="555" 
d="M444 143q32 0 66 15v-152q-65 -26 -160 -26q-88 0 -146 44q-57 44 -57 134v403l-112 -86v166l112 88v664l172 82h62v-566l123 95v-168l-123 -95v-512q0 -86 63 -86z" />
    <glyph glyph-name="Nacute" unicode="&#x143;" horiz-adv-x="1314" 
d="M565 1579l221 164q52 35 86 35q41 0 67 -23t26 -61q0 -61 -70 -90l-289 -109zM397 1393l539 -947h10q-12 183 -12 443v504h231v-1393h-245l-539 946h-10q12 -183 12 -442v-504h-231v1393h245z" />
    <glyph glyph-name="nacute" unicode="&#x144;" horiz-adv-x="1095" 
d="M469 1210l221 164q52 35 86 35q41 0 67 -23q25 -22 25 -61q0 -61 -69 -90l-289 -109zM365 887h4l100 100q107 57 213 57q130 0 210 -74q81 -75 81 -218v-752h-232v707q0 153 -137 153q-100 0 -239 -84v-776h-232v1024h221z" />
    <glyph glyph-name="Ncommaaccent" unicode="&#x145;" horiz-adv-x="1314" 
d="M397 1393l539 -947h10q-12 183 -12 443v504h231v-1393h-245l-539 946h-10q12 -183 12 -442v-504h-231v1393h245zM535 -543l102 224q-44 0 -79 31q-36 32 -36 87q0 49 36 84q37 35 87 35q63 0 96 -43t33 -100q0 -115 -137 -318h-102z" />
    <glyph glyph-name="ncommaaccent" unicode="&#x146;" horiz-adv-x="1095" 
d="M365 887h4l100 100q107 57 213 57q130 0 210 -74q81 -75 81 -218v-752h-232v707q0 153 -137 153q-100 0 -239 -84v-776h-232v1024h221zM438 -543l103 224q-44 0 -79 31q-36 32 -36 87q0 49 36 84q37 35 87 35q63 0 96 -43t33 -100q0 -115 -137 -318h-103z" />
    <glyph glyph-name="Ncaron" unicode="&#x147;" horiz-adv-x="1314" 
d="M647 1671l154 174h137l-246 -350h-94l-246 350h137zM397 1393l539 -947h10q-12 183 -12 443v504h231v-1393h-245l-539 946h-10q12 -183 12 -442v-504h-231v1393h245z" />
    <glyph glyph-name="ncaron" unicode="&#x148;" horiz-adv-x="1095" 
d="M551 1303l154 174h137l-246 -351h-94l-246 351h137zM365 887h4l100 100q107 57 213 57q130 0 210 -74q81 -75 81 -218v-752h-232v707q0 153 -137 153q-100 0 -239 -84v-776h-232v1024h221z" />
    <glyph glyph-name="Eng" unicode="&#x14a;" horiz-adv-x="1314" 
d="M1165 1393v-1411q-1 -78 -15 -138q-13 -58 -49 -118t-108 -105t-178 -72l-61 150q117 49 154 112q38 64 38 158v31l-567 946h-10q14 -171 14 -442v-504h-231v1393h245l539 -918h10q-14 168 -14 440v478h233z" />
    <glyph glyph-name="eng" unicode="&#x14b;" horiz-adv-x="1095" 
d="M369 887l100 100q107 57 213 57q130 0 210 -74q81 -75 81 -218v-738q0 -160 -64 -271q-63 -110 -243 -194l-91 138q106 66 135 128q29 61 29 199v693q0 153 -135 153q-104 0 -239 -84v-776h-232v1024h221l11 -137h4z" />
    <glyph glyph-name="Omacron" unicode="&#x14c;" horiz-adv-x="1333" 
d="M369 1530v131h604v-131h-604zM668 -20q-578 0 -578 727q0 343 137 525q136 181 441 181q302 0 438 -181q137 -182 137 -525q0 -727 -575 -727zM668 1219q-178 0 -250 -119q-72 -118 -72 -393q0 -277 73 -406q72 -127 249 -127q175 0 247 127q72 128 72 406q0 275 -72 393
q-72 119 -247 119z" />
    <glyph glyph-name="omacron" unicode="&#x14d;" horiz-adv-x="1099" 
d="M246 1161v131h604v-131h-604zM549 -20q-231 0 -349 139t-118 393t118 393t349 139q233 0 351 -139t118 -393t-118 -393t-351 -139zM549 881q-127 0 -179 -91q-53 -92 -53 -278t53 -278q52 -91 179 -91q129 0 181 91t52 278t-52 278t-181 91z" />
    <glyph glyph-name="Ohungarumlaut" unicode="&#x150;" horiz-adv-x="1333" 
d="M416 1559l225 229q27 29 64 29q36 0 60 -24q23 -23 23 -56q0 -50 -55 -80l-266 -162zM788 1559l226 229q29 29 63 29q37 0 61 -24q23 -23 23 -54q0 -52 -55 -82l-266 -162zM668 -20q-578 0 -578 727q0 343 137 525q136 181 441 181q302 0 438 -181q137 -182 137 -525
q0 -727 -575 -727zM668 1219q-178 0 -250 -119q-72 -118 -72 -393q0 -277 73 -406q72 -127 249 -127q175 0 247 127q72 128 72 406q0 275 -72 393q-72 119 -247 119z" />
    <glyph glyph-name="ohungarumlaut" unicode="&#x151;" horiz-adv-x="1099" 
d="M293 1190l225 229q27 29 64 29q36 0 60 -24t24 -56q0 -50 -56 -80l-266 -162zM666 1190l225 229q29 29 63 29q37 0 61 -24q23 -23 23 -54q0 -52 -55 -82l-266 -162zM549 -20q-231 0 -349 139t-118 393t118 393t349 139q233 0 351 -139t118 -393t-118 -393t-351 -139z
M549 881q-127 0 -179 -91q-53 -92 -53 -278t53 -278q52 -91 179 -91q129 0 181 91t52 278t-52 278t-181 91z" />
    <glyph glyph-name="OE" unicode="&#x152;" horiz-adv-x="1964" 
d="M1886 205l-20 -205h-850v98q-124 -118 -348 -118q-578 0 -578 727q0 343 137 525q136 181 441 181q223 0 348 -113v93h854v-205h-637v-373h547v-205h-547v-405h653zM668 174q175 0 247 127q72 128 72 406q0 275 -72 393q-72 119 -247 119q-178 0 -250 -119
q-72 -118 -72 -393q0 -277 73 -406q72 -127 249 -127z" />
    <glyph glyph-name="oe" unicode="&#x153;" horiz-adv-x="1751" 
d="M1628 240v-179q-143 -81 -366 -81q-238 0 -361 157q-111 -157 -350 -157q-233 0 -351 139t-118 393t118 393t351 139q234 0 348 -153q121 153 361 153q65 0 119 -10q58 -11 112 -37q55 -27 94 -67q40 -42 64 -110q24 -69 24 -156q0 -86 -24 -203h-641q12 -155 92 -232
q78 -75 207 -75q76 0 167 25q89 24 154 61zM551 143q127 0 179 91t52 278t-52 278t-179 91q-129 0 -181 -91q-53 -92 -53 -278t53 -278q52 -91 181 -91zM1008 582l436 12q8 42 8 80q0 66 -19 110q-20 45 -53 65q-32 19 -58 25q-30 7 -54 7q-237 0 -260 -299z" />
    <glyph glyph-name="Racute" unicode="&#x154;" horiz-adv-x="1232" 
d="M569 1495l-41 84l222 164q52 35 86 35q40 0 66 -23t26 -61q0 -61 -70 -90zM1161 47v-47h-252l-151 385q-15 38 -26 59q-9 19 -35 52q-25 32 -65 47q-38 14 -95 14h-140v-557h-245v1393h471q257 0 379 -110t122 -302q0 -297 -258 -387v-10q63 -23 100 -72q36 -47 74 -145z
M397 762h226q134 0 190 53q55 52 55 166q0 111 -54 159t-191 48h-226v-426z" />
    <glyph glyph-name="racute" unicode="&#x155;" horiz-adv-x="770" 
d="M346 1210l221 164q52 35 86 35q41 0 67 -23q25 -22 25 -61q0 -61 -69 -90l-289 -109zM365 846h4l100 145q68 53 168 53q57 0 115 -16l-76 -207q-49 13 -92 13q-118 0 -219 -111v-723h-232v1024h221z" />
    <glyph glyph-name="Rcommaaccent" unicode="&#x156;" horiz-adv-x="1232" 
d="M1161 47v-47h-252l-151 385q-15 38 -26 59q-9 19 -35 52q-25 32 -65 47q-38 14 -95 14h-140v-557h-245v1393h471q257 0 379 -110t122 -302q0 -297 -258 -387v-10q63 -23 100 -72q36 -47 74 -145zM397 762h226q134 0 190 53q55 52 55 166q0 111 -54 159t-191 48h-226v-426
zM623 -82q63 0 96 -43t33 -100q0 -113 -138 -318h-102l102 224q-43 0 -78 31q-36 32 -36 87q0 49 36 84q37 35 87 35z" />
    <glyph glyph-name="rcommaaccent" unicode="&#x157;" horiz-adv-x="770" 
d="M365 846h4l100 145q68 53 168 53q57 0 115 -16l-76 -207q-49 13 -92 13q-118 0 -219 -111v-723h-232v1024h221zM137 -543l103 224q-44 0 -79 31q-36 32 -36 87q0 49 36 84q37 35 87 35q63 0 96 -43t33 -100q0 -115 -137 -318h-103z" />
    <glyph glyph-name="Rcaron" unicode="&#x158;" horiz-adv-x="1232" 
d="M561 1495l-246 350h138l157 -174l154 174h137l-246 -350h-94zM1161 47v-47h-252l-151 385q-15 38 -26 59q-9 19 -35 52q-25 32 -65 47q-38 14 -95 14h-140v-557h-245v1393h471q257 0 379 -110t122 -302q0 -297 -258 -387v-10q63 -23 100 -72q36 -47 74 -145zM397 762h226
q134 0 190 53q55 52 55 166q0 111 -54 159t-191 48h-226v-426z" />
    <glyph glyph-name="rcaron" unicode="&#x159;" horiz-adv-x="770" 
d="M428 1303l154 174h137l-246 -351h-94l-246 351h137zM365 846h4l100 145q68 53 168 53q57 0 115 -16l-76 -207q-49 13 -92 13q-118 0 -219 -111v-723h-232v1024h221z" />
    <glyph glyph-name="Sacute" unicode="&#x15a;" horiz-adv-x="1075" 
d="M459 1579l221 164q52 35 86 35q41 0 67 -23q25 -22 25 -61q0 -61 -70 -90l-288 -109zM100 1038q0 177 125 276q124 99 314 99q218 0 417 -92v-215q-199 113 -401 113q-102 0 -151 -44q-48 -43 -48 -110q0 -69 66 -125q64 -54 160 -98q89 -41 188 -96q95 -53 160 -146
t65 -223q0 -178 -134 -288q-133 -109 -341 -109q-227 0 -430 96v215q237 -117 422 -117q115 0 171 49t56 131q0 81 -65 140q-63 57 -160 102q-102 47 -188 92q-94 49 -160 138q-66 88 -66 212z" />
    <glyph glyph-name="sacute" unicode="&#x15b;" horiz-adv-x="894" 
d="M381 1210l221 164q52 35 86 35q41 0 67 -23q25 -22 25 -61q0 -61 -69 -90l-289 -109zM475 874q-78 0 -114 -29q-37 -30 -37 -77q0 -49 52 -86q53 -38 127 -66q72 -28 148 -63q74 -35 126 -100t52 -158q0 -145 -103 -230t-271 -85q-192 0 -349 71l-24 189q178 -90 352 -90
q83 0 121 35q39 36 39 85q0 50 -51 88q-49 36 -125 67q-91 37 -149 65q-74 35 -126 106q-51 69 -51 166q0 138 108 210t267 72q166 0 321 -59l-40 -147l-27 -23q-125 59 -246 59z" />
    <glyph glyph-name="Scedilla" unicode="&#x15e;" horiz-adv-x="1075" 
d="M995 377q0 -164 -115 -272q-114 -106 -300 -123v-45q87 0 140 -43q54 -44 54 -121q0 -83 -53 -133t-141 -50q-95 0 -156 29v82q61 -23 104 -23q111 0 111 95q0 94 -154 94v113q-210 10 -395 96v215q237 -117 422 -117q115 0 171 49t56 131q0 81 -65 140q-63 57 -160 102
q-102 47 -188 92q-94 49 -160 138q-66 88 -66 212q0 177 125 276q124 99 314 99q218 0 417 -92v-215q-199 113 -401 113q-102 0 -151 -44q-48 -43 -48 -110q0 -69 66 -125q64 -54 160 -98q89 -41 188 -96q95 -53 160 -146t65 -223z" />
    <glyph glyph-name="scedilla" unicode="&#x15f;" horiz-adv-x="894" 
d="M829 295q0 -135 -92 -219q-91 -83 -243 -94v-45q85 0 140 -44q54 -43 54 -120q0 -83 -53 -133t-141 -50q-95 0 -156 29v82q61 -23 104 -23q111 0 111 95q0 94 -154 94v115q-163 11 -293 69l-24 189q180 -91 352 -91q82 0 121 36t39 85q0 50 -51 88q-49 36 -125 67
q-91 37 -149 65q-74 35 -126 106q-51 69 -51 166q0 138 108 210t267 72q166 0 321 -59l-40 -147l-27 -23q-125 59 -246 59q-78 0 -114 -29q-37 -30 -37 -77q0 -49 52 -86q53 -38 127 -66q72 -28 148 -63q74 -35 126 -100t52 -158z" />
    <glyph glyph-name="Scaron" unicode="&#x160;" horiz-adv-x="1075" 
d="M541 1671l153 174h137l-245 -350h-94l-246 350h137zM100 1038q0 177 125 276q124 99 314 99q218 0 417 -92v-215q-199 113 -401 113q-102 0 -151 -44q-48 -43 -48 -110q0 -69 66 -125q64 -54 160 -98q89 -41 188 -96q95 -53 160 -146t65 -223q0 -178 -134 -288
q-133 -109 -341 -109q-227 0 -430 96v215q237 -117 422 -117q115 0 171 49t56 131q0 81 -65 140q-63 57 -160 102q-102 47 -188 92q-94 49 -160 138q-66 88 -66 212z" />
    <glyph glyph-name="scaron" unicode="&#x161;" horiz-adv-x="894" 
d="M465 1303l153 174h138l-246 -351h-94l-246 351h137zM475 874q-78 0 -114 -29q-37 -30 -37 -77q0 -49 52 -86q53 -38 127 -66q72 -28 148 -63q74 -35 126 -100t52 -158q0 -145 -103 -230t-271 -85q-192 0 -349 71l-24 189q178 -90 352 -90q83 0 121 35q39 36 39 85
q0 50 -51 88q-49 36 -125 67q-91 37 -149 65q-74 35 -126 106q-51 69 -51 166q0 138 108 210t267 72q166 0 321 -59l-40 -147l-27 -23q-125 59 -246 59z" />
    <glyph glyph-name="Tcedilla" unicode="&#x162;" horiz-adv-x="1069" 
d="M580 0v-63q87 0 140 -43q54 -44 54 -121q0 -83 -53 -133t-141 -50q-95 0 -156 29v82q61 -23 104 -23q111 0 111 95q0 94 -154 94v133h-73v1188h-355v205h957v-205h-357v-1188h-77z" />
    <glyph glyph-name="tcedilla" unicode="&#x163;" horiz-adv-x="684" 
d="M465 -20v-43q87 0 140 -43q54 -44 54 -121q0 -83 -53 -133t-141 -50q-95 0 -156 29v82q61 -23 105 -23q110 0 110 95q0 94 -153 94v117q-108 12 -157 70q-50 59 -50 179v627h-113v88l113 76l164 219h67v-219h230v-164h-230v-596q0 -58 27 -82t86 -24q70 0 123 26v-170
q-61 -26 -166 -34z" />
    <glyph glyph-name="Tcaron" unicode="&#x164;" horiz-adv-x="1069" 
d="M537 1671l153 174h137l-245 -350h-95l-245 350h137zM412 0v1188h-355v205h957v-205h-357v-1188h-245z" />
    <glyph glyph-name="tcaron" unicode="&#x165;" horiz-adv-x="684" 
d="M440 1092l103 223q-42 0 -79 32q-36 31 -36 87q0 50 36 84q35 34 87 34q63 0 96 -43t33 -100q0 -114 -137 -317h-103zM51 860v88l113 76l164 219h67v-219h230v-164h-230v-596q0 -58 27 -82t86 -24q70 0 123 26v-170q-81 -34 -189 -34q-144 0 -211 57t-67 196v627h-113z
" />
    <glyph glyph-name="Tbar" unicode="&#x166;" horiz-adv-x="1087" 
d="M668 1188v-420h235v-184h-235v-584h-246v584h-236v184h236v420h-356v205h956v-205h-354z" />
    <glyph glyph-name="tbar" unicode="&#x167;" horiz-adv-x="696" 
d="M514 158q67 0 125 26v-170q-81 -34 -190 -34q-143 0 -211 57t-68 196v224h-113v131h113v272h-113v88l113 76l164 219h69v-219h228v-164h-228v-272h228v-131h-228v-193q0 -58 26 -82q25 -24 85 -24z" />
    <glyph glyph-name="Umacron" unicode="&#x16a;" horiz-adv-x="1298" 
d="M334 1530v131h604v-131h-604zM647 -20q-236 0 -371 119q-137 120 -137 376v918h246v-918q0 -127 60 -211t202 -84q144 0 204 85t60 210v918h246v-918q0 -256 -137 -376q-135 -119 -373 -119z" />
    <glyph glyph-name="umacron" unicode="&#x16b;" horiz-adv-x="1097" 
d="M244 1161v131h604v-131h-604zM733 137h-4l-100 -100q-107 -57 -213 -57q-130 0 -210 74q-81 75 -81 218v752h231v-707q0 -153 138 -153q100 0 239 84v776h232v-1024h-222z" />
    <glyph glyph-name="Uring" unicode="&#x16e;" horiz-adv-x="1298" 
d="M459 1642q0 76 47 121q46 45 127 45t127 -45q47 -45 47 -121t-47 -120q-46 -43 -127 -43q-79 0 -126 43q-48 44 -48 120zM543 1642q0 -42 23 -65q25 -25 67 -25q41 0 66 25q24 24 24 65q0 93 -90 93t-90 -93zM647 -20q-236 0 -371 119q-137 120 -137 376v918h246v-918
q0 -127 60 -211t202 -84q144 0 204 85t60 210v918h246v-918q0 -256 -137 -376q-135 -119 -373 -119z" />
    <glyph glyph-name="uring" unicode="&#x16f;" horiz-adv-x="1097" 
d="M371 1274q0 76 47 121q46 45 127 45t127 -45q47 -45 47 -121q0 -77 -47 -121q-46 -43 -127 -43q-79 0 -126 43q-48 43 -48 121zM455 1274q0 -43 23 -66q24 -24 67 -24q42 0 66 24t24 66q0 92 -90 92t-90 -92zM733 137h-4l-100 -100q-107 -57 -213 -57q-130 0 -210 74
q-81 75 -81 218v752h231v-707q0 -153 138 -153q100 0 239 84v776h232v-1024h-222z" />
    <glyph glyph-name="Uhungarumlaut" unicode="&#x170;" horiz-adv-x="1298" 
d="M379 1559l225 229q27 29 64 29q36 0 60 -24t24 -56q0 -50 -56 -80l-266 -162zM752 1559l225 229q29 29 63 29q37 0 61 -24q23 -23 23 -54q0 -52 -55 -82l-266 -162zM647 -20q-236 0 -371 119q-137 120 -137 376v918h246v-918q0 -127 60 -211t202 -84q144 0 204 85t60 210
v918h246v-918q0 -256 -137 -376q-135 -119 -373 -119z" />
    <glyph glyph-name="uhungarumlaut" unicode="&#x171;" horiz-adv-x="1097" 
d="M291 1190l225 229q27 29 64 29q36 0 60 -24t24 -56q0 -50 -56 -80l-266 -162zM664 1190l225 229q29 29 63 29q37 0 61 -24q23 -23 23 -54q0 -52 -55 -82l-266 -162zM733 137h-4l-100 -100q-107 -57 -213 -57q-130 0 -210 74q-81 75 -81 218v752h231v-707q0 -153 138 -153
q100 0 239 84v776h232v-1024h-222z" />
    <glyph glyph-name="Uogonek" unicode="&#x172;" horiz-adv-x="1298" 
d="M1157 1393v-918q0 -241 -123 -361t-336 -132q-73 -85 -73 -177q0 -51 27 -81q28 -31 79 -31q47 0 86 20v-76q-62 -47 -151 -47q-84 0 -134 45q-49 45 -49 115q0 131 135 230q-220 7 -350 128q-129 120 -129 367v918h246v-918q0 -127 60 -211t202 -84q144 0 204 85t60 210
v918h246z" />
    <glyph glyph-name="uogonek" unicode="&#x173;" horiz-adv-x="1097" 
d="M915 -307q47 0 86 20v-75q-63 -48 -151 -48q-84 0 -133 45t-49 115q0 144 163 250h-88l-10 137h-4l-100 -100q-107 -57 -213 -57q-130 0 -210 74q-81 75 -81 218v752h231v-707q0 -153 138 -153q100 0 239 84v776h232v-1024h-64q-92 -90 -92 -195q0 -50 28 -81t78 -31z
" />
    <glyph glyph-name="Wcircumflex" unicode="&#x174;" horiz-adv-x="1816" 
d="M770 1495h-137l246 350h94l246 -350h-138l-153 174zM1761 1393v-47l-342 -1356h-319l-191 852l-194 -852h-318l-340 1356v47h240l203 -848q34 -145 61 -297h2q10 58 36 169q27 117 30 128l176 848h229l174 -848q31 -147 58 -297h2q24 134 63 297l205 848h225z" />
    <glyph glyph-name="wcircumflex" unicode="&#x175;" horiz-adv-x="1574" 
d="M641 1126h-137l246 351h94l246 -351h-138l-153 174zM1528 1024v-47l-299 -987h-297l-141 690l-177 -690h-297l-249 987v47h225l186 -788h4l195 788h244l163 -788h5l217 788h221z" />
    <glyph glyph-name="Ycircumflex" unicode="&#x176;" horiz-adv-x="1161" 
d="M434 1495h-137l246 350h94l246 -350h-138l-153 174zM1124 1346l-422 -879v-467h-245v463l-418 883v47h246l204 -445q61 -136 97 -235h4q43 126 94 237l205 443h235v-47z" />
    <glyph glyph-name="ycircumflex" unicode="&#x177;" horiz-adv-x="1015" 
d="M213 1126l246 351h94l246 -351h-137l-154 174l-158 -174h-137zM49 977v47h225l238 -795h4l225 795h224v-47l-238 -735q-57 -178 -131 -324q-78 -155 -116 -211q-43 -64 -113 -158h-240v48q170 195 254 362z" />
    <glyph glyph-name="Ydieresis" unicode="&#x178;" horiz-adv-x="1161" 
d="M397 1542q-50 0 -86 31q-35 30 -35 84q0 50 35 80q34 30 86 30q51 0 85 -30t34 -80q0 -54 -34 -84q-36 -31 -85 -31zM780 1542q-49 0 -85 31q-33 29 -33 84q0 51 33 80q35 30 85 30t85 -30q34 -30 34 -80q0 -54 -34 -84q-36 -31 -85 -31zM1124 1346l-422 -879v-467h-245
v463l-418 883v47h246l204 -445q61 -136 97 -235h4q43 126 94 237l205 443h235v-47z" />
    <glyph glyph-name="Zacute" unicode="&#x179;" horiz-adv-x="1056" 
d="M446 1579l222 164q52 35 86 35q40 0 66 -23t26 -61q0 -61 -70 -90l-289 -109zM995 205l-20 -205h-912v178l615 1010h-578v205h861v-179l-611 -1009h645z" />
    <glyph glyph-name="zacute" unicode="&#x17a;" horiz-adv-x="929" 
d="M385 1210l221 164q52 35 86 35q41 0 67 -23q25 -22 25 -61q0 -61 -69 -90l-289 -109zM346 164h520l-35 -164h-757v143l501 717h-501l51 164h721v-143z" />
    <glyph glyph-name="Zdotaccent" unicode="&#x17b;" horiz-adv-x="1056" 
d="M397 1669q0 49 36 84q37 35 93 35q57 0 94 -35q35 -34 35 -84q0 -51 -35 -85t-94 -34q-58 0 -93 34q-36 34 -36 85zM995 205l-20 -205h-912v178l615 1010h-578v205h861v-179l-611 -1009h645z" />
    <glyph glyph-name="zdotaccent" unicode="&#x17c;" horiz-adv-x="929" 
d="M336 1300q0 50 36 84q37 35 93 35t93 -35q36 -34 36 -84t-36 -85q-34 -33 -93 -33t-93 33q-36 35 -36 85zM346 164h520l-35 -164h-757v143l501 717h-501l51 164h721v-143z" />
    <glyph glyph-name="Zcaron" unicode="&#x17d;" horiz-adv-x="1056" 
d="M528 1671l154 174h137l-246 -350h-94l-246 350h138zM995 205l-20 -205h-912v178l615 1010h-578v205h861v-179l-611 -1009h645z" />
    <glyph glyph-name="zcaron" unicode="&#x17e;" horiz-adv-x="929" 
d="M467 1303l154 174h137l-246 -351h-94l-246 351h137zM346 164h520l-35 -164h-757v143l501 717h-501l51 164h721v-143z" />
    <glyph glyph-name="florin" unicode="&#x192;" horiz-adv-x="978" 
d="M379 842l35 248q18 128 61 210t118 124t159 57q78 14 211 14l-27 -182l-29 -15q-63 19 -110 19q-136 0 -154 -158l-45 -317h281l-23 -148h-278l-95 -657q-18 -130 -61 -211q-43 -82 -118 -124q-72 -41 -159 -56q-84 -15 -211 -15l27 183l29 14q57 -18 110 -18
q136 0 154 157l104 727h-282l22 148h281z" />
    <glyph glyph-name="Scommaaccent" unicode="&#x218;" horiz-adv-x="1075" 
d="M100 1038q0 177 125 276q124 99 314 99q218 0 417 -92v-215q-199 113 -401 113q-102 0 -151 -44q-48 -43 -48 -110q0 -69 66 -125q64 -54 160 -98q89 -41 188 -96q95 -53 160 -146t65 -223q0 -178 -134 -288q-133 -109 -341 -109q-227 0 -430 96v215q237 -117 422 -117
q115 0 171 49t56 131q0 81 -65 140q-63 57 -160 102q-102 47 -188 92q-94 49 -160 138q-66 88 -66 212zM422 -543l102 224q-44 0 -79 31t-35 87q0 50 35 84q37 35 87 35q64 0 97 -43t33 -100q0 -113 -138 -318h-102z" />
    <glyph glyph-name="scommaaccent" unicode="&#x219;" horiz-adv-x="894" 
d="M475 874q-78 0 -114 -29q-37 -30 -37 -77q0 -49 52 -86q53 -38 127 -66q72 -28 148 -63q74 -35 126 -100t52 -158q0 -145 -103 -230t-271 -85q-192 0 -349 71l-24 189q178 -90 352 -90q83 0 121 35q39 36 39 85q0 50 -51 88q-49 36 -125 67q-91 37 -149 65
q-74 35 -126 106q-51 69 -51 166q0 138 108 210t267 72q166 0 321 -59l-40 -147l-27 -23q-125 59 -246 59zM336 -543l102 224q-44 0 -79 31t-35 87q0 50 35 84q37 35 87 35q64 0 97 -43q32 -42 32 -100q0 -115 -137 -318h-102z" />
    <glyph glyph-name="uni021A" unicode="&#x21a;" horiz-adv-x="1069" 
d="M412 0v1188h-355v205h957v-205h-357v-1188h-245zM422 -543l102 224q-44 0 -79 31t-35 87q0 50 35 84q37 35 87 35q64 0 97 -43t33 -100q0 -113 -138 -318h-102z" />
    <glyph glyph-name="uni021B" unicode="&#x21b;" horiz-adv-x="684" 
d="M51 860v88l113 76l164 219h67v-219h230v-164h-230v-596q0 -58 27 -82t86 -24q70 0 123 26v-170q-81 -34 -189 -34q-144 0 -211 57t-67 196v627h-113zM307 -543l103 224q-44 0 -79 31q-36 32 -36 87q0 49 36 84q37 35 87 35q63 0 96 -43t33 -100q0 -115 -137 -318h-103z
" />
    <glyph glyph-name="dotlessj" unicode="&#x237;" horiz-adv-x="497" 
d="M365 1024v-1010q0 -160 -64 -271q-63 -110 -242 -194l-90 138q104 66 134 128q30 63 30 199v1010h232z" />
    <glyph glyph-name="circumflex" unicode="&#x2c6;" horiz-adv-x="907" 
d="M160 1126l246 351h94l245 -351h-137l-153 174l-158 -174h-137z" />
    <glyph glyph-name="ring" unicode="&#x2da;" horiz-adv-x="722" 
d="M186 1274q0 76 47 121t127 45t127 -45q48 -46 48 -121q0 -76 -48 -121q-46 -43 -127 -43q-79 0 -126 43q-48 43 -48 121zM270 1274q0 -42 24 -66t66 -24q43 0 67 24t24 66q0 92 -91 92q-90 0 -90 -92z" />
    <glyph glyph-name="tilde" unicode="&#x2dc;" horiz-adv-x="1038" 
d="M301 1126h-121q7 122 64 198q56 75 139 75q57 0 153 -47t126 -47q60 0 81 81h115q-16 -256 -174 -256q-54 0 -164 48q-108 47 -135 47q-39 0 -57 -24q-20 -26 -27 -75z" />
    <glyph glyph-name="Wgrave" unicode="&#x1e80;" horiz-adv-x="1816" 
d="M958 1495l-286 109q-70 29 -70 90q0 38 26 61t66 23q37 0 84 -35l223 -164zM1761 1393v-47l-342 -1356h-319l-191 852l-194 -852h-318l-340 1356v47h240l203 -848q34 -145 61 -297h2q10 58 36 169q27 117 30 128l176 848h229l174 -848q31 -147 58 -297h2q24 134 63 297
l205 848h225z" />
    <glyph glyph-name="wgrave" unicode="&#x1e81;" horiz-adv-x="1574" 
d="M831 1126l-286 109q-70 29 -70 90q0 38 26 61t66 23q37 0 84 -35l223 -164zM1528 1024v-47l-299 -987h-297l-141 690l-177 -690h-297l-249 987v47h225l186 -788h4l195 788h244l163 -788h5l217 788h221z" />
    <glyph glyph-name="Wacute" unicode="&#x1e82;" horiz-adv-x="1816" 
d="M885 1495l-41 84l221 164q52 35 86 35q41 0 67 -23q25 -22 25 -61q0 -62 -69 -90zM1761 1393v-47l-342 -1356h-319l-191 852l-194 -852h-318l-340 1356v47h240l203 -848q34 -145 61 -297h2q10 58 36 169q27 117 30 128l176 848h229l174 -848q31 -147 58 -297h2
q24 134 63 297l205 848h225z" />
    <glyph glyph-name="wacute" unicode="&#x1e83;" horiz-adv-x="1574" 
d="M758 1126l-41 84l221 164q52 35 86 35q41 0 67 -23q25 -22 25 -61q0 -61 -69 -90zM1528 1024v-47l-299 -987h-297l-141 690l-177 -690h-297l-249 987v47h225l186 -788h4l195 788h244l163 -788h5l217 788h221z" />
    <glyph glyph-name="Wdieresis" unicode="&#x1e84;" horiz-adv-x="1816" 
d="M733 1542q-50 0 -86 31q-35 30 -35 84q0 50 35 80t86 30q50 0 85 -30q34 -30 34 -80q0 -54 -34 -84q-36 -31 -85 -31zM1116 1542q-49 0 -85 31q-34 30 -34 84q0 50 34 80q35 30 85 30t85 -30q34 -30 34 -80q0 -54 -34 -84q-36 -31 -85 -31zM1761 1393v-47l-342 -1356
h-319l-191 852l-194 -852h-318l-340 1356v47h240l203 -848q34 -145 61 -297h2q10 58 36 169q27 117 30 128l176 848h229l174 -848q31 -147 58 -297h2q24 134 63 297l205 848h225z" />
    <glyph glyph-name="wdieresis" unicode="&#x1e85;" horiz-adv-x="1574" 
d="M606 1174q-52 0 -86 30q-35 30 -35 84q0 50 35 80q36 31 86 31q49 0 85 -31q34 -30 34 -80q0 -54 -34 -84q-35 -30 -85 -30zM989 1174q-51 0 -85 30t-34 84q0 50 34 80q36 31 85 31t85 -31q34 -30 34 -80q0 -54 -34 -84t-85 -30zM1528 1024v-47l-299 -987h-297l-141 690
l-177 -690h-297l-249 987v47h225l186 -788h4l195 788h244l163 -788h5l217 788h221z" />
    <glyph glyph-name="Ygrave" unicode="&#x1ef2;" horiz-adv-x="1161" 
d="M623 1495l-287 109q-70 29 -70 90q0 38 26 61t66 23q37 0 84 -35l224 -164zM1124 1346l-422 -879v-467h-245v463l-418 883v47h246l204 -445q61 -136 97 -235h4q43 126 94 237l205 443h235v-47z" />
    <glyph glyph-name="ygrave" unicode="&#x1ef3;" horiz-adv-x="1015" 
d="M539 1126l-287 109q-70 29 -70 90q0 38 26 61t66 23q37 0 84 -35l224 -164zM49 977v47h225l238 -795h4l225 795h224v-47l-238 -735q-57 -178 -131 -324q-78 -155 -116 -211q-43 -64 -113 -158h-240v48q170 195 254 362z" />
    <glyph glyph-name="figuredash" unicode="&#x2012;" horiz-adv-x="1112" 
d="M123 496v147h866v-147h-866z" />
    <glyph glyph-name="endash" unicode="&#x2013;" horiz-adv-x="1329" 
d="M123 496v147h1083v-147h-1083z" />
    <glyph glyph-name="emdash" unicode="&#x2014;" horiz-adv-x="1738" 
d="M123 496v147h1493v-147h-1493z" />
    <glyph glyph-name="quoteleft" unicode="&#x2018;" horiz-adv-x="446" 
d="M334 1391l-103 -224q42 0 77 -31q36 -32 36 -87q0 -49 -35 -84t-86 -35q-63 0 -96 43t-33 100q0 115 137 318h103z" />
    <glyph glyph-name="quoteright" unicode="&#x2019;" horiz-adv-x="446" 
d="M121 950l102 224q-44 0 -79 31t-35 87q0 50 35 84q37 35 87 35q64 0 97 -43q32 -42 32 -100q0 -115 -137 -318h-102z" />
    <glyph glyph-name="quotesinglbase" unicode="&#x201a;" horiz-adv-x="468" 
d="M121 -244l100 224q-42 0 -77 31t-35 87q0 50 34 84q35 35 88 35q62 0 96 -43q33 -42 33 -100q0 -115 -137 -318h-102z" />
    <glyph glyph-name="quotedblleft" unicode="&#x201c;" horiz-adv-x="829" 
d="M334 1391l-103 -224q42 0 77 -31q36 -32 36 -87q0 -49 -35 -84t-86 -35q-63 0 -96 43t-33 100q0 115 137 318h103zM715 1391l-101 -224q42 0 77 -31q36 -32 36 -87q0 -49 -35 -84t-88 -35q-61 0 -95 43t-34 100q0 115 137 318h103z" />
    <glyph glyph-name="quotedblright" unicode="&#x201d;" horiz-adv-x="829" 
d="M121 950l102 224q-44 0 -79 31t-35 87q0 50 35 84q37 35 87 35q64 0 97 -43q32 -42 32 -100q0 -115 -137 -318h-102zM504 950l100 224q-42 0 -77 31t-35 87q0 50 34 84q35 35 88 35q62 0 96 -43q33 -42 33 -100q0 -115 -137 -318h-102z" />
    <glyph glyph-name="quotedblbase" unicode="&#x201e;" horiz-adv-x="849" 
d="M121 -244l100 224q-42 0 -77 31t-35 87q0 50 34 84q35 35 88 35q62 0 96 -43q33 -42 33 -100q0 -115 -137 -318h-102zM502 -244l102 224q-42 0 -77 31t-35 87q0 50 34 84q35 35 86 35q64 0 97 -43q32 -42 32 -100q0 -115 -137 -318h-102z" />
    <glyph glyph-name="dagger" unicode="&#x2020;" horiz-adv-x="1136" 
d="M625 795l57 -795h-221l59 795l-446 -58v232l442 -51l-55 475h221l-53 -475l434 51v-232z" />
    <glyph glyph-name="daggerdbl" unicode="&#x2021;" horiz-adv-x="1189" 
d="M651 999l58 -262l-58 -262l439 57v-231l-435 51l54 -475h-222l56 475l-443 -51v231l447 -57l-60 262l60 262l-447 -57v232l443 -52l-56 475h222l-54 -475l435 52v-232z" />
    <glyph glyph-name="bullet" unicode="&#x2022;" horiz-adv-x="698" 
d="M152 475q0 90 57 147q56 56 139 56t140 -56q59 -57 59 -147q0 -89 -59 -145t-140 -56t-139 56q-57 56 -57 145z" />
    <glyph glyph-name="onedotenleader" unicode="&#x2024;" horiz-adv-x="440" 
d="M106 98q0 47 35 82t80 35q44 0 79 -35q34 -34 34 -82q0 -50 -33 -84t-80 -34t-81 34t-34 84z" />
    <glyph glyph-name="ellipsis" unicode="&#x2026;" 
d="M106 98q0 47 35 82t80 35q44 0 79 -35q34 -34 34 -82q0 -50 -33 -84t-80 -34t-81 34t-34 84zM494 98q0 49 33 82q35 35 79 35t79 -35q34 -34 34 -82q0 -50 -33 -84t-80 -34t-80 34q-32 33 -32 84zM879 98q0 49 33 82q35 35 79 35q46 0 81 -35q34 -34 34 -82
q0 -50 -34 -84t-81 -34t-80 34q-32 33 -32 84z" />
    <glyph glyph-name="perthousand" unicode="&#x2030;" horiz-adv-x="2152" 
d="M338 649q-145 0 -206 100q-60 99 -60 283q0 182 60 277q60 94 206 94t206 -94q60 -95 60 -277q0 -185 -61 -283q-62 -100 -205 -100zM1090 1393h192l-467 -666l-88 41zM338 1307q-80 0 -110 -64q-29 -61 -29 -211q0 -149 30 -218t109 -69q78 0 108 69q31 71 31 218
q0 148 -30 211q-30 64 -109 64zM1151 -10q-146 0 -206 99t-60 284q0 181 60 276q60 94 206 94q145 0 205 -94q59 -93 59 -276q0 -185 -60 -284t-204 -99zM1819 -10q-144 0 -204 99q-61 101 -61 284q0 181 60 276q60 94 205 94t205 -94q61 -96 61 -276q0 -184 -62 -284
q-61 -99 -204 -99zM387 0h-190l477 686l88 -41zM1151 647q-80 0 -110 -63q-29 -61 -29 -211q0 -149 30 -218t109 -69t109 69t30 218q0 150 -29 211q-30 63 -110 63zM1819 647q-80 0 -110 -63t-30 -211q0 -147 31 -218q30 -69 109 -69q78 0 108 69q31 71 31 218
q0 148 -30 211t-109 63z" />
    <glyph glyph-name="guilsinglleft" unicode="&#x2039;" horiz-adv-x="667" 
d="M573 260l-108 -106l-375 354v90l375 354l108 -106l-278 -293z" />
    <glyph glyph-name="guilsinglright" unicode="&#x203a;" horiz-adv-x="667" 
d="M94 846l109 106l375 -354v-90l-375 -354l-109 106l279 293z" />
    <glyph glyph-name="exclamdbl" unicode="&#x203c;" horiz-adv-x="913" 
d="M127 1393h260l-61 -1039h-138zM524 1393h258l-61 -1039h-135zM147 98q0 48 34 82q35 35 81 35q44 0 79 -35q34 -34 34 -82q0 -50 -33 -84t-80 -34t-81 34t-34 84zM545 98q0 48 33 82q33 35 79 35t81 -35q34 -34 34 -82q0 -50 -34 -84t-81 -34q-46 0 -79 34t-33 84z" />
    <glyph glyph-name="fraction" unicode="&#x2044;" horiz-adv-x="354" 
d="M522 1393h191l-459 -666l-88 41zM-168 0h-190l471 686l88 -41z" />
    <glyph glyph-name="colonsign" unicode="&#x20a1;" horiz-adv-x="1208" 
d="M686 174q229 0 430 123l-20 -221q-201 -96 -410 -96q-592 0 -592 716q0 717 592 717q209 0 410 -96v-211q-65 36 -135 61l-435 -958q67 -35 160 -35zM702 1219h-16q-131 0 -208 -71q-76 -70 -102 -179q-26 -110 -26 -273q0 -128 17 -219zM451 270l419 926q-28 8 -67 14
l-395 -872q17 -37 43 -68z" />
    <glyph glyph-name="uni20A8" unicode="&#x20a8;" horiz-adv-x="1085" 
d="M997 1235h-188q60 -78 72 -186h116v-156h-118q-37 -225 -252 -297v-12q61 -22 99 -72t75 -145l123 -320v-47h-254l-150 385q-19 46 -26 59q-10 21 -35 53q-23 31 -65 46q-38 14 -95 14h-195v205h279q202 0 235 131h-514v156h519q-15 73 -70 106t-170 33h-279v205h893
v-158z" />
    <glyph glyph-name="Euro" unicode="&#x20ac;" horiz-adv-x="1337" 
d="M809 174q229 0 430 123l-20 -221q-201 -96 -410 -96q-494 0 -573 499h-154v148h139l-2 69q0 48 2 84h-139v148h156q84 485 571 485q209 0 410 -96v-211q-208 113 -410 113q-263 0 -315 -291h407v-148h-424q-2 -36 -2 -84l2 -69h424v-148h-412q27 -149 102 -227t218 -78z
" />
    <glyph glyph-name="uni2113" unicode="&#x2113;" horiz-adv-x="782" 
d="M209 545v497q0 208 70 310q78 102 180 102q79 0 125 -55q47 -56 47 -148q0 -104 -58 -229q-56 -132 -229 -360v-345q0 -149 41 -217q38 -59 109 -59q62 0 114 59q53 56 94 211h33q-38 -171 -121 -260q-65 -71 -159 -71q-76 0 -138 50q-61 49 -90 134q-18 78 -18 219v106
l-148 -170l-22 23zM344 1112v-395q240 318 240 495q0 85 -34 134t-85 49q-50 0 -88 -58q-33 -61 -33 -225z" />
    <glyph glyph-name="trademark" unicode="&#x2122;" horiz-adv-x="1576" 
d="M311 606v672h-198v115h538v-115h-200v-672h-140zM1309 606v285q0 141 8 250h-6l-178 -535h-95l-178 535h-8q10 -97 10 -250v-285h-131v787h182l138 -414q18 -58 36 -125h9q6 46 30 125l136 414h182v-787h-135z" />
    <glyph glyph-name="minus" unicode="&#x2212;" horiz-adv-x="917" 
d="M121 469v147h676v-147h-676z" />
    <glyph glyph-name="zero.dnom" horiz-adv-x="776" 
d="M387 -12q-177 0 -249 111t-72 325q0 212 71 317q72 107 250 107t250 -107t72 -317q0 -212 -73 -325q-72 -111 -249 -111zM387 731q-96 0 -132 -69t-36 -238q0 -171 37 -245q38 -75 131 -75q96 0 132 75t36 245q0 169 -36 238t-132 69z" />
    <glyph glyph-name="one.dnom" horiz-adv-x="428" 
d="M164 0v713h-123v98l190 31h80v-842h-147z" />
    <glyph glyph-name="two.dnom" horiz-adv-x="688" 
d="M623 123l-13 -123h-555v123q227 155 318 251q96 102 96 199q0 158 -170 158q-111 0 -215 -67v129q110 55 246 55q291 0 291 -268q0 -72 -29 -136q-28 -63 -94 -121q-66 -59 -117 -96q-46 -34 -150 -100v-4h392z" />
    <glyph glyph-name="three.dnom" horiz-adv-x="694" 
d="M432 434v-6q88 -12 142 -63q55 -52 55 -134q0 -118 -85 -181q-84 -62 -227 -62q-133 0 -256 57v129q120 -70 240 -70q83 0 130 34q48 34 48 98q0 133 -219 133h-84v110h84q82 0 144 31q61 30 61 104q0 60 -46 88q-47 29 -112 29q-93 0 -227 -63v127q118 53 248 53
q126 0 206 -57q78 -56 78 -154q0 -170 -180 -203z" />
    <glyph glyph-name="four.dnom" horiz-adv-x="722" 
d="M666 160h-91v-160h-147v160h-387v127l412 555h122v-559h91v-123zM428 283v319l-244 -319h244z" />
    <glyph glyph-name="five.dnom" horiz-adv-x="675" 
d="M211 713v-183q58 11 98 11q135 0 223 -66q89 -66 89 -209q0 -134 -84 -206t-222 -72q-135 0 -249 57v129q125 -70 227 -70q174 0 174 158q0 88 -51 124t-150 36q-75 0 -170 -25v439h494v-123h-379z" />
    <glyph glyph-name="six.dnom" horiz-adv-x="733" 
d="M391 553q143 0 214 -77t71 -197t-77 -206q-76 -85 -220 -85q-313 0 -313 393q0 467 348 467q118 0 225 -57v-127q-106 67 -213 67q-167 0 -197 -213q93 35 162 35zM381 104q72 0 107 50q34 49 34 125q0 167 -164 167q-60 0 -137 -26v-47q0 -269 160 -269z" />
    <glyph glyph-name="seven.dnom" horiz-adv-x="638" 
d="M332 0h-172q0 174 86 364q86 191 231 349h-434v123h563v-107q-126 -160 -200 -356t-74 -373z" />
    <glyph glyph-name="eight.dnom" horiz-adv-x="739" 
d="M514 438q164 -80 164 -211q0 -110 -90 -176q-89 -65 -226 -65q-147 0 -225 60t-78 159q0 63 41 121q40 57 117 90q-137 78 -137 200q0 100 83 166q82 66 214 66q138 0 209 -58t71 -147q0 -138 -143 -205zM383 733q-61 0 -97 -27t-36 -79q0 -51 44 -83q46 -34 132 -67
q84 57 84 148q0 51 -36 80q-35 28 -91 28zM358 102q67 0 110 32q42 31 42 83q0 14 -3 26q-2 7 -11 22q-7 11 -16 20q-10 9 -22 17q-21 13 -24 15q-11 9 -28 16q-8 3 -18 7.5t-13 5.5q-2 1 -14 5.5t-21 8.5q-30 13 -33 15q-96 -61 -96 -158q0 -52 40 -83q41 -32 107 -32z" />
    <glyph glyph-name="nine.dnom" horiz-adv-x="733" 
d="M354 848q314 0 314 -393q0 -467 -349 -467q-119 0 -225 57v127q107 -68 213 -68q167 0 197 213q-84 -34 -162 -34q-144 0 -214 76q-71 77 -71 198q0 120 77 206q76 85 220 85zM375 389q62 0 137 29v45q0 268 -160 268q-141 0 -141 -174q0 -82 37 -125t127 -43z" />
    <glyph glyph-name="zero.numr" horiz-adv-x="776" 
d="M387 545q-177 0 -249 111t-72 325q0 212 71 317q72 107 250 107t250 -107t72 -317q0 -212 -73 -325q-72 -111 -249 -111zM387 1288q-96 0 -132 -69t-36 -238q0 -171 37 -245t131 -74q96 0 132 74q36 75 36 245q0 169 -36 238t-132 69z" />
    <glyph glyph-name="one.numr" horiz-adv-x="428" 
d="M164 557v713h-123v98l190 31h80v-842h-147z" />
    <glyph glyph-name="two.numr" horiz-adv-x="688" 
d="M623 680l-13 -123h-555v123q227 155 318 251q96 102 96 199q0 158 -170 158q-111 0 -215 -67v129q110 55 246 55q291 0 291 -268q0 -72 -29 -136q-28 -63 -94 -121t-117 -96q-46 -34 -150 -100v-4h392z" />
    <glyph glyph-name="three.numr" horiz-adv-x="694" 
d="M432 991v-6q88 -12 142 -63q55 -52 55 -134q0 -118 -85 -181q-84 -62 -227 -62q-133 0 -256 57v129q119 -69 240 -69q84 0 130 33q48 35 48 98q0 133 -219 133h-84v110h84q82 0 144 31q61 31 61 104q0 61 -46 89t-112 28q-93 0 -227 -63v127q118 53 248 53q126 0 206 -57
q78 -56 78 -154q0 -170 -180 -203z" />
    <glyph glyph-name="four.numr" horiz-adv-x="722" 
d="M666 717h-91v-160h-147v160h-387v127l412 555h122v-559h91v-123zM428 840v319l-244 -319h244z" />
    <glyph glyph-name="five.numr" horiz-adv-x="675" 
d="M211 1270v-183q58 11 98 11q135 0 223 -66q89 -66 89 -209q0 -134 -84 -206t-222 -72q-135 0 -249 57v129q123 -69 227 -69q174 0 174 157q0 88 -51 124t-150 36q-75 0 -170 -25v439h494v-123h-379z" />
    <glyph glyph-name="six.numr" horiz-adv-x="733" 
d="M391 1110q143 0 214 -77t71 -197t-77 -206q-76 -85 -220 -85q-313 0 -313 393q0 467 348 467q118 0 225 -57v-127q-106 67 -213 67q-167 0 -197 -213q93 35 162 35zM381 662q73 0 107 49t34 125q0 168 -164 168q-58 0 -137 -27v-47q0 -268 160 -268z" />
    <glyph glyph-name="seven.numr" horiz-adv-x="638" 
d="M332 557h-172q0 174 86 364q86 191 231 349h-434v123h563v-107q-126 -160 -200 -356t-74 -373z" />
    <glyph glyph-name="eight.numr" horiz-adv-x="739" 
d="M514 995q164 -80 164 -211q0 -110 -90 -176q-89 -65 -226 -65q-147 0 -225 60t-78 159q0 63 41 121q40 57 117 90q-137 78 -137 201q0 99 83 165t214 66q138 0 209 -58t71 -147q0 -138 -143 -205zM383 1290q-61 0 -97 -27t-36 -79q0 -51 44 -83q46 -34 132 -67
q84 57 84 148q0 52 -36 80q-35 28 -91 28zM358 659q67 0 110 32q42 31 42 83q0 14 -3 26q-2 7 -11 22q-7 11 -16 20q-10 10 -22 17q-21 13 -24 15q-11 9 -28 16q-8 3 -18 7.5t-13 5.5q-2 1 -8 3.5t-13 5.5l-14 6q-6 3 -14 6t-12.5 5t-6.5 3q-96 -61 -96 -158q0 -52 40 -83
q41 -32 107 -32z" />
    <glyph glyph-name="nine.numr" horiz-adv-x="733" 
d="M354 1405q314 0 314 -393q0 -467 -349 -467q-119 0 -225 57v127q106 -67 213 -67q167 0 197 212q-87 -34 -162 -34q-144 0 -214 76q-71 77 -71 198q0 120 77 206q76 85 220 85zM375 946q62 0 137 29v45q0 268 -160 268q-141 0 -141 -174q0 -82 37 -125t127 -43z" />
    </font>
</defs>
</svg>
