<?xml version="1.0" standalone="no"?>
<!DOCTYPE svg PUBLIC "-//W3C//DTD SVG 1.1//EN" "http://www.w3.org/Graphics/SVG/1.1/DTD/svg11.dtd" >
<svg xmlns="http://www.w3.org/2000/svg" xmlns:xlink="http://www.w3.org/1999/xlink" version="1.1">
<metadata>
Created by FontForge 20170731 at Mon Jun 27 16:03:34 2022
 By Aleksey,,,
Copyright (c) 2013 by Dino dos Santos. All rights reserved.
</metadata>
<defs>
<font id="BreveSansText-Light" horiz-adv-x="1042" >
  <font-face 
    font-family="BreveSansText-Light"
    font-weight="400"
    font-stretch="normal"
    units-per-em="2048"
    panose-1="0 0 4 0 0 0 0 0 0 0"
    ascent="1638"
    descent="-410"
    x-height="1024"
    cap-height="1393"
    bbox="-332 -475 2003 1835"
    underline-thickness="102"
    underline-position="-204"
    unicode-range="U+0020-2212"
  />
<missing-glyph horiz-adv-x="1091" 
d="M131 0v1024h832v-1024h-832zM922 999h-750l377 -469zM532 510l-380 483v-960zM563 510l379 -473v952zM918 25l-369 467l-373 -467h742z" />
    <glyph glyph-name="fi" unicode="fi" horiz-adv-x="1060" 
d="M180 1024v68q0 124 27 205t86 124q61 44 133 59q74 15 186 15v-131l-18 -8q-53 20 -111 20q-147 0 -147 -184v-168h225v-109h-225v-915h-156v915h-125v52zM737 1292q0 37 26 63q25 25 66 25t67 -26q28 -28 28 -62q0 -36 -28 -62t-67 -26q-40 0 -66 26t-26 62zM907 1024
v-1024h-155v1024h155z" />
    <glyph glyph-name="fl" unicode="fl" horiz-adv-x="1083" 
d="M180 1024v68q0 124 27 205t86 124q61 44 133 59q74 15 186 15v-131l-18 -8q-53 20 -111 20q-147 0 -147 -184v-168h225v-109h-225v-915h-156v915h-125v52zM868 1475h35v-1293q0 -86 70 -86q31 0 65 15v-113q-63 -18 -125 -18q-77 0 -121 45q-44 46 -44 127v1241z" />
    <glyph glyph-name=".notdef" horiz-adv-x="1091" 
d="M131 0v1024h832v-1024h-832zM922 999h-750l377 -469zM532 510l-380 483v-960zM563 510l379 -473v952zM918 25l-369 467l-373 -467h742z" />
    <glyph glyph-name=".null" horiz-adv-x="0" 
 />
    <glyph glyph-name="nonmarkingreturn" horiz-adv-x="681" 
 />
    <glyph glyph-name="space" unicode=" " horiz-adv-x="466" 
 />
    <glyph glyph-name="exclam" unicode="!" horiz-adv-x="481" 
d="M145 1393h187l-47 -1061h-90zM154 76q0 40 26 67q27 29 64 29q36 0 63 -29t27 -67q0 -39 -27 -68q-27 -28 -63 -28q-40 0 -65 27q-25 26 -25 69z" />
    <glyph glyph-name="quotedbl" unicode="&#x22;" horiz-adv-x="786" 
d="M133 1393h150l-11 -471h-125zM504 1393h149l-12 -471h-125z" />
    <glyph glyph-name="numbersign" unicode="#" horiz-adv-x="1060" 
d="M705 616v-147h241v-90h-241v-299h-95v299h-161v-299h-93v299h-243v90h243v147h-243v91h243v297h93v-297h161v297h95v-297h241v-91h-241zM610 616h-161v-147h161v147z" />
    <glyph glyph-name="dollar" unicode="$" horiz-adv-x="1046" 
d="M952 354q0 -154 -117 -258q-117 -103 -288 -114l-4 -84h-107l4 86q-169 12 -334 86v147q171 -93 338 -108l25 557q-75 36 -104 51q-33 17 -92 56q-56 37 -84 74q-29 39 -50 92q-22 56 -22 122q0 155 108 250q108 94 277 102l4 82h104l-4 -86q139 -11 305 -82v-153
q-141 92 -309 108l-22 -489q56 -28 108 -56q40 -22 97 -61q58 -40 89 -82q32 -43 55 -104q23 -60 23 -136zM291 1083q0 -80 48 -134q47 -53 138 -103l21 438q-107 -8 -157 -65q-50 -58 -50 -136zM573 616l-22 -507q227 22 227 237q0 94 -53 156q-52 61 -152 114z" />
    <glyph glyph-name="percent" unicode="%" horiz-adv-x="1435" 
d="M336 649q-139 0 -195 100q-55 98 -55 283q0 182 55 276q56 95 195 95q136 0 193 -95q57 -94 57 -276t-57 -282q-57 -101 -193 -101zM1073 1393h127l-428 -666l-53 41zM336 1339q-92 0 -128 -73q-36 -74 -36 -234q0 -163 36 -241t128 -78t128 79q36 80 36 240t-36 234
q-36 73 -128 73zM1102 -10q-140 0 -195 99q-55 98 -55 284q0 181 55 275q56 95 195 95q136 0 193 -95q57 -94 57 -275q0 -183 -57 -283t-193 -100zM352 0h-129l443 686l53 -41zM1102 680q-92 0 -128 -74q-36 -73 -36 -233q0 -161 36 -241q36 -79 128 -79t128 79t36 241
q0 159 -36 233t-128 74z" />
    <glyph glyph-name="ampersand" unicode="&#x26;" horiz-adv-x="1251" 
d="M1184 39v-39h-174l-82 88q-141 -108 -373 -108q-218 0 -330 100t-112 276q0 201 225 369q-162 186 -162 356q0 161 111 247q110 85 286 85q196 0 296 -86t100 -213q0 -87 -47 -170q-45 -80 -134 -127h-133q72 51 111 122t39 140q0 87 -59 148q-58 59 -162 59
q-126 0 -183 -57t-57 -142q0 -27 3 -49q3 -24 13 -49q4 -11 11 -27.5t8 -17.5q6 -15 30 -49q30 -43 33 -47q12 -16 45 -54q32 -36 50 -56q1 -1 22 -23.5t39 -42.5q45 -50 66 -72l264 -285q73 146 73 400h150q0 -333 -119 -512zM573 106q157 0 258 84l-401 435
q-79 -67 -108 -128q-31 -65 -31 -141q0 -123 80 -186q81 -64 202 -64z" />
    <glyph glyph-name="quotesingle" unicode="'" horiz-adv-x="417" 
d="M133 1393h150l-11 -471h-125z" />
    <glyph glyph-name="parenleft" unicode="(" horiz-adv-x="538" 
d="M98 696q0 458 279 860h100q-215 -337 -215 -860t215 -860h-100q-279 402 -279 860z" />
    <glyph glyph-name="parenright" unicode=")" horiz-adv-x="538" 
d="M440 696q0 -459 -278 -860h-101q215 337 215 860t-215 860h101q278 -401 278 -860z" />
    <glyph glyph-name="asterisk" unicode="*" horiz-adv-x="786" 
d="M186 1327q18 18 39 19q24 2 41 -13q7 -7 111 -178q-6 36 -18 83q-9 36 -19 82q-8 37 -8 42q0 20 19 35q18 14 42 14t41 -14q19 -16 19 -35q0 -5 -8 -42q-2 -7 -5 -23t-6 -30.5t-7 -29.5q-6 -24 -17 -80q11 16 40 66q23 38 45 73q22 34 25 37q17 15 39 14q23 -1 39 -18
t18 -39q2 -24 -14 -41q-11 -11 -176 -112q49 9 82 17q46 12 81 21t42 9q21 0 36 -20t15 -42q0 -23 -15 -41t-36 -18q-10 0 -41 7q-11 3 -38 8.5t-43 8.5q-62 13 -81 17q8 -5 30.5 -18.5t36.5 -21.5q56 -34 71 -43q30 -18 36 -24q15 -16 13 -40q-1 -23 -17 -39
q-18 -18 -40 -19q-24 -2 -40 14q-5 4 -110 172q6 -31 18 -79q15 -59 20 -80q9 -40 9 -41q0 -21 -20 -36q-19 -15 -42 -15t-41 15t-18 36q0 10 7 41q2 10 7.5 37t9.5 43q14 60 17 79q-16 -24 -40 -65q-34 -58 -43 -73q-18 -30 -24 -36q-15 -14 -40 -12q-22 1 -40 19
q-17 17 -18 38q-2 24 14 41q3 3 174 109q-49 -9 -83 -17q-11 -3 -28.5 -7.5t-29.5 -7.5t-22 -5q-35 -8 -41 -8q-20 0 -35 19q-15 20 -15 42q0 23 15 41q16 19 35 19q5 0 42 -8q11 -2 38 -8.5t44 -10.5q39 -9 80 -16q-170 102 -176 110q-15 16 -13 39q2 24 17 39z" />
    <glyph glyph-name="plus" unicode="+" horiz-adv-x="880" 
d="M764 487h-268v-266h-109v266h-270v111h270v268h109v-268h268v-111z" />
    <glyph glyph-name="comma" unicode="," horiz-adv-x="458" 
d="M143 -219l95 199q-43 0 -77 25t-34 71q0 40 29 69t69 29q53 0 79 -35t26 -82q0 -92 -113 -276h-74z" />
    <glyph glyph-name="hyphen" unicode="-" horiz-adv-x="913" 
d="M133 506v110h647v-110h-647z" />
    <glyph glyph-name="period" unicode="." horiz-adv-x="432" 
d="M125 76q0 37 28 67q27 29 62 29q39 0 66 -29q26 -27 26 -67q0 -43 -26 -69q-27 -27 -66 -27q-35 0 -62 28q-28 30 -28 68z" />
    <glyph glyph-name="slash" unicode="/" horiz-adv-x="587" 
d="M516 1434l-334 -1475h-110l334 1475h110z" />
    <glyph glyph-name="zero" unicode="0" horiz-adv-x="1236" 
d="M618 -20q-281 0 -392 187t-111 540q0 346 111 526t392 180q147 0 245 -49q99 -50 156 -145q55 -93 80 -221q23 -119 23 -291q0 -353 -112 -540t-392 -187zM618 1286q-189 0 -259 -136t-70 -443q0 -314 71 -456q72 -145 258 -145t259 145q71 142 71 456q0 307 -70 443
t-260 136z" />
    <glyph glyph-name="one" unicode="1" horiz-adv-x="622" 
d="M272 0v1255h-204v97l305 51h63v-1403h-164z" />
    <glyph glyph-name="two" unicode="2" horiz-adv-x="1101" 
d="M289 137h698l-20 -137h-881v137q429 307 586 492q155 183 155 362q0 295 -329 295q-75 0 -174 -30q-98 -30 -170 -82v153q174 86 387 86q201 0 323 -100q123 -101 123 -324q0 -93 -34 -180q-35 -89 -88 -163q-55 -76 -150 -164q-84 -77 -189 -160q-92 -72 -237 -177v-8z
" />
    <glyph glyph-name="three" unicode="3" horiz-adv-x="1091" 
d="M647 719v-10q139 -15 237 -102q97 -87 97 -238q0 -182 -132 -286q-131 -103 -351 -103q-168 0 -389 90v147q207 -110 385 -110q153 0 237 68q86 69 86 196q0 135 -114 202q-115 68 -298 68h-114v131h114q63 0 122 12q54 11 120 40q61 27 99 86t38 141q0 116 -77 175
q-78 60 -203 60q-71 0 -133 -14q-72 -16 -107 -32q-9 -4 -51 -22t-74 -32v147q199 80 381 80q198 0 313 -97t115 -247q0 -153 -84 -241t-217 -109z" />
    <glyph glyph-name="four" unicode="4" horiz-adv-x="1112" 
d="M1020 293h-141v-293h-164v293h-645v135l700 975h109v-973h141v-137zM715 430v674l-492 -674h492z" />
    <glyph glyph-name="five" unicode="5" horiz-adv-x="1077" 
d="M291 1255v-397q95 19 178 19q221 0 366 -109q144 -108 144 -352q0 -208 -134 -322q-133 -114 -353 -114q-184 0 -379 90v147q217 -111 383 -111q309 0 309 322q0 180 -99 251q-100 71 -274 71q-123 0 -268 -37v680h764v-138h-637z" />
    <glyph glyph-name="six" unicode="6" horiz-adv-x="1177" 
d="M608 922q104 0 191 -28q80 -26 136 -72q51 -42 86 -106q33 -61 47 -125q13 -61 13 -132q0 -119 -43 -223q-43 -105 -151 -181q-106 -75 -269 -75q-117 0 -206 37q-88 37 -147 100q-56 60 -92 148q-35 85 -49 177q-13 87 -13 193q0 778 557 778q169 0 352 -90v-149
q-182 112 -358 112q-320 0 -369 -450q177 86 315 86zM618 106q154 0 222 99q67 98 67 254q0 332 -332 332q-131 0 -290 -78l-2 -74q0 -533 335 -533z" />
    <glyph glyph-name="seven" unicode="7" horiz-adv-x="995" 
d="M455 0h-176q0 298 146 627q148 333 374 628h-729v138h874v-119q-219 -286 -354 -628q-135 -344 -135 -646z" />
    <glyph glyph-name="eight" unicode="8" horiz-adv-x="1163" 
d="M743 733q149 -69 234 -155q84 -86 84 -226q0 -171 -145 -274t-351 -103q-220 0 -341 98q-120 97 -120 255q0 108 74 214q74 105 232 167q-125 61 -193 139q-70 81 -70 205q0 147 128 254q127 106 323 106q203 0 311 -93q109 -94 109 -239q0 -240 -275 -348zM326 1071
q0 -56 23 -98q24 -43 78 -81q51 -36 96 -58q36 -18 124 -58q205 94 205 293q0 111 -75 164q-76 53 -187 53q-122 0 -193 -55t-71 -160zM573 102q137 0 222 66q86 66 86 170q0 45 -19 88q-18 41 -47 70q-27 27 -76 57q-43 26 -88 48q-49 24 -100 44q-23 9 -39 17
q-246 -112 -246 -320q0 -102 83 -171t224 -69z" />
    <glyph glyph-name="nine" unicode="9" horiz-adv-x="1177" 
d="M559 1413q116 0 207 -38q88 -37 146 -99q57 -61 93 -149q35 -85 49 -177q13 -87 13 -192q0 -778 -557 -778q-171 0 -354 90v149q185 -113 360 -113q317 0 367 449q-173 -84 -314 -84q-129 0 -228 41q-96 40 -148 110t-75 146q-24 78 -24 166q0 86 26 169q24 77 79 152
q52 71 146 115q92 43 214 43zM602 602q124 0 289 76l2 76q0 532 -334 532q-154 0 -222 -98q-69 -99 -69 -254q0 -154 75 -243t259 -89z" />
    <glyph glyph-name="colon" unicode=":" horiz-adv-x="448" 
d="M133 674q0 39 27 66q28 28 65 28q34 0 62 -28q26 -26 26 -66t-26 -69q-27 -30 -62 -30q-38 0 -65 29q-27 28 -27 70zM133 76q0 38 27 67t65 29q35 0 62 -29q26 -27 26 -67q0 -41 -26 -68q-27 -28 -62 -28q-38 0 -65 27t-27 69z" />
    <glyph glyph-name="semicolon" unicode=";" horiz-adv-x="499" 
d="M150 674q0 40 25 66q26 28 63 28q35 0 63 -28q27 -27 27 -66q0 -42 -27 -70q-27 -29 -63 -29q-37 0 -63 29q-25 28 -25 70zM164 -219l94 199q-46 0 -78 25q-33 25 -33 71q0 40 29 69t70 29q51 0 78 -35q26 -33 26 -82q0 -94 -112 -276h-74z" />
    <glyph glyph-name="less" unicode="&#x3c;" horiz-adv-x="831" 
d="M688 391v-135l-579 270v136l579 270v-135l-422 -203z" />
    <glyph glyph-name="equal" unicode="=" horiz-adv-x="919" 
d="M137 629v110h645v-110h-645zM137 346v111h645v-111h-645z" />
    <glyph glyph-name="greater" unicode="&#x3e;" horiz-adv-x="831" 
d="M143 797v135l580 -270v-136l-580 -270v135l422 203z" />
    <glyph glyph-name="question" unicode="?" horiz-adv-x="903" 
d="M827 1016q0 -120 -40 -204q-41 -87 -105 -129q-66 -43 -135 -63q-71 -20 -144 -20l-18 -268h-90l-21 366q186 0 288 69t102 243q0 134 -69 205t-202 71q-139 0 -311 -112v153q174 86 338 86q189 0 298 -106t109 -291zM254 76q0 38 27 67t65 29q37 0 64 -29q26 -27 26 -67
q0 -41 -26 -68q-27 -28 -64 -28q-38 0 -65 27t-27 69z" />
    <glyph glyph-name="at" unicode="@" horiz-adv-x="1681" 
d="M1180 883q-8 -38 -21.5 -105.5t-18.5 -89.5q-6 -30 -16 -76.5t-13 -62.5q-13 -66 -17 -88q-3 -15 -7 -36t-5 -27q-4 -27 -5 -37q-2 -24 -2 -35q0 -113 88 -113q107 0 187 115t80 311q0 245 -157 370q-155 124 -390 124q-292 0 -463 -177q-170 -176 -170 -479
q0 -289 173 -430t474 -141q296 0 494 135v-119q-217 -145 -543 -145q-308 0 -526 191q-220 193 -220 513q0 333 217 550q218 218 566 218q294 0 487 -167t193 -439q0 -222 -119 -382q-118 -159 -316 -159q-161 0 -190 158l-137 -123q-46 -35 -113 -35q-90 0 -145 81
q-56 82 -56 204q0 535 396 535q154 0 295 -39zM948 360l76 424q-95 31 -186 31q-222 0 -222 -424q0 -166 115 -166q41 0 103 39t114 96z" />
    <glyph glyph-name="A" unicode="A" horiz-adv-x="1167" 
d="M1106 39v-39h-164l-117 391h-489l-117 -391h-158v39l416 1364h215zM784 528l-125 418q-44 134 -75 285h-2q-23 -108 -80 -285l-125 -418h407z" />
    <glyph glyph-name="B" unicode="B" horiz-adv-x="1175" 
d="M821 719v-4q108 -30 181 -121t73 -217q0 -171 -108 -274q-107 -103 -289 -103h-508v1393h477q173 0 276 -97q101 -95 101 -256q0 -120 -56 -205q-57 -88 -147 -116zM334 780h280q112 0 179 63t67 177q0 108 -66 173q-65 64 -171 62h-289v-475zM334 137h313q110 -1 182 66
t72 190q0 118 -78 184t-202 66h-287v-506z" />
    <glyph glyph-name="C" unicode="C" horiz-adv-x="1148" 
d="M106 696q0 717 556 717q203 0 395 -90v-149q-191 112 -395 112q-111 0 -188 -44t-118 -127q-40 -81 -58 -184q-17 -96 -17 -235q0 -138 17 -234q18 -103 58 -184q41 -83 118 -127q79 -45 188 -45q229 0 415 123l-20 -159q-192 -90 -395 -90q-556 0 -556 716z" />
    <glyph glyph-name="D" unicode="D" horiz-adv-x="1298" 
d="M170 1393h475q545 0 545 -686q0 -707 -545 -707h-475v1393zM334 137h311q205 0 288 134t83 436q0 297 -82 422q-82 126 -289 126h-311v-1118z" />
    <glyph glyph-name="E" unicode="E" horiz-adv-x="1097" 
d="M334 1255v-475h569v-137h-569v-506h672l-21 -137h-815v1393h825v-138h-661z" />
    <glyph glyph-name="F" unicode="F" horiz-adv-x="1083" 
d="M334 1255v-491h569v-137h-569v-627h-164v1393h825v-138h-661z" />
    <glyph glyph-name="G" unicode="G" horiz-adv-x="1189" 
d="M662 1286q-111 0 -188 -44t-118 -127q-40 -81 -58 -184q-17 -96 -17 -235q0 -138 17 -234q18 -103 58 -184q41 -83 118 -127q79 -45 188 -45q123 0 231 39v416h-293v137h457v-628q-192 -90 -395 -90q-556 0 -556 716q0 717 556 717q203 0 395 -90v-149q-191 112 -395 112
z" />
    <glyph glyph-name="H" unicode="H" horiz-adv-x="1288" 
d="M334 1393v-613h618v613h164v-1393h-164v643h-618v-643h-164v1393h164z" />
    <glyph glyph-name="I" unicode="I" horiz-adv-x="505" 
d="M334 1393v-1393h-164v1393h164z" />
    <glyph glyph-name="J" unicode="J" horiz-adv-x="512" 
d="M340 1393v-1346q0 -165 -56 -264q-57 -101 -233 -152l-49 103q78 38 118 89q40 53 48 99q8 50 8 125v1346h164z" />
    <glyph glyph-name="K" unicode="K" horiz-adv-x="1120" 
d="M334 1393v-1393h-164v1393h164zM909 1393h152v-39l-510 -637l520 -678v-39h-164l-512 666v84z" />
    <glyph glyph-name="L" unicode="L" horiz-adv-x="1034" 
d="M985 137l-20 -137h-795v1393h164v-1256h651z" />
    <glyph glyph-name="M" unicode="M" horiz-adv-x="1519" 
d="M1194 0v705q0 282 10 446h-10l-350 -832h-166l-350 832h-11q11 -181 11 -446v-705h-158v1393h209l309 -713q49 -110 72 -197h8q33 112 72 197l301 713h207v-1393h-154z" />
    <glyph glyph-name="N" unicode="N" horiz-adv-x="1288" 
d="M334 1393l627 -1092h10q-8 184 -8 447v645h153v-1393h-164l-624 1092h-11q9 -207 9 -447v-645h-156v1393h164z" />
    <glyph glyph-name="O" unicode="O" horiz-adv-x="1302" 
d="M651 -20q-545 0 -545 727q0 706 545 706t545 -706q0 -342 -131 -535q-131 -192 -414 -192zM651 1286q-204 0 -287 -138q-83 -139 -83 -441q0 -306 84 -453q85 -148 286 -148q202 0 287 148q84 147 84 453q0 302 -83 441q-83 138 -288 138z" />
    <glyph glyph-name="P" unicode="P" horiz-adv-x="1159" 
d="M170 1393h459q234 0 348 -109q113 -108 113 -283q0 -179 -114 -296t-347 -117h-295v-588h-164v1393zM334 725h295q157 0 222 67q64 65 64 209q0 140 -63 197t-223 57h-295v-530z" />
    <glyph glyph-name="Q" unicode="Q" horiz-adv-x="1302" 
d="M739 -14q16 -111 98 -165q81 -54 293 -54l-20 -111q-137 0 -214 10q-85 11 -151 44q-70 35 -107 100t-58 174q-474 50 -474 723q0 706 545 706t545 -706q0 -664 -457 -721zM281 707q0 -306 84 -453q85 -148 286 -148q202 0 287 148q84 147 84 453q0 302 -83 441
q-83 138 -288 138q-204 0 -287 -138q-83 -139 -83 -441z" />
    <glyph glyph-name="R" unicode="R" horiz-adv-x="1198" 
d="M1104 39v-39h-162l-135 367q0 1 -1.5 5t-4 10.5t-5.5 14.5t-6 15.5t-5.5 14.5t-3.5 9q-6 16 -19 38q-14 24 -27 40q-7 9 -35 35q-21 20 -47 31q-24 11 -58 18q-37 8 -75 8h-186v-606h-164v1393h459q232 0 347 -107q114 -106 114 -274q0 -139 -74 -245q-73 -104 -225 -142
v-9q70 -23 107 -77q34 -50 79 -164zM334 743h295q155 0 221 66q65 65 65 203q0 132 -63 188q-62 55 -223 55h-295v-512z" />
    <glyph glyph-name="S" unicode="S" 
d="M115 1061q0 163 115 257q116 95 292 95q186 0 385 -86v-153q-175 112 -377 112q-125 0 -183 -58t-58 -145q0 -90 67 -154q69 -65 165 -110q104 -48 195 -97q98 -52 165 -144q67 -91 67 -224q0 -162 -130 -268t-312 -106q-207 0 -402 90v147q206 -111 396 -111
q142 0 208 66t66 174q0 87 -49 151q-49 63 -122 100q-102 51 -159 80q-83 42 -158 86q-72 42 -122 119q-49 76 -49 179z" />
    <glyph glyph-name="T" unicode="T" horiz-adv-x="1036" 
d="M436 0v1255h-373v138h910v-138h-373v-1255h-164z" />
    <glyph glyph-name="U" unicode="U" horiz-adv-x="1265" 
d="M633 -20q-471 0 -471 497v916h164v-916q0 -362 307 -362q309 0 309 362v916h164v-916q0 -256 -124 -377q-123 -120 -349 -120z" />
    <glyph glyph-name="V" unicode="V" horiz-adv-x="1171" 
d="M479 -10l-416 1364v39h164l283 -940q51 -162 78 -287q21 97 80 287l282 940h158v-39l-416 -1364h-213z" />
    <glyph glyph-name="W" unicode="W" horiz-adv-x="1724" 
d="M1647 1393v-39l-342 -1364h-213l-230 1022l-223 -1022h-215l-352 1364v39h151l244 -940q45 -169 68 -297h2q14 76 35 165q17 72 32 132l184 940h158l195 -940q13 -77 26 -140q8 -39 18 -91.5t13 -65.5h2q28 158 66 297l235 940h146z" />
    <glyph glyph-name="X" unicode="X" horiz-adv-x="1071" 
d="M1024 39v-39h-162l-334 582l-333 -582h-152v39l401 692l-358 623v39h160l301 -525l284 525h152v-39l-350 -635z" />
    <glyph glyph-name="Y" unicode="Y" horiz-adv-x="1120" 
d="M1061 1354l-418 -865v-489h-164v479l-422 875v39h164l238 -494q54 -111 104 -244h2q58 149 105 246l235 492h156v-39z" />
    <glyph glyph-name="Z" unicode="Z" horiz-adv-x="1009" 
d="M940 137l-20 -137h-848v119l655 1136h-621v138h799v-119l-655 -1137h690z" />
    <glyph glyph-name="bracketleft" unicode="[" horiz-adv-x="606" 
d="M524 1556v-139h-196v-1442h196v-139h-360v1720h360z" />
    <glyph glyph-name="backslash" unicode="\" horiz-adv-x="587" 
d="M516 -41h-108l-336 1475h112z" />
    <glyph glyph-name="bracketright" unicode="]" horiz-adv-x="606" 
d="M82 -164v139h197v1442h-197v139h360v-1720h-360z" />
    <glyph glyph-name="asciicircum" unicode="^" horiz-adv-x="800" 
d="M123 1126l248 340h59l246 -340h-117l-156 189l-161 -189h-119z" />
    <glyph glyph-name="underscore" unicode="_" horiz-adv-x="1101" 
d="M133 -190v106h834v-106h-834z" />
    <glyph glyph-name="grave" unicode="`" horiz-adv-x="702" 
d="M512 1126l-285 115q-53 18 -53 70q0 34 22 54q20 19 56 19t65 -20l232 -162z" />
    <glyph glyph-name="a" unicode="a" horiz-adv-x="1001" 
d="M670 133l-125 -106q-74 -47 -187 -47q-118 0 -200 69t-82 184q0 126 85 189q86 63 238 96l271 53v144q0 99 -43 152q-44 55 -178 55q-143 0 -285 -62l-19 23l50 123q140 38 286 38q159 0 250 -69q92 -69 92 -199v-594q0 -86 70 -86q31 0 65 15v-93q-54 -38 -133 -38
q-71 0 -110 44t-45 109zM670 487l-312 -79q-131 -33 -131 -162q0 -74 46 -111t126 -37q152 0 271 131v258z" />
    <glyph glyph-name="b" unicode="b" horiz-adv-x="1083" 
d="M618 1044q178 0 272 -148q95 -149 95 -384q0 -251 -120 -392q-119 -140 -314 -140q-150 0 -270 98l-84 -88h-45v1403l120 82h35v-584l125 106q74 47 186 47zM545 82q286 0 286 430q0 220 -71 315q-73 97 -217 97q-69 0 -135 -33q-68 -34 -101 -70v-671q107 -68 238 -68z
" />
    <glyph glyph-name="c" unicode="c" horiz-adv-x="952" 
d="M559 924q-151 0 -229 -116t-78 -296q0 -412 301 -412q143 0 303 93v-132q-147 -81 -324 -81q-209 0 -321 139q-113 140 -113 393q0 250 122 392q121 140 341 140q161 0 305 -51l-28 -108l-23 -19q-130 58 -256 58z" />
    <glyph glyph-name="d" unicode="d" horiz-adv-x="1085" 
d="M932 1475v-1475h-144l-10 133l-127 -106q-70 -47 -184 -47q-177 0 -271 148q-96 151 -96 384q0 250 115 392q113 140 301 140q149 0 262 -86v435l119 82h35zM543 100q23 0 42 4q23 5 43 15q8 4 20 9.5t16 7.5q14 7 35 25q18 15 29 22q6 4 30 26l20 18v627
q-112 80 -235 80q-289 0 -289 -422q0 -219 72 -315q73 -97 217 -97z" />
    <glyph glyph-name="e" unicode="e" 
d="M944 664q0 -82 -18 -189h-674q7 -187 97 -281q89 -94 237 -94q74 0 170 27t162 66v-132q-147 -81 -353 -81q-212 0 -339 142q-128 143 -128 390q0 250 122 392q121 140 341 140q73 0 133 -16q62 -17 121 -55q60 -39 94 -118q35 -81 35 -191zM254 571l534 9q7 58 7 84
q0 70 -20 122q-19 51 -44 77q-23 25 -60 40q-37 16 -57 17q-28 2 -45 2q-292 0 -315 -351z" />
    <glyph glyph-name="f" unicode="f" horiz-adv-x="600" 
d="M182 1024v68q0 238 102 321q101 82 330 82v-131l-18 -8q-53 20 -113 20q-147 0 -147 -184v-168h225v-109h-225v-915h-154v915h-127v52z" />
    <glyph glyph-name="g" unicode="g" horiz-adv-x="1009" 
d="M305 164l373 -39q158 -17 227 -84q70 -68 70 -191q0 -137 -128 -229t-351 -92q-435 0 -435 248q0 100 95 209l67 -27l-20 -127q0 -106 75 -147q76 -41 218 -41q160 0 237 53q76 52 76 139q0 66 -32 101q-31 35 -120 45l-354 34q-71 6 -104 43t-33 84q0 44 35 94t98 89
q-92 45 -146 139q-53 92 -53 209q0 159 101 265q101 105 272 105q75 0 137 -18l312 18v-116h-150q90 -100 90 -254q0 -175 -99 -283t-276 -108q-49 0 -98 10zM469 932q-110 0 -167 -65q-56 -63 -56 -171q0 -301 246 -301q111 0 168 68q57 67 57 188q0 139 -65 210t-183 71z
" />
    <glyph glyph-name="h" unicode="h" horiz-adv-x="1054" 
d="M311 905l101 84q101 55 213 55q129 0 206 -71q78 -72 78 -213v-760h-153v733q0 182 -160 182q-122 0 -289 -100v-815h-155v1393l120 82h35v-570h4z" />
    <glyph glyph-name="i" unicode="i" horiz-adv-x="458" 
d="M135 1292q0 37 26 63q25 25 66 25t67 -26q28 -28 28 -62q0 -36 -28 -62t-67 -26q-40 0 -66 26t-26 62zM307 1024v-1024h-155v1024h155z" />
    <glyph glyph-name="j" unicode="j" horiz-adv-x="458" 
d="M135 1292q0 37 26 63q25 25 66 25t67 -26q28 -28 28 -62q0 -36 -28 -62t-67 -26q-40 0 -66 26t-26 62zM307 1024v-1028q0 -161 -54 -263q-54 -101 -222 -184l-56 91q113 68 146 138t33 218v1028h153z" />
    <glyph glyph-name="k" unicode="k" horiz-adv-x="985" 
d="M272 1475h35v-1475h-155v1393zM791 0l-443 532l418 492h137v-39l-379 -444l420 -502v-39h-153z" />
    <glyph glyph-name="l" unicode="l" horiz-adv-x="481" 
d="M268 1475h35v-1293q0 -86 70 -86q31 0 65 15v-113q-66 -18 -125 -18q-79 0 -122 45q-44 46 -44 127v1241z" />
    <glyph glyph-name="m" unicode="m" horiz-adv-x="1648" 
d="M883 889l123 100q101 55 213 55q129 0 206 -71q78 -72 78 -213v-760h-153v733q0 182 -160 182q-116 0 -283 -100v-815h-155v733q0 182 -154 182q-124 0 -291 -100v-815h-155v1024h145l10 -119h4l101 84q101 55 213 55q197 0 254 -155h4z" />
    <glyph glyph-name="n" unicode="n" horiz-adv-x="1054" 
d="M307 905h4l101 84q101 55 213 55q129 0 206 -71q78 -72 78 -213v-760h-153v733q0 182 -160 182q-122 0 -289 -100v-815h-155v1024h145z" />
    <glyph glyph-name="o" unicode="o" horiz-adv-x="1064" 
d="M532 -20q-432 0 -432 532t432 532q431 0 431 -532t-431 -532zM532 922q-152 0 -215 -101t-63 -309t63 -309t215 -101q150 0 213 101q64 102 64 309t-64 309q-63 101 -213 101z" />
    <glyph glyph-name="p" unicode="p" horiz-adv-x="1085" 
d="M618 1044q178 0 272 -148q95 -149 95 -384q0 -250 -115 -392q-113 -140 -303 -140q-141 0 -260 90v-521h-155v1475h145l10 -133l125 106q74 47 186 47zM543 90q288 0 288 422q0 220 -71 315q-73 97 -217 97q-23 0 -50 -8q-31 -9 -46 -16q-19 -9 -44 -26q-20 -14 -35 -25
q-4 -3 -34 -29q-6 -5 -12.5 -10.5t-10 -8.5t-4.5 -4v-621q122 -86 236 -86z" />
    <glyph glyph-name="q" unicode="q" horiz-adv-x="1083" 
d="M930 1034v-1485h-154v584l-127 -106q-73 -47 -184 -47q-177 0 -271 148q-96 151 -96 384q0 251 120 392q119 140 312 140q153 0 273 -98l92 88h35zM541 100q69 0 135 33t100 70v671q-107 68 -237 68q-287 0 -287 -430q0 -219 72 -315q73 -97 217 -97z" />
    <glyph glyph-name="r" unicode="r" horiz-adv-x="698" 
d="M307 864h4l101 133q56 47 159 47q51 0 99 -14l-56 -143q-33 10 -79 10q-114 0 -228 -147v-750h-155v1024h145z" />
    <glyph glyph-name="s" unicode="s" horiz-adv-x="886" 
d="M459 924q-99 0 -147 -39t-48 -103q0 -61 55 -106q57 -46 136 -76t159 -66t136 -101q55 -64 55 -154q0 -138 -97 -219q-96 -80 -253 -80q-195 0 -338 71l-19 142q169 -93 351 -93q102 0 152 50t50 114q0 67 -56 111q-61 48 -135 76q-71 27 -159 65q-79 34 -136 102
q-56 66 -56 166q0 126 100 193t250 67q161 0 305 -51l-27 -108l-24 -19q-130 58 -254 58z" />
    <glyph glyph-name="t" unicode="t" horiz-adv-x="624" 
d="M51 915v52l127 57l123 201h31v-201h225v-109h-225v-702q0 -60 24 -87q25 -28 86 -28q68 0 125 31v-121q-78 -28 -153 -28q-122 0 -178 49q-58 50 -58 166v720h-127z" />
    <glyph glyph-name="u" unicode="u" horiz-adv-x="1056" 
d="M750 119h-5l-100 -84q-101 -55 -213 -55q-130 0 -207 71q-78 72 -78 213v760h154v-733q0 -182 160 -182q122 0 289 100v815h155v-1024h-145z" />
    <glyph glyph-name="v" unicode="v" horiz-adv-x="966" 
d="M573 -10h-184l-317 995v39h143l272 -868h5l264 868h143v-39z" />
    <glyph glyph-name="w" unicode="w" horiz-adv-x="1501" 
d="M1440 1024v-39l-318 -995h-196l-168 801l-209 -801h-197l-268 995v39h143l230 -856h4l225 856h152l192 -856h4l262 856h144z" />
    <glyph glyph-name="x" unicode="x" horiz-adv-x="929" 
d="M879 39v-39h-144l-274 414l-277 -414h-133v39l330 493l-299 453v39h139l248 -371l244 371h135v-39l-299 -453z" />
    <glyph glyph-name="y" unicode="y" horiz-adv-x="960" 
d="M66 985v39h143l272 -868h4l265 868h143v-39l-256 -792q-28 -86 -63 -169q-43 -102 -59 -134q-26 -54 -64 -112q-43 -66 -57 -86q-20 -28 -58 -79q-44 -58 -49 -64h-140v39q177 211 259 371z" />
    <glyph glyph-name="z" unicode="z" horiz-adv-x="907" 
d="M256 109h578l-29 -109h-717v102l555 813h-555l37 109h688v-102z" />
    <glyph glyph-name="braceleft" unicode="{" horiz-adv-x="612" 
d="M209 700v-6q88 -21 128 -77t40 -119q0 -73 -27 -187q-26 -110 -26 -172q0 -101 45 -132q46 -32 157 -32v-139q-182 0 -271 63t-89 203q0 80 28 198q27 114 27 151q0 89 -32 129q-31 38 -101 38v156q70 0 101 39q32 40 32 129q0 37 -27 151q-28 118 -28 197q0 141 89 204
q87 62 271 62v-139q-111 0 -157 -32q-45 -31 -45 -132q0 -62 26 -172q27 -114 27 -186q0 -151 -168 -195z" />
    <glyph glyph-name="bar" unicode="|" horiz-adv-x="497" 
d="M330 1434v-1475h-162v1475h162z" />
    <glyph glyph-name="braceright" unicode="}" horiz-adv-x="612" 
d="M401 694v6q-87 22 -128 77q-40 53 -40 118q0 67 28 185t28 173q0 101 -46 132q-47 32 -159 32v139q183 0 272 -62q90 -63 90 -204q0 -83 -27 -197q-28 -118 -28 -151q0 -89 31 -129q30 -39 100 -39v-156q-71 0 -100 -38q-31 -40 -31 -129q0 -33 28 -151q27 -114 27 -198
q0 -140 -90 -203t-272 -63v139q112 0 159 32q46 31 46 132q0 55 -28 173t-28 186q0 63 40 119t128 77z" />
    <glyph glyph-name="asciitilde" unicode="~" horiz-adv-x="884" 
d="M242 1126h-99q10 118 62 185q50 65 125 65q46 0 139 -44t123 -44q32 0 49 20t29 60h96q-18 -221 -160 -221q-52 0 -152 44t-126 44q-35 0 -53 -17q-19 -17 -23 -35q-3 -13 -10 -57z" />
    <glyph glyph-name="exclamdown" unicode="&#xa1;" horiz-adv-x="452" 
d="M139 948q0 41 26 69q26 27 64 27q37 0 64 -28q26 -27 26 -68q0 -40 -26 -67q-27 -29 -64 -29q-36 0 -63 29t-27 67zM270 692l47 -1061h-186l49 1061h90z" />
    <glyph glyph-name="cent" unicode="&#xa2;" horiz-adv-x="1183" 
d="M1081 229l-20 -159q-156 -76 -330 -88v-84h-96v82q-524 18 -524 716q0 699 524 717v82h96v-84q174 -12 330 -88v-149q-156 93 -330 110v-1175q194 18 350 120zM285 696q0 -276 77 -426q78 -152 273 -164v1180q-194 -12 -273 -166q-77 -151 -77 -424z" />
    <glyph glyph-name="sterling" unicode="&#xa3;" horiz-adv-x="1046" 
d="M938 137l-20 -137h-793v111l10 2q195 114 195 352q0 67 -49 168h-156v110h98q-96 184 -96 295q0 176 115 276q114 99 293 99q189 0 385 -86v-153q-172 112 -379 112q-128 0 -185 -61t-57 -162q0 -63 17 -122t33 -96q12 -28 50 -102h402v-110h-352q30 -83 30 -162
q0 -104 -38 -175q-38 -72 -111 -149v-10h608z" />
    <glyph glyph-name="currency" unicode="&#xa4;" horiz-adv-x="1323" 
d="M795 106q231 0 417 123l-20 -159q-195 -90 -397 -90q-476 0 -543 532h-156v109h148l-2 75q0 55 2 99h-148v108h160q72 510 539 510q202 0 397 -90v-149q-191 112 -397 112q-316 0 -367 -383h430v-108h-440q-2 -44 -2 -99l2 -75h440v-109h-434q22 -196 108 -301t263 -105z
" />
    <glyph glyph-name="yen" unicode="&#xa5;" horiz-adv-x="1120" 
d="M1061 1354l-393 -815h282v-111h-307v-428h-164v428h-307v111h279l-394 815v39h164l238 -494q54 -111 104 -244h2q58 149 105 246l235 492h156v-39z" />
    <glyph glyph-name="brokenbar" unicode="&#xa6;" horiz-adv-x="497" 
d="M330 1434v-656h-162v656h162zM330 614v-655h-162v655h162z" />
    <glyph glyph-name="section" unicode="&#xa7;" horiz-adv-x="1026" 
d="M145 1188q0 175 116 274q115 99 294 99q193 0 383 -86v-152q-176 113 -375 113q-244 0 -244 -224q0 -70 54 -132q53 -60 128 -101q126 -68 149 -80q78 -40 128 -85q53 -47 53 -99q0 -70 -79 -115q-38 56 -145 120q-120 72 -206 116q-96 50 -177 144q-79 92 -79 208z
M881 205q0 -175 -115 -275q-113 -98 -293 -98q-195 0 -385 86v152q176 -113 377 -113q127 0 184 61q58 63 58 162q0 71 -53 132q-56 64 -128 102q-17 9 -47.5 25.5t-55.5 29.5t-48 25q-75 38 -128 85q-52 46 -52 99q0 70 79 115q38 -56 145 -120q120 -72 206 -116
q96 -50 177 -144q79 -92 79 -208z" />
    <glyph glyph-name="dieresis" unicode="&#xa8;" horiz-adv-x="882" 
d="M166 1282q0 40 25 65t65 25q37 0 63 -25q27 -25 27 -65q0 -41 -25 -65q-27 -25 -65 -25t-65 25q-25 24 -25 65zM537 1282q0 40 25 65t65 25q37 0 62 -25q26 -26 26 -65q0 -41 -26 -65q-27 -25 -62 -25q-38 0 -65 25q-25 24 -25 65z" />
    <glyph glyph-name="copyright" unicode="&#xa9;" horiz-adv-x="1638" 
d="M819 -20q-298 0 -507 209q-210 210 -210 507t210 507t507 210t507 -210t210 -507t-210 -507q-209 -209 -507 -209zM819 39q273 0 465 192q193 193 193 465t-193 465t-465 193t-465 -193q-192 -192 -192 -465t192 -465t465 -192zM514 696q0 404 313 404q119 0 224 -51v-82
q-112 65 -224 65q-121 0 -168 -89t-47 -247q0 -157 47 -246q47 -90 168 -90q123 0 234 72l-10 -88q-105 -51 -224 -51q-313 0 -313 403z" />
    <glyph glyph-name="ordfeminine" unicode="&#xaa;" horiz-adv-x="884" 
d="M553 807l-84 -72q-47 -30 -123 -30q-78 0 -130 46t-52 121q0 150 209 189l180 37v98q0 62 -29 99q-28 36 -118 36q-98 0 -191 -41l-10 17l31 82q100 24 192 24q103 0 162 -46t59 -130v-397q0 -58 47 -58q16 0 43 9v-62q-37 -24 -82 -24q-92 0 -104 102zM553 1040
l-205 -49q-88 -21 -88 -110q0 -48 32 -72q33 -25 81 -25q103 0 180 86v170zM125 535v73h643v-73h-643z" />
    <glyph glyph-name="guillemotleft" unicode="&#xab;" horiz-adv-x="1052" 
d="M543 236l-88 -82l-355 372v54l355 372l88 -82l-299 -317zM942 236l-90 -82l-352 372v54l352 372l90 -82l-301 -317z" />
    <glyph glyph-name="logicalnot" unicode="&#xac;" horiz-adv-x="987" 
d="M731 190v349h-594v116h713v-465h-119z" />
    <glyph glyph-name="softhyphen" unicode="&#xad;" horiz-adv-x="913" 
d="M133 506v110h647v-110h-647z" />
    <glyph glyph-name="registered" unicode="&#xae;" horiz-adv-x="1638" 
d="M819 1413q297 0 507 -210t210 -507t-210 -507q-209 -209 -507 -209t-507 209q-210 210 -210 507t210 507t507 210zM819 39q273 0 465 192q193 193 193 465t-193 465t-465 193t-465 -193q-192 -192 -192 -465t192 -465t465 -192zM930 655v-4q72 -24 102 -135l78 -192v-21
h-96l-76 207l-5 15q-2 5 -4.5 11.5t-2.5 7.5t-1 3l-2 4t-2.5 5.5t-2.5 6.5q-4 11 -12 21q-1 2 -6 8t-8 10q-11 14 -21 18q-7 3 -24 12q-12 7 -31 10q-18 3 -38 3h-102v-342h-96v787h258q131 0 197 -61q65 -60 65 -155q0 -77 -42 -137q-41 -59 -128 -82zM676 723h162
q90 0 126 37q35 36 35 114q0 77 -35 108q-37 32 -126 32h-162v-291z" />
    <glyph glyph-name="macron" unicode="&#xaf;" horiz-adv-x="868" 
d="M143 1169v97h582v-97h-582z" />
    <glyph glyph-name="degree" unicode="&#xb0;" horiz-adv-x="661" 
d="M104 1186q0 98 67 163q65 64 161 64q95 0 162 -64t67 -163t-68 -164q-69 -66 -161 -66q-95 0 -161 66q-67 67 -67 164zM195 1186q0 -57 33 -97q35 -42 104 -42q70 0 104 42q35 43 35 97q0 56 -35 97q-34 40 -104 40t-104 -40q-33 -39 -33 -97z" />
    <glyph glyph-name="plusminus" unicode="&#xb1;" horiz-adv-x="921" 
d="M784 633v-109h-268v-272h-108v272h-271v109h271v274h108v-274h268zM137 188h647v-110h-647v110z" />
    <glyph glyph-name="twosuperior" unicode="&#xb2;" horiz-adv-x="669" 
d="M176 844h420l-12 -82h-529v82q262 187 352 295q93 111 93 219q0 176 -199 176q-106 0 -207 -68v90q105 54 234 54q268 0 268 -254q0 -130 -99 -239q-97 -108 -321 -269v-4z" />
    <glyph glyph-name="threesuperior" unicode="&#xb3;" horiz-adv-x="667" 
d="M393 1194v-6q85 -11 143 -63t58 -142q0 -110 -80 -172q-79 -61 -211 -61q-99 0 -233 55v88q128 -68 231 -68q89 0 142 42t53 116q0 83 -69 123q-70 41 -181 41h-68v78h68q87 0 158 38t71 130q0 66 -47 104q-46 37 -121 37q-87 0 -219 -61v90q123 47 229 47q117 0 187 -59
q69 -59 69 -146q0 -92 -50 -145q-51 -54 -130 -66z" />
    <glyph glyph-name="acute" unicode="&#xb4;" horiz-adv-x="702" 
d="M152 1202l233 162q29 20 64 20q36 0 56 -19q21 -19 21 -54q0 -53 -53 -70l-283 -115z" />
    <glyph glyph-name="paragraph" unicode="&#xb6;" horiz-adv-x="1110" 
d="M760 0v1249h-144v-721h-90q-222 0 -336 111t-114 319q0 210 114 322q115 113 336 113h398v-1393h-164z" />
    <glyph glyph-name="periodcentered" unicode="&#xb7;" horiz-adv-x="442" 
d="M135 553q0 36 25 59t61 23q37 0 62 -23q24 -22 24 -59q0 -42 -23 -64t-63 -22q-39 0 -62 22q-24 23 -24 64z" />
    <glyph glyph-name="cedilla" unicode="&#xb8;" horiz-adv-x="673" 
d="M311 0v-66q77 0 129 -43q54 -45 54 -120q0 -88 -52 -135q-50 -46 -133 -46q-81 0 -133 23v70q63 -23 105 -23q112 0 112 111q0 52 -38 78t-126 26v125h82z" />
    <glyph glyph-name="onesuperior" unicode="&#xb9;" horiz-adv-x="393" 
d="M170 762v754h-123v57l182 31h39v-842h-98z" />
    <glyph glyph-name="ordmasculine" unicode="&#xba;" horiz-adv-x="907" 
d="M453 705q-281 0 -281 354t281 354q280 0 280 -354t-280 -354zM453 1331q-101 0 -144 -66q-43 -65 -43 -206t43 -206q44 -67 144 -67q99 0 143 67q43 65 43 206t-43 206q-43 66 -143 66zM133 535v73h641v-73h-641z" />
    <glyph glyph-name="guillemotright" unicode="&#xbb;" horiz-adv-x="1052" 
d="M111 870l90 82l352 -372v-54l-352 -372l-90 82l301 317zM508 870l90 82l352 -372v-54l-352 -372l-90 82l301 317z" />
    <glyph glyph-name="onequarter" unicode="&#xbc;" horiz-adv-x="1499" 
d="M188 557v754h-122v57l182 31h39v-842h-99zM1214 1393l-430 -666l-53 41l356 625h127zM1423 176h-86v-176h-98v176h-387v80l420 586h65v-584h86v-82zM678 686l53 -41l-369 -645h-129zM1239 258v404l-295 -404h295z" />
    <glyph glyph-name="onehalf" unicode="&#xbd;" horiz-adv-x="1619" 
d="M188 557v754h-122v57l182 31h39v-842h-99zM1214 1393l-430 -666l-53 41l356 625h127zM1106 82h418l-13 -82h-528v82q259 185 351 295q93 111 93 219q0 176 -196 176q-107 0 -207 -67v90q101 53 231 53q269 0 269 -254q0 -128 -100 -239t-318 -269v-4zM678 686l53 -41
l-369 -645h-129z" />
    <glyph glyph-name="threequarters" unicode="&#xbe;" horiz-adv-x="1679" 
d="M627 778q0 -111 -79 -172t-210 -61q-105 0 -234 55v88q127 -67 232 -67q90 0 142 42t52 115q0 83 -68 123q-70 41 -181 41h-68v78h68q87 0 158 38t71 130q0 66 -47 104q-46 37 -121 37q-87 0 -219 -61v90q123 47 227 47q121 0 189 -58q69 -59 69 -147q0 -92 -50 -145
q-51 -54 -130 -66v-6q85 -11 141 -62q58 -53 58 -143zM1397 1393l-432 -666l-54 41l357 625h129zM1604 176h-84v-176h-99v176h-387v80l420 586h66v-584h84v-82zM858 686l53 -41l-368 -645h-127zM1421 258v404l-297 -404h297z" />
    <glyph glyph-name="questiondown" unicode="&#xbf;" horiz-adv-x="890" 
d="M643 948q0 -38 -27 -67t-63 -29q-37 0 -64 29q-26 27 -26 67q0 43 25 69q26 27 65 27q36 0 63 -28t27 -68zM70 8q0 120 40 204q41 86 106 129q66 43 135 63q71 20 143 20l18 268h92l19 -366q-186 0 -288 -69t-102 -243q0 -134 69 -205t202 -71q139 0 311 112v-153
q-177 -86 -338 -86q-189 0 -298 106t-109 291z" />
    <glyph glyph-name="Agrave" unicode="&#xc0;" horiz-adv-x="1167" 
d="M614 1495l-284 115q-54 19 -54 69q0 35 22 55q20 19 56 19q37 0 66 -20l231 -162zM1106 39v-39h-164l-117 391h-489l-117 -391h-158v39l416 1364h215zM784 528l-125 418q-46 146 -77 285h-2q-21 -103 -78 -285l-125 -418h407z" />
    <glyph glyph-name="Aacute" unicode="&#xc1;" horiz-adv-x="1167" 
d="M557 1495l-39 76l234 162q29 20 63 20q36 0 56 -19q22 -20 22 -55q0 -52 -53 -69zM1106 39v-39h-164l-117 391h-489l-117 -391h-158v39l416 1364h215zM784 528l-125 418q-46 146 -77 285h-2q-21 -103 -78 -285l-125 -418h407z" />
    <glyph glyph-name="Acircumflex" unicode="&#xc2;" horiz-adv-x="1167" 
d="M426 1495h-117l246 340h61l246 -340h-119l-155 188zM1106 39v-39h-164l-117 391h-489l-117 -391h-158v39l416 1364h215zM784 528l-125 418q-46 146 -77 285h-2q-21 -103 -78 -285l-125 -418h407z" />
    <glyph glyph-name="Atilde" unicode="&#xc3;" horiz-adv-x="1167" 
d="M457 1604q-33 0 -53 -18q-19 -17 -23 -35q-4 -14 -10 -56h-99q10 117 62 184q51 66 125 66q46 0 139 -44t123 -44q33 0 49 19q17 20 29 61h96q-18 -221 -160 -221q-52 0 -152 44t-126 44zM1106 39v-39h-164l-117 391h-489l-117 -391h-158v39l416 1364h215zM784 528
l-125 418q-46 146 -77 285h-2q-21 -103 -78 -285l-125 -418h407z" />
    <glyph glyph-name="Adieresis" unicode="&#xc4;" horiz-adv-x="1167" 
d="M399 1561q-39 0 -64 24q-26 24 -26 66q0 38 26 64t64 26q36 0 64 -26q26 -25 26 -64q0 -42 -25 -66t-65 -24zM770 1561q-38 0 -64 24t-26 66q0 38 26 64t64 26q37 0 63 -26q25 -25 25 -64q0 -42 -25 -66t-63 -24zM1106 39v-39h-164l-117 391h-489l-117 -391h-158v39
l416 1364h215zM784 528l-125 418q-46 146 -77 285h-2q-21 -103 -78 -285l-125 -418h407z" />
    <glyph glyph-name="Aring" unicode="&#xc5;" horiz-adv-x="1167" 
d="M584 1487q-77 0 -121 40q-45 41 -45 115q0 76 45 117q46 41 121 41t119 -41q45 -42 45 -117q0 -73 -45 -115q-43 -40 -119 -40zM584 1743q-99 0 -99 -101q0 -98 99 -98q96 0 96 98q0 101 -96 101zM1106 39v-39h-164l-117 391h-489l-117 -391h-158v39l416 1364h215z
M784 528l-125 418q-46 146 -77 285h-2q-21 -103 -78 -285l-125 -418h407z" />
    <glyph glyph-name="AE" unicode="&#xc6;" horiz-adv-x="1599" 
d="M1509 137l-20 -137h-752v391h-381l-172 -391h-155v39l600 1354h868v-138h-596v-475h506v-137h-506v-158l19 -94h-19v-254h608zM737 528v727h-22q-37 -118 -105 -284l-194 -443h321z" />
    <glyph glyph-name="Ccedilla" unicode="&#xc7;" horiz-adv-x="1148" 
d="M1077 229l-20 -159q-174 -79 -350 -90v-46q77 0 129 -43q53 -44 53 -120q0 -89 -51 -135q-50 -46 -133 -46q-82 0 -134 23v70q63 -23 105 -23q112 0 112 111q0 53 -37 78q-38 26 -126 26v105q-519 24 -519 716q0 717 556 717q203 0 395 -90v-149q-191 112 -395 112
q-111 0 -188 -44t-118 -127q-40 -81 -58 -184q-17 -96 -17 -235q0 -138 17 -234q18 -103 58 -184q41 -83 118 -127q79 -45 188 -45q229 0 415 123z" />
    <glyph glyph-name="Egrave" unicode="&#xc8;" horiz-adv-x="1097" 
d="M616 1495l-284 115q-53 18 -53 69q0 35 21 55q20 19 56 19q37 0 66 -20l231 -162zM334 1255v-475h569v-137h-569v-506h670l-21 -137h-813v1393h825v-138h-661z" />
    <glyph glyph-name="Eacute" unicode="&#xc9;" horiz-adv-x="1097" 
d="M520 1571l234 162q29 20 63 20q36 0 56 -19q22 -20 22 -55q0 -52 -53 -69l-283 -115zM334 1255v-475h569v-137h-569v-506h670l-21 -137h-813v1393h825v-138h-661z" />
    <glyph glyph-name="Ecircumflex" unicode="&#xca;" horiz-adv-x="1097" 
d="M311 1495l246 340h61l246 -340h-119l-155 188l-162 -188h-117zM334 1255v-475h569v-137h-569v-506h670l-21 -137h-813v1393h825v-138h-661z" />
    <glyph glyph-name="Edieresis" unicode="&#xcb;" horiz-adv-x="1097" 
d="M311 1651q0 38 26 64t64 26q36 0 64 -26q27 -25 27 -64q0 -42 -26 -66t-65 -24t-64 24q-26 24 -26 66zM682 1651q0 38 26 64t64 26q37 0 63 -26q25 -25 25 -64q0 -42 -25 -66t-63 -24t-64 24t-26 66zM334 1255v-475h569v-137h-569v-506h670l-21 -137h-813v1393h825v-138
h-661z" />
    <glyph glyph-name="Igrave" unicode="&#xcc;" horiz-adv-x="505" 
d="M283 1495l-285 115q-53 18 -53 69q0 35 21 55q20 19 57 19q36 0 65 -20l231 -162zM334 1393v-1393h-164v1393h164z" />
    <glyph glyph-name="Iacute" unicode="&#xcd;" horiz-adv-x="505" 
d="M186 1571l234 162q29 20 63 20q37 0 57 -19q21 -20 21 -55q0 -52 -53 -69l-283 -115zM334 1393v-1393h-164v1393h164z" />
    <glyph glyph-name="Icircumflex" unicode="&#xce;" horiz-adv-x="505" 
d="M-23 1495l246 340h62l245 -340h-118l-156 188l-162 -188h-117zM334 1393v-1393h-164v1393h164z" />
    <glyph glyph-name="Idieresis" unicode="&#xcf;" horiz-adv-x="505" 
d="M-23 1651q0 38 26 64t65 26q35 0 63 -26q27 -25 27 -64q0 -42 -26 -66q-25 -24 -64 -24q-40 0 -65 24q-26 24 -26 66zM348 1651q0 38 26 64t64 26q37 0 63 -26q25 -25 25 -64q0 -42 -25 -66t-63 -24t-64 24t-26 66zM334 1393v-1393h-164v1393h164z" />
    <glyph glyph-name="Eth" unicode="&#xd0;" horiz-adv-x="1300" 
d="M174 1393h473q545 0 545 -686q0 -707 -545 -707h-473v631h-147v131h147v631zM338 137h309q205 0 288 134t83 436q0 299 -82 423q-83 125 -289 125h-309v-493h348v-131h-348v-494z" />
    <glyph glyph-name="Ntilde" unicode="&#xd1;" horiz-adv-x="1288" 
d="M416 1495h-99q10 117 62 184q51 66 125 66q46 0 139 -44t123 -44q33 0 49 19q17 20 29 61h96q-18 -221 -160 -221q-52 0 -152 44t-126 44q-32 0 -52 -18t-24 -35q-4 -14 -10 -56zM334 1393l627 -1092h10q-10 164 -10 447v645h155v-1393h-164l-626 1092h-11
q11 -181 11 -447v-645h-156v1393h164z" />
    <glyph glyph-name="Ograve" unicode="&#xd2;" horiz-adv-x="1302" 
d="M686 1495l-285 115q-53 18 -53 69q0 35 22 55q20 19 56 19q37 0 66 -20l231 -162zM651 -20q-545 0 -545 727q0 706 545 706t545 -706q0 -342 -131 -535q-131 -192 -414 -192zM651 1286q-204 0 -287 -138q-83 -139 -83 -441q0 -306 84 -453q85 -148 286 -148
q202 0 287 148q84 147 84 453q0 302 -83 441q-83 138 -288 138z" />
    <glyph glyph-name="Oacute" unicode="&#xd3;" horiz-adv-x="1302" 
d="M590 1571l233 162q29 20 64 20q36 0 56 -19q22 -20 22 -55q0 -52 -54 -69l-282 -115zM651 -20q-545 0 -545 727q0 706 545 706t545 -706q0 -342 -131 -535q-131 -192 -414 -192zM651 1286q-204 0 -287 -138q-83 -139 -83 -441q0 -306 84 -453q85 -148 286 -148
q202 0 287 148q84 147 84 453q0 302 -83 441q-83 138 -288 138z" />
    <glyph glyph-name="Ocircumflex" unicode="&#xd4;" horiz-adv-x="1302" 
d="M381 1495l246 340h61l246 -340h-119l-156 188l-161 -188h-117zM651 -20q-545 0 -545 727q0 706 545 706t545 -706q0 -342 -131 -535q-131 -192 -414 -192zM651 1286q-204 0 -287 -138q-83 -139 -83 -441q0 -306 84 -453q85 -148 286 -148q202 0 287 148q84 147 84 453
q0 302 -83 441q-83 138 -288 138z" />
    <glyph glyph-name="Otilde" unicode="&#xd5;" horiz-adv-x="1302" 
d="M442 1495h-98q10 117 62 184q51 66 124 66q47 0 140 -44t123 -44q33 0 49 19q15 18 28 61h97q-18 -221 -160 -221q-53 0 -153 44t-126 44q-32 0 -52 -18q-19 -17 -23 -35q-6 -25 -11 -56zM651 -20q-545 0 -545 727q0 706 545 706t545 -706q0 -342 -131 -535
q-131 -192 -414 -192zM651 1286q-204 0 -287 -138q-83 -139 -83 -441q0 -306 84 -453t286 -147q203 0 287 147t84 453q0 302 -83 441q-83 138 -288 138z" />
    <glyph glyph-name="Odieresis" unicode="&#xd6;" horiz-adv-x="1302" 
d="M381 1651q0 38 26 64t64 26q36 0 64 -26q26 -25 26 -64q0 -42 -25 -66t-65 -24q-39 0 -64 24q-26 24 -26 66zM752 1651q0 39 25 64q26 26 65 26q36 0 62 -26t26 -64q0 -42 -26 -66t-62 -24q-40 0 -65 24t-25 66zM651 -20q-545 0 -545 727q0 706 545 706t545 -706
q0 -342 -131 -535q-131 -192 -414 -192zM651 1286q-204 0 -287 -138q-83 -139 -83 -441q0 -306 84 -453q85 -148 286 -148q202 0 287 148q84 147 84 453q0 302 -83 441q-83 138 -288 138z" />
    <glyph glyph-name="multiply" unicode="&#xd7;" horiz-adv-x="915" 
d="M459 467l-248 -248l-78 78l248 248l-248 246l78 77l248 -247l246 247l77 -77l-247 -246l247 -248l-77 -78z" />
    <glyph glyph-name="Oslash" unicode="&#xd8;" horiz-adv-x="1302" 
d="M1100 1516l-99 -220q195 -168 195 -589q0 -342 -131 -535q-131 -192 -414 -192q-123 0 -221 38l-63 -141h-142l92 207q-211 174 -211 623q0 706 545 706q135 0 242 -45l65 148h142zM281 707q0 -340 100 -480l457 1018q-77 41 -187 41q-204 0 -287 -138q-83 -139 -83 -441
zM651 106q202 0 287 148q84 147 84 453q0 308 -86 444l-451 -1010q70 -35 166 -35z" />
    <glyph glyph-name="Ugrave" unicode="&#xd9;" horiz-adv-x="1265" 
d="M649 1495l-284 115q-54 19 -54 69q0 35 22 55q20 19 56 19q37 0 66 -20l231 -162zM635 -20q-473 0 -473 497v916h164v-916q0 -362 309 -362q307 0 307 362v916h164v-916q0 -256 -124 -377q-123 -120 -347 -120z" />
    <glyph glyph-name="Uacute" unicode="&#xda;" horiz-adv-x="1265" 
d="M553 1571l233 162q29 20 64 20q36 0 56 -19q22 -20 22 -55q0 -52 -54 -69l-282 -115zM635 -20q-473 0 -473 497v916h164v-916q0 -362 309 -362q307 0 307 362v916h164v-916q0 -256 -124 -377q-123 -120 -347 -120z" />
    <glyph glyph-name="Ucircumflex" unicode="&#xdb;" horiz-adv-x="1265" 
d="M342 1495l246 340h61l246 -340h-119l-155 188l-162 -188h-117zM635 -20q-473 0 -473 497v916h164v-916q0 -362 309 -362q307 0 307 362v916h164v-916q0 -256 -124 -377q-123 -120 -347 -120z" />
    <glyph glyph-name="Udieresis" unicode="&#xdc;" horiz-adv-x="1265" 
d="M344 1651q0 38 26 64t64 26q36 0 64 -26q26 -25 26 -64q0 -42 -25 -66q-26 -24 -65 -24q-38 0 -64 24t-26 66zM715 1651q0 39 25 64q26 26 65 26q36 0 62 -26t26 -64q0 -42 -26 -66q-25 -24 -62 -24q-39 0 -65 24q-25 24 -25 66zM635 -20q-473 0 -473 497v916h164v-916
q0 -362 309 -362q307 0 307 362v916h164v-916q0 -256 -124 -377q-123 -120 -347 -120z" />
    <glyph glyph-name="Yacute" unicode="&#xdd;" horiz-adv-x="1120" 
d="M543 1495l-39 76l233 162q29 20 64 20q36 0 56 -19q22 -20 22 -55q0 -52 -54 -69zM1061 1354l-418 -865v-489h-164v479l-422 875v39h164l238 -494q35 -70 104 -244h2q47 128 105 246l235 492h156v-39z" />
    <glyph glyph-name="Thorn" unicode="&#xde;" horiz-adv-x="1161" 
d="M334 1098h295q234 0 348 -109q113 -108 113 -282q0 -180 -114 -297t-347 -117h-295v-293h-164v1393h164v-295zM334 430h295q157 0 222 67q64 65 64 210q0 140 -63 197t-223 57h-295v-531z" />
    <glyph glyph-name="germandbls" unicode="&#xdf;" horiz-adv-x="1146" 
d="M182 1024v41q0 224 118 327t288 103q158 0 255 -75t97 -216q0 -79 -39 -151q-39 -73 -87 -113t-87 -84t-39 -74q0 -36 41 -74t98 -77q62 -42 116 -84q59 -45 99 -114q41 -70 41 -148q0 -151 -101 -228t-243 -77q-126 0 -233 40l-19 142q135 -62 246 -62q106 0 152 55
q45 54 45 119q0 62 -38 120t-93 98q-18 14 -55 40.5t-56 39.5q-56 41 -93 88q-38 49 -38 102t35 103q34 48 76 86q40 36 75 101t35 144q0 102 -61 141t-144 39q-237 0 -237 -332v-1044h-154v915h-127v52z" />
    <glyph glyph-name="agrave" unicode="&#xe0;" horiz-adv-x="1001" 
d="M508 1126l-285 115q-53 18 -53 70q0 35 21 54q20 19 57 19q36 0 65 -20l232 -162zM670 133l-125 -106q-74 -47 -187 -47q-118 0 -200 69t-82 184q0 126 85 189q86 63 238 96l271 53v144q0 99 -43 152q-44 55 -178 55q-143 0 -285 -62l-19 23l50 123q140 38 286 38
q158 0 251 -69t93 -199v-594q0 -86 68 -86q31 0 65 15v-93q-54 -38 -133 -38q-71 0 -110 44t-45 109zM670 487l-312 -79q-131 -33 -131 -162q0 -74 46 -111t124 -37q154 0 273 131v258z" />
    <glyph glyph-name="aacute" unicode="&#xe1;" horiz-adv-x="1001" 
d="M412 1202l233 162q29 20 64 20q36 0 56 -19q21 -19 21 -54q0 -53 -53 -70l-282 -115zM670 133l-125 -106q-74 -47 -187 -47q-118 0 -200 69t-82 184q0 126 85 189q86 63 238 96l271 53v144q0 99 -43 152q-44 55 -178 55q-143 0 -285 -62l-19 23l50 123q140 38 286 38
q158 0 251 -69t93 -199v-594q0 -86 68 -86q31 0 65 15v-93q-54 -38 -133 -38q-71 0 -110 44t-45 109zM670 487l-312 -79q-131 -33 -131 -162q0 -74 46 -111t124 -37q154 0 273 131v258z" />
    <glyph glyph-name="acircumflex" unicode="&#xe2;" horiz-adv-x="1001" 
d="M203 1126l246 340h61l246 -340h-119l-156 189l-162 -189h-116zM670 133l-125 -106q-74 -47 -187 -47q-118 0 -200 69t-82 184q0 126 85 189q86 63 238 96l271 53v144q0 99 -43 152q-44 55 -178 55q-143 0 -285 -62l-19 23l50 123q140 38 286 38q158 0 251 -69t93 -199
v-594q0 -86 68 -86q31 0 65 15v-93q-54 -38 -133 -38q-71 0 -110 44t-45 109zM670 487l-312 -79q-131 -33 -131 -162q0 -74 46 -111t124 -37q154 0 273 131v258z" />
    <glyph glyph-name="atilde" unicode="&#xe3;" horiz-adv-x="1001" 
d="M264 1126h-98q11 120 61 185t125 65q47 0 140 -44t122 -44q33 0 50 20q16 19 28 60h96q-18 -221 -159 -221q-53 0 -153 44t-126 44q-34 0 -52 -17q-20 -18 -24 -35q-3 -13 -10 -57zM670 133l-125 -106q-74 -47 -187 -47q-118 0 -200 69t-82 184q0 126 85 189
q86 63 238 96l271 53v144q0 99 -43 152q-44 55 -178 55q-143 0 -285 -62l-19 23l50 123q140 38 286 38q158 0 251 -69t93 -199v-594q0 -86 68 -86q31 0 65 15v-93q-54 -38 -133 -38q-71 0 -110 44t-45 109zM670 487l-312 -79q-131 -33 -131 -162q0 -74 46 -111t124 -37
q154 0 273 131v258z" />
    <glyph glyph-name="adieresis" unicode="&#xe4;" horiz-adv-x="1001" 
d="M203 1282q0 40 25 65t65 25q37 0 63 -25q27 -25 27 -65q0 -41 -26 -65q-27 -25 -64 -25q-38 0 -65 25q-25 24 -25 65zM573 1282q0 39 26 65q25 25 65 25q37 0 62 -25q26 -26 26 -65q0 -41 -26 -65q-27 -25 -62 -25q-38 0 -65 25q-26 24 -26 65zM670 133l-125 -106
q-74 -47 -187 -47q-118 0 -200 69t-82 184q0 126 85 189q86 63 238 96l271 53v144q0 99 -43 152q-44 55 -178 55q-143 0 -285 -62l-19 23l50 123q140 38 286 38q158 0 251 -69t93 -199v-594q0 -86 68 -86q31 0 65 15v-93q-54 -38 -133 -38q-71 0 -110 44t-45 109zM670 487
l-312 -79q-131 -33 -131 -162q0 -74 46 -111t124 -37q154 0 273 131v258z" />
    <glyph glyph-name="aring" unicode="&#xe5;" horiz-adv-x="1001" 
d="M311 1274q0 76 45 117q46 41 121 41q76 0 120 -41t44 -117q0 -75 -44 -116q-43 -40 -120 -40t-121 40q-45 40 -45 116zM379 1274q0 -98 98 -98q96 0 96 98q0 100 -96 100q-98 0 -98 -100zM670 133l-125 -106q-74 -47 -187 -47q-118 0 -200 69t-82 184q0 126 85 189
q86 63 238 96l271 53v144q0 99 -43 152q-44 55 -178 55q-143 0 -285 -62l-19 23l50 123q140 38 286 38q158 0 251 -69t93 -199v-594q0 -86 68 -86q31 0 65 15v-93q-54 -38 -133 -38q-71 0 -110 44t-45 109zM670 487l-312 -79q-131 -33 -131 -162q0 -74 46 -111t124 -37
q154 0 273 131v258z" />
    <glyph glyph-name="ae" unicode="&#xe6;" horiz-adv-x="1597" 
d="M1497 664q0 -98 -18 -189h-672q7 -187 97 -281q89 -94 237 -94q71 0 169 27q97 27 163 66v-132q-147 -81 -355 -81q-270 0 -387 219l-194 -172q-74 -47 -183 -47q-119 0 -196 68q-78 69 -78 185q0 126 85 190q87 66 228 95l269 53v144q0 97 -44 152t-178 55
q-142 0 -284 -62l-17 23l47 123q140 38 287 38q228 0 305 -141q117 141 336 141q58 0 108 -9q48 -9 102 -35q51 -25 89 -66q36 -39 61 -111q23 -66 23 -159zM809 571l532 9q7 58 7 84q0 258 -226 258q-150 0 -227 -87q-75 -86 -86 -264zM393 98q148 0 307 166
q-36 102 -38 221l-310 -77q-119 -29 -119 -162q0 -74 43 -111t117 -37z" />
    <glyph glyph-name="ccedilla" unicode="&#xe7;" horiz-adv-x="952" 
d="M252 512q0 -412 301 -412q143 0 303 93v-132q-130 -73 -278 -79v-48q77 0 129 -43q53 -44 53 -120q0 -89 -51 -135q-50 -46 -134 -46q-81 0 -133 23v70q63 -23 105 -23q112 0 112 111q0 53 -37 78q-38 26 -126 26v107q-193 12 -295 150q-103 139 -103 380q0 250 122 392
q121 140 341 140q159 0 303 -51l-26 -108l-25 -19q-127 58 -254 58q-151 0 -229 -116t-78 -296z" />
    <glyph glyph-name="egrave" unicode="&#xe8;" 
d="M600 1126l-285 115q-53 18 -53 70q0 34 22 54q20 19 56 19q37 0 66 -20l231 -162zM944 664q0 -82 -18 -189h-674q7 -187 97 -281q89 -94 237 -94q72 0 169 27t163 66v-132q-147 -81 -353 -81q-212 0 -339 142q-128 143 -128 390q0 250 122 392q121 140 341 140
q73 0 133 -16q62 -17 121 -55q60 -39 94 -118q35 -81 35 -191zM254 571l534 9q5 37 5 84q0 258 -226 258q-290 0 -313 -351z" />
    <glyph glyph-name="eacute" unicode="&#xe9;" 
d="M543 1126l-39 76l233 162q29 20 64 20q36 0 56 -19q22 -20 22 -54q0 -53 -54 -70zM944 664q0 -82 -18 -189h-674q7 -187 97 -281q89 -94 237 -94q72 0 169 27t163 66v-132q-147 -81 -353 -81q-212 0 -339 142q-128 143 -128 390q0 250 122 392q121 140 341 140
q73 0 133 -16q62 -17 121 -55q60 -39 94 -118q35 -81 35 -191zM254 571l534 9q5 37 5 84q0 258 -226 258q-290 0 -313 -351z" />
    <glyph glyph-name="ecircumflex" unicode="&#xea;" 
d="M412 1126h-117l246 340h61l246 -340h-119l-156 189zM944 664q0 -82 -18 -189h-674q7 -187 97 -281q89 -94 237 -94q72 0 169 27t163 66v-132q-147 -81 -353 -81q-212 0 -339 142q-128 143 -128 390q0 250 122 392q121 140 341 140q73 0 133 -16q62 -17 121 -55
q60 -39 94 -118q35 -81 35 -191zM254 571l534 9q5 37 5 84q0 258 -226 258q-290 0 -313 -351z" />
    <glyph glyph-name="edieresis" unicode="&#xeb;" 
d="M385 1192q-37 0 -64 25q-26 24 -26 65q0 39 26 65q25 25 64 25q38 0 64 -25t26 -65q0 -41 -25 -65q-27 -25 -65 -25zM756 1192q-38 0 -65 25q-25 24 -25 65q0 40 25 65t65 25q37 0 62 -25q26 -26 26 -65q0 -41 -26 -65q-27 -25 -62 -25zM944 664q0 -82 -18 -189h-674
q7 -187 97 -281q89 -94 237 -94q72 0 169 27t163 66v-132q-147 -81 -353 -81q-212 0 -339 142q-128 143 -128 390q0 250 122 392q121 140 341 140q73 0 133 -16q62 -17 121 -55q60 -39 94 -118q35 -81 35 -191zM254 571l534 9q5 37 5 84q0 258 -226 258q-290 0 -313 -351z
" />
    <glyph glyph-name="igrave" unicode="&#xec;" horiz-adv-x="458" 
d="M258 1126l-285 115q-53 18 -53 70q0 34 22 54q20 19 56 19t65 -20l232 -162zM307 1024v-1024h-155v1024h155z" />
    <glyph glyph-name="iacute" unicode="&#xed;" horiz-adv-x="458" 
d="M162 1202l233 162q29 20 64 20q36 0 56 -19q22 -20 22 -54q0 -53 -54 -70l-282 -115zM307 1024v-1024h-155v1024h155z" />
    <glyph glyph-name="icircumflex" unicode="&#xee;" horiz-adv-x="458" 
d="M-47 1126l246 340h61l246 -340h-119l-156 189l-161 -189h-117zM307 1024v-1024h-155v1024h155z" />
    <glyph glyph-name="idieresis" unicode="&#xef;" horiz-adv-x="458" 
d="M-47 1282q0 40 25 65t65 25q37 0 63 -25q27 -25 27 -65q0 -41 -25 -65q-27 -25 -65 -25t-65 25q-25 24 -25 65zM324 1282q0 40 25 65t65 25q37 0 62 -25q26 -26 26 -65q0 -41 -26 -65q-27 -25 -62 -25q-38 0 -65 25q-25 24 -25 65zM307 1024v-1024h-155v1024h155z" />
    <glyph glyph-name="eth" unicode="&#xf0;" horiz-adv-x="1087" 
d="M924 1309l-209 -90q270 -247 270 -598q0 -641 -453 -641q-149 0 -250 76q-101 75 -142 186q-40 107 -40 237q0 484 426 484q106 0 242 -52q-63 133 -190 250l-256 -108l-37 84l213 90q-104 81 -271 166h244q95 -54 164 -107l252 107zM532 102q167 0 234 135
q65 131 65 384q0 79 -16 153q-133 64 -252 64q-309 0 -309 -359q0 -159 70 -269q69 -108 208 -108z" />
    <glyph glyph-name="ntilde" unicode="&#xf1;" horiz-adv-x="1054" 
d="M319 1126h-98q10 118 62 185q50 65 125 65q46 0 139 -44t123 -44q32 0 49 20t29 60h96q-18 -221 -160 -221q-53 0 -153 44t-125 44q-35 0 -53 -17q-19 -17 -23 -35q-6 -23 -11 -57zM307 905h4l101 84q101 55 213 55q129 0 206 -71q78 -72 78 -213v-760h-155v733
q0 182 -158 182q-126 0 -289 -100v-815h-155v1024h145z" />
    <glyph glyph-name="ograve" unicode="&#xf2;" horiz-adv-x="1064" 
d="M557 1126l-285 115q-53 18 -53 70q0 34 22 54q20 19 56 19t65 -20l232 -162zM532 -20q-432 0 -432 532t432 532q431 0 431 -532t-431 -532zM532 922q-152 0 -215 -101t-63 -309t63 -309t215 -101q150 0 213 101q64 102 64 309t-64 309q-63 101 -213 101z" />
    <glyph glyph-name="oacute" unicode="&#xf3;" horiz-adv-x="1064" 
d="M461 1202l233 162q29 20 64 20q36 0 56 -19q22 -20 22 -54q0 -53 -54 -70l-282 -115zM532 -20q-432 0 -432 532t432 532q431 0 431 -532t-431 -532zM532 922q-152 0 -215 -101t-63 -309t63 -309t215 -101q150 0 213 101q64 102 64 309t-64 309q-63 101 -213 101z" />
    <glyph glyph-name="ocircumflex" unicode="&#xf4;" horiz-adv-x="1064" 
d="M252 1126l246 340h61l246 -340h-119l-156 189l-161 -189h-117zM532 -20q-432 0 -432 532t432 532q431 0 431 -532t-431 -532zM532 922q-152 0 -215 -101t-63 -309t63 -309t215 -101q150 0 213 101q64 102 64 309t-64 309q-63 101 -213 101z" />
    <glyph glyph-name="otilde" unicode="&#xf5;" horiz-adv-x="1064" 
d="M313 1126h-98q11 120 61 185t125 65q47 0 140 -44t123 -44q32 0 49 20q16 19 28 60h97q-18 -221 -160 -221q-53 0 -153 44t-126 44q-34 0 -52 -17q-19 -17 -23 -35q-6 -23 -11 -57zM532 -20q-432 0 -432 532t432 532q431 0 431 -532t-431 -532zM532 922q-152 0 -215 -101
t-63 -309t63 -309t215 -101q150 0 213 101q64 102 64 309t-64 309q-63 101 -213 101z" />
    <glyph glyph-name="odieresis" unicode="&#xf6;" horiz-adv-x="1064" 
d="M252 1282q0 39 26 65q25 25 64 25q38 0 64 -25t26 -65q0 -41 -25 -65q-27 -25 -65 -25q-37 0 -64 25q-26 24 -26 65zM623 1282q0 40 25 65t65 25q37 0 62 -25q26 -26 26 -65q0 -41 -26 -65q-27 -25 -62 -25q-38 0 -65 25q-25 24 -25 65zM532 -20q-432 0 -432 532t432 532
q431 0 431 -532t-431 -532zM532 922q-152 0 -215 -101t-63 -309t63 -309t215 -101q150 0 213 101q64 102 64 309t-64 309q-63 101 -213 101z" />
    <glyph glyph-name="divide" unicode="&#xf7;" horiz-adv-x="960" 
d="M393 856q0 40 26 68q25 26 64 26q35 0 62 -27q26 -26 26 -67t-26 -68q-27 -28 -62 -28q-39 0 -64 27q-26 28 -26 69zM137 487v111h686v-111h-686zM393 231q0 39 26 67t64 28q34 0 62 -28q26 -26 26 -67q0 -42 -25 -68q-26 -28 -63 -28q-38 0 -64 28t-26 68z" />
    <glyph glyph-name="oslash" unicode="&#xf8;" horiz-adv-x="1064" 
d="M952 1085l-104 -165q115 -136 115 -408q0 -532 -431 -532q-139 0 -235 57l-61 -98h-121l102 163q-117 135 -117 410q0 532 432 532q144 0 238 -59l61 100h121zM254 512q0 -177 45 -276l399 636q-62 50 -166 50q-152 0 -215 -101t-63 -309zM532 102q150 0 213 101
q64 102 64 309q0 182 -45 274l-397 -636q68 -48 165 -48z" />
    <glyph glyph-name="ugrave" unicode="&#xf9;" horiz-adv-x="1056" 
d="M555 1126l-285 115q-53 18 -53 70q0 34 22 54q20 19 56 19t65 -20l232 -162zM750 119h-5l-100 -84q-101 -55 -213 -55q-130 0 -207 71q-78 72 -78 213v760h156v-733q0 -182 158 -182q126 0 289 100v815h155v-1024h-145z" />
    <glyph glyph-name="uacute" unicode="&#xfa;" horiz-adv-x="1056" 
d="M459 1202l233 162q29 20 64 20q36 0 56 -19q22 -20 22 -54q0 -53 -54 -70l-282 -115zM750 119h-5l-100 -84q-101 -55 -213 -55q-130 0 -207 71q-78 72 -78 213v760h156v-733q0 -182 158 -182q126 0 289 100v815h155v-1024h-145z" />
    <glyph glyph-name="ucircumflex" unicode="&#xfb;" horiz-adv-x="1056" 
d="M250 1126l246 340h61l246 -340h-119l-156 189l-161 -189h-117zM750 119h-5l-100 -84q-101 -55 -213 -55q-130 0 -207 71q-78 72 -78 213v760h156v-733q0 -182 158 -182q126 0 289 100v815h155v-1024h-145z" />
    <glyph glyph-name="udieresis" unicode="&#xfc;" horiz-adv-x="1056" 
d="M250 1282q0 40 25 65t65 25q37 0 63 -25q27 -25 27 -65q0 -41 -26 -65q-27 -25 -64 -25q-38 0 -65 25q-25 24 -25 65zM621 1282q0 40 25 65t65 25q37 0 62 -25q26 -26 26 -65q0 -41 -26 -65q-27 -25 -62 -25q-38 0 -65 25q-25 24 -25 65zM750 119h-5l-100 -84
q-101 -55 -213 -55q-130 0 -207 71q-78 72 -78 213v760h156v-733q0 -182 158 -182q126 0 289 100v815h155v-1024h-145z" />
    <glyph glyph-name="yacute" unicode="&#xfd;" horiz-adv-x="960" 
d="M410 1202l233 162q29 20 64 20q36 0 56 -19q21 -19 21 -54q0 -53 -53 -70l-282 -115zM66 985v39h143l272 -868h4l265 868h143v-39l-256 -792q-28 -86 -63 -169q-43 -102 -59 -134q-26 -54 -64 -112q-43 -66 -57 -86q-20 -28 -58 -79q-44 -58 -49 -64h-137v39
q171 205 256 371z" />
    <glyph glyph-name="thorn" unicode="&#xfe;" horiz-adv-x="1085" 
d="M618 1044q178 0 272 -148q95 -149 95 -384q0 -250 -115 -392q-113 -140 -303 -140q-141 0 -260 90v-521h-155v1844l120 82h35v-584l125 106q74 47 186 47zM543 90q288 0 288 422q0 220 -71 315q-73 97 -217 97q-23 0 -50 -8q-31 -9 -46 -16q-19 -9 -44 -26
q-20 -14 -35 -25q-4 -3 -34 -29q-6 -5 -12.5 -10.5t-10 -8.5t-4.5 -4v-621q122 -86 236 -86z" />
    <glyph glyph-name="ydieresis" unicode="&#xff;" horiz-adv-x="960" 
d="M201 1282q0 40 25 65t65 25q37 0 63 -25q27 -25 27 -65q0 -41 -26 -65q-27 -25 -64 -25q-38 0 -65 25q-25 24 -25 65zM571 1282q0 39 26 65q25 25 65 25q37 0 62 -25q26 -26 26 -65q0 -41 -26 -65q-27 -25 -62 -25q-38 0 -65 25q-26 24 -26 65zM66 985v39h143l272 -868h4
l265 868h143v-39l-256 -792q-28 -86 -63 -169q-43 -102 -59 -134q-26 -54 -64 -112q-43 -66 -57 -86q-20 -28 -58 -79q-44 -58 -49 -64h-137v39q171 205 256 371z" />
    <glyph glyph-name="Amacron" unicode="&#x100;" horiz-adv-x="1167" 
d="M877 1538h-582v96h582v-96zM1106 39v-39h-164l-117 391h-489l-117 -391h-158v39l416 1364h215zM784 528l-125 418q-46 146 -77 285h-2q-21 -103 -78 -285l-125 -418h407z" />
    <glyph glyph-name="amacron" unicode="&#x101;" horiz-adv-x="1001" 
d="M188 1169v97h582v-97h-582zM670 133l-125 -106q-74 -47 -187 -47q-118 0 -200 69t-82 184q0 126 85 189q86 63 238 96l271 53v144q0 99 -43 152q-44 55 -178 55q-143 0 -285 -62l-19 23l50 123q140 38 286 38q158 0 251 -69t93 -199v-594q0 -86 68 -86q31 0 65 15v-93
q-54 -38 -133 -38q-71 0 -110 44t-45 109zM670 487l-312 -79q-131 -33 -131 -162q0 -74 46 -111t124 -37q154 0 273 131v258z" />
    <glyph glyph-name="Abreve" unicode="&#x102;" horiz-adv-x="1167" 
d="M584 1495q-124 0 -185 82t-61 231h100q6 -64 18 -108t43 -79q31 -36 85 -36q72 0 103 61q29 59 40 162h100q0 -149 -61 -231t-182 -82zM1106 39v-39h-164l-117 391h-489l-117 -391h-158v39l416 1364h215zM784 528l-125 418q-46 146 -77 285h-2q-21 -103 -78 -285
l-125 -418h407z" />
    <glyph glyph-name="abreve" unicode="&#x103;" horiz-adv-x="1001" 
d="M477 1126q-123 0 -184 82q-62 83 -62 232h101q6 -71 17 -109q12 -44 43 -79t85 -35q74 0 104 60q29 58 40 163h100q0 -149 -62 -232q-61 -82 -182 -82zM670 133l-125 -106q-74 -47 -187 -47q-118 0 -200 69t-82 184q0 126 85 189q86 63 238 96l271 53v144q0 99 -43 152
q-44 55 -178 55q-143 0 -285 -62l-19 23l50 123q140 38 286 38q158 0 251 -69t93 -199v-594q0 -86 68 -86q31 0 65 15v-93q-54 -38 -133 -38q-71 0 -110 44t-45 109zM670 487l-312 -79q-131 -33 -131 -162q0 -74 46 -111t124 -37q154 0 273 131v258z" />
    <glyph glyph-name="Aogonek" unicode="&#x104;" horiz-adv-x="1167" 
d="M1069 -326q45 0 90 17v-56q-55 -45 -137 -45q-71 0 -118 44q-46 43 -46 114q0 141 139 252h-55l-117 391h-489l-117 -391h-158v39l416 1364h215l414 -1364v-39h-47q-94 -100 -94 -209q0 -55 26 -85q27 -32 78 -32zM784 528l-125 418q-46 146 -77 285h-2
q-21 -103 -78 -285l-125 -418h407z" />
    <glyph glyph-name="aogonek" unicode="&#x105;" horiz-adv-x="1001" 
d="M883 -326q45 0 90 17v-56q-55 -45 -137 -45q-71 0 -118 44q-46 43 -46 114q0 129 119 236q-104 18 -121 149l-125 -106q-74 -47 -187 -47q-118 0 -200 69t-82 184q0 126 85 189q86 63 238 96l271 53v144q0 99 -43 152q-44 55 -178 55q-143 0 -285 -62l-19 23l50 123
q140 38 286 38q158 0 251 -69t93 -199v-594q0 -86 68 -86q31 0 65 15v-93q-45 -28 -102 -36q-78 -92 -78 -191q0 -53 27 -85t78 -32zM670 487l-312 -79q-131 -33 -131 -162q0 -74 46 -111t124 -37q154 0 273 131v258z" />
    <glyph glyph-name="Cacute" unicode="&#x106;" horiz-adv-x="1148" 
d="M584 1571l233 162q29 20 64 20q36 0 56 -19q21 -20 21 -55q0 -52 -53 -69l-282 -115zM106 696q0 717 556 717q203 0 395 -90v-149q-191 112 -395 112q-111 0 -188 -44t-118 -127q-40 -81 -58 -184q-17 -96 -17 -235q0 -138 17 -234q18 -103 58 -184q41 -83 118 -127
q79 -45 188 -45q229 0 415 123l-20 -159q-192 -90 -395 -90q-556 0 -556 716z" />
    <glyph glyph-name="cacute" unicode="&#x107;" horiz-adv-x="952" 
d="M467 1202l233 162q29 20 64 20q36 0 56 -19q22 -20 22 -54q0 -53 -54 -70l-282 -115zM559 924q-151 0 -229 -116t-78 -296q0 -412 301 -412q143 0 303 93v-132q-147 -81 -324 -81q-209 0 -321 139q-113 140 -113 393q0 250 122 392q121 140 341 140q159 0 303 -51
l-26 -108l-25 -19q-127 58 -254 58z" />
    <glyph glyph-name="Cdotaccent" unicode="&#x10a;" horiz-adv-x="1148" 
d="M557 1661q0 36 26 62t66 26t67 -27t27 -61q0 -37 -27 -63q-26 -25 -67 -25t-66 25q-26 26 -26 63zM106 696q0 717 556 717q203 0 395 -90v-149q-191 112 -395 112q-111 0 -188 -44t-118 -127q-40 -81 -58 -184q-17 -96 -17 -235q0 -138 17 -234q18 -103 58 -184
q41 -83 118 -127q79 -45 188 -45q229 0 415 123l-20 -159q-192 -90 -395 -90q-556 0 -556 716z" />
    <glyph glyph-name="cdotaccent" unicode="&#x10b;" horiz-adv-x="952" 
d="M440 1292q0 37 26 63q25 25 66 25t67 -26q28 -28 28 -62q0 -36 -28 -62t-67 -26q-40 0 -66 26t-26 62zM559 924q-151 0 -229 -116t-78 -296q0 -412 301 -412q143 0 303 93v-132q-147 -81 -324 -81q-209 0 -321 139q-113 140 -113 393q0 250 122 392q121 140 341 140
q159 0 303 -51l-26 -108l-25 -19q-127 58 -254 58z" />
    <glyph glyph-name="Ccaron" unicode="&#x10c;" horiz-adv-x="1148" 
d="M653 1647l156 188h119l-246 -340h-61l-246 340h117zM106 696q0 717 556 717q203 0 395 -90v-149q-191 112 -395 112q-111 0 -188 -44t-118 -127q-40 -81 -58 -184q-17 -96 -17 -235q0 -138 17 -234q18 -103 58 -184q41 -83 118 -127q79 -45 188 -45q229 0 415 123
l-20 -159q-192 -90 -395 -90q-556 0 -556 716z" />
    <glyph glyph-name="ccaron" unicode="&#x10d;" horiz-adv-x="952" 
d="M537 1278l155 188h119l-246 -340h-61l-246 340h117zM559 924q-151 0 -229 -116t-78 -296q0 -412 301 -412q143 0 303 93v-132q-147 -81 -324 -81q-209 0 -321 139q-113 140 -113 393q0 250 122 392q121 140 341 140q159 0 303 -51l-26 -108l-25 -19q-127 58 -254 58z" />
    <glyph glyph-name="Dcaron" unicode="&#x10e;" horiz-adv-x="1298" 
d="M625 1647l155 188h119l-246 -340h-61l-246 340h117zM170 1393h473q545 0 545 -686q0 -707 -545 -707h-473v1393zM334 137h309q205 0 288 134t83 436q0 299 -82 423q-83 125 -289 125h-309v-1118z" />
    <glyph glyph-name="dcaron" unicode="&#x10f;" horiz-adv-x="1122" 
d="M1116 1495q54 0 79 -34q26 -35 26 -81q0 -100 -113 -276h-74l94 199q-42 0 -76 25t-34 71q0 41 29 68q30 28 69 28zM897 1475h35v-1475h-144l-10 133l-127 -106q-70 -47 -184 -47q-177 0 -271 148q-96 151 -96 384q0 250 115 392q113 140 301 140q149 0 262 -86v435z
M543 100q23 0 42 4q23 5 43 15q8 4 20 9.5t16 7.5q14 7 35 25q18 15 29 22q6 4 30 26l20 18v627q-112 80 -235 80q-289 0 -289 -422q0 -219 72 -315q73 -97 217 -97z" />
    <glyph glyph-name="Dcroat" unicode="&#x110;" horiz-adv-x="1300" 
d="M174 1393h473q545 0 545 -686q0 -707 -545 -707h-473v631h-147v131h147v631zM338 137h309q205 0 288 134t83 436q0 299 -82 423q-83 125 -289 125h-309v-493h348v-131h-348v-494z" />
    <glyph glyph-name="dcroat" unicode="&#x111;" horiz-adv-x="1085" 
d="M1069 1169h-137v-1169h-144l-10 133l-127 -106q-70 -47 -184 -47q-177 0 -271 148q-96 151 -96 384q0 250 115 392q113 140 301 140q149 0 262 -86v211h-301v97h301v127l119 82h35v-209h137v-97zM543 100q23 0 42 4q23 5 43 15q8 4 20 9.5t16 7.5q14 7 35 25q18 15 29 22
q6 4 30 26l20 18v627q-112 80 -235 80q-289 0 -289 -422q0 -219 72 -315q73 -97 217 -97z" />
    <glyph glyph-name="Emacron" unicode="&#x112;" horiz-adv-x="1097" 
d="M297 1538v96h582v-96h-582zM334 1255v-475h569v-137h-569v-506h670l-21 -137h-813v1393h825v-138h-661z" />
    <glyph glyph-name="emacron" unicode="&#x113;" 
d="M862 1169h-581v97h581v-97zM944 664q0 -82 -18 -189h-674q7 -187 97 -281q89 -94 237 -94q72 0 169 27t163 66v-132q-147 -81 -353 -81q-212 0 -339 142q-128 143 -128 390q0 250 122 392q121 140 341 140q73 0 133 -16q62 -17 121 -55q60 -39 94 -118q35 -81 35 -191z
M254 571l534 9q5 37 5 84q0 258 -226 258q-290 0 -313 -351z" />
    <glyph glyph-name="Edotaccent" unicode="&#x116;" horiz-adv-x="1097" 
d="M494 1661q0 37 25 62q26 26 67 26q39 0 66 -27q28 -28 28 -61q0 -37 -28 -63q-26 -25 -66 -25q-42 0 -67 25t-25 63zM334 1255v-475h569v-137h-569v-506h670l-21 -137h-813v1393h825v-138h-661z" />
    <glyph glyph-name="edotaccent" unicode="&#x117;" 
d="M569 1204q-40 0 -66 26t-26 62q0 37 26 63q25 25 66 25t67 -26q28 -28 28 -62q0 -36 -28 -62t-67 -26zM944 664q0 -82 -18 -189h-674q7 -187 97 -281q89 -94 237 -94q72 0 169 27t163 66v-132q-147 -81 -353 -81q-212 0 -339 142q-128 143 -128 390q0 250 122 392
q121 140 341 140q73 0 133 -16q62 -17 121 -55q60 -39 94 -118q35 -81 35 -191zM254 571l534 9q5 37 5 84q0 258 -226 258q-290 0 -313 -351z" />
    <glyph glyph-name="Eogonek" unicode="&#x118;" horiz-adv-x="1097" 
d="M993 -326q45 0 90 17v-56q-55 -45 -137 -45q-71 0 -118 44q-46 43 -46 114q0 141 140 252h-752v1393h825v-138h-661v-475h569v-137h-569v-506h670l-21 -137q-94 -100 -94 -209q0 -55 26 -85q27 -32 78 -32z" />
    <glyph glyph-name="eogonek" unicode="&#x119;" 
d="M928 -264q48 0 90 16v-55q-56 -45 -137 -45q-71 0 -118 44q-46 43 -46 114q0 107 90 206q-114 -36 -242 -36q-212 0 -339 142q-128 143 -128 390q0 250 122 392q121 140 341 140q73 0 133 -16q62 -17 121 -55q60 -39 94 -118q35 -81 35 -191q0 -82 -18 -189h-674
q7 -187 97 -281q89 -94 237 -94q72 0 169 27t163 66v-132q-95 -101 -95 -208q0 -53 27 -85t78 -32zM567 922q-290 0 -313 -351l534 9q5 37 5 84q0 258 -226 258z" />
    <glyph glyph-name="Ecaron" unicode="&#x11a;" horiz-adv-x="1097" 
d="M590 1647l155 188h119l-246 -340h-61l-246 340h117zM334 1255v-475h569v-137h-569v-506h670l-21 -137h-813v1393h825v-138h-661z" />
    <glyph glyph-name="ecaron" unicode="&#x11b;" 
d="M541 1126l-246 340h117l161 -188l156 188h119l-246 -340h-61zM944 664q0 -82 -18 -189h-674q7 -187 97 -281q89 -94 237 -94q72 0 169 27t163 66v-132q-147 -81 -353 -81q-212 0 -339 142q-128 143 -128 390q0 250 122 392q121 140 341 140q73 0 133 -16q62 -17 121 -55
q60 -39 94 -118q35 -81 35 -191zM254 571l534 9q5 37 5 84q0 258 -226 258q-290 0 -313 -351z" />
    <glyph glyph-name="Gbreve" unicode="&#x11e;" horiz-adv-x="1189" 
d="M662 1495q-124 0 -185 82t-61 231h100q6 -64 18 -108t43 -79q32 -36 85 -36q72 0 103 61q29 59 40 162h100q0 -149 -61 -231t-182 -82zM662 1286q-111 0 -188 -44t-118 -127q-40 -81 -58 -184q-17 -96 -17 -235q0 -138 17 -234q18 -103 58 -184q41 -83 118 -127
q79 -45 188 -45q123 0 231 39v416h-293v137h457v-628q-192 -90 -395 -90q-556 0 -556 716q0 717 556 717q203 0 395 -90v-149q-191 112 -395 112z" />
    <glyph glyph-name="gbreve" unicode="&#x11f;" horiz-adv-x="1009" 
d="M489 1126q-123 0 -184 82t-61 232h100q6 -71 17 -109q12 -44 43 -79t85 -35q74 0 104 60q29 58 40 163h100q0 -150 -61 -232t-183 -82zM305 164l375 -39q156 -17 226 -85q71 -69 71 -189q0 -138 -128 -230t-351 -92q-437 0 -437 248q0 100 95 209l67 -27l-18 -127
q0 -106 75 -147q76 -41 216 -41q160 0 237 53q76 52 76 139q0 66 -32 101q-31 35 -120 45l-354 34q-71 6 -104 43t-33 84q0 44 35 94t98 89q-92 45 -146 139q-53 92 -53 209q0 159 101 265q101 105 274 105q74 0 137 -18l310 18v-116h-150q90 -100 90 -254q0 -175 -99 -283
t-276 -108q-49 0 -98 10zM471 932q-111 0 -168 -65t-57 -171q0 -301 246 -301q111 0 168 68q57 67 57 188q0 139 -65 210t-181 71z" />
    <glyph glyph-name="Gdotaccent" unicode="&#x120;" horiz-adv-x="1189" 
d="M662 1573q-42 0 -67 25q-26 26 -26 63q0 36 26 62t67 26q39 0 66 -27q28 -28 28 -61q0 -37 -28 -63q-26 -25 -66 -25zM662 1286q-111 0 -188 -44t-118 -127q-40 -81 -58 -184q-17 -96 -17 -235q0 -138 17 -234q18 -103 58 -184q41 -83 118 -127q79 -45 188 -45
q123 0 231 39v416h-293v137h457v-628q-192 -90 -395 -90q-556 0 -556 716q0 717 556 717q203 0 395 -90v-149q-191 112 -395 112z" />
    <glyph glyph-name="gdotaccent" unicode="&#x121;" horiz-adv-x="1009" 
d="M487 1204q-40 0 -66 26t-26 62q0 37 26 63q25 25 66 25t67 -26q28 -28 28 -62q0 -36 -28 -62t-67 -26zM305 164l375 -39q156 -17 226 -85q71 -69 71 -190q0 -137 -128 -229t-351 -92q-437 0 -437 248q0 100 95 209l67 -27l-18 -127q0 -106 75 -147q76 -41 216 -41
q160 0 237 53q76 52 76 139q0 66 -32 101q-31 35 -120 45l-354 34q-71 6 -104 43t-33 84q0 44 35 94t98 89q-92 45 -146 139q-53 92 -53 209q0 159 101 265q101 105 274 105q74 0 137 -18l310 18v-116h-150q90 -100 90 -254q0 -175 -99 -283t-276 -108q-49 0 -98 10z
M471 932q-111 0 -168 -65t-57 -171q0 -301 246 -301q111 0 168 68q57 67 57 188q0 139 -65 210t-181 71z" />
    <glyph glyph-name="Gcommaaccent" unicode="&#x122;" horiz-adv-x="1189" 
d="M662 1286q-111 0 -188 -44t-118 -127q-40 -81 -58 -184q-17 -96 -17 -235q0 -138 17 -234q18 -103 58 -184q41 -83 118 -127q79 -45 188 -45q123 0 231 39v416h-293v137h457v-628q-192 -90 -395 -90q-556 0 -556 716q0 717 556 717q203 0 395 -90v-149q-191 112 -395 112
zM659 -82q51 0 78 -35t27 -82q0 -92 -113 -276h-76l95 199q-44 0 -76 25q-33 26 -33 73q0 41 29 68q30 28 69 28z" />
    <glyph glyph-name="gcommaaccent" unicode="&#x123;" horiz-adv-x="1009" 
d="M502 1126q-51 0 -78 34t-27 81q0 101 113 277h76l-94 -199q41 0 75 -26q33 -25 33 -70q0 -42 -29 -69q-30 -28 -69 -28zM305 164l375 -39q156 -17 226 -85q71 -69 71 -190q0 -137 -128 -229t-351 -92q-437 0 -437 248q0 100 95 209l67 -27l-18 -127q0 -106 75 -147
q76 -41 216 -41q160 0 237 53q76 52 76 139q0 66 -32 101q-31 35 -120 45l-354 34q-71 6 -104 43t-33 84q0 44 35 94t98 89q-92 45 -146 139q-53 92 -53 209q0 159 101 265q101 105 274 105q74 0 137 -18l310 18v-116h-150q90 -100 90 -254q0 -175 -99 -283t-276 -108
q-49 0 -98 10zM471 932q-111 0 -168 -65t-57 -171q0 -301 246 -301q111 0 168 68q57 67 57 188q0 139 -65 210t-181 71z" />
    <glyph glyph-name="Hbar" unicode="&#x126;" horiz-adv-x="1294" 
d="M1268 1016h-148v-1016h-164v643h-618v-643h-164v1016h-147v129h147v248h164v-248h618v248h164v-248h148v-129zM956 1016h-618v-236h618v236z" />
    <glyph glyph-name="hbar" unicode="&#x127;" horiz-adv-x="1054" 
d="M625 1044q129 0 206 -71q78 -72 78 -213v-760h-153v733q0 182 -160 182q-122 0 -289 -100v-815h-155v1169h-138v97h138v127l120 82h35v-209h299v-97h-299v-264h4l101 84q101 55 213 55z" />
    <glyph glyph-name="Imacron" unicode="&#x12a;" horiz-adv-x="505" 
d="M-37 1538v96h582v-96h-582zM334 1393v-1393h-164v1393h164z" />
    <glyph glyph-name="imacron" unicode="&#x12b;" horiz-adv-x="458" 
d="M-61 1169v97h581v-97h-581zM307 1024v-1024h-155v1024h155z" />
    <glyph glyph-name="Iogonek" unicode="&#x12e;" horiz-adv-x="505" 
d="M301 -326q45 0 90 17v-56q-55 -45 -137 -45q-71 0 -118 44q-46 43 -46 114q0 141 139 252h-59v1393h164v-1393h-43q-94 -100 -94 -209q0 -55 26 -85q27 -32 78 -32z" />
    <glyph glyph-name="iogonek" unicode="&#x12f;" horiz-adv-x="458" 
d="M227 1204q-40 0 -66 26t-26 62q0 37 26 63q25 25 66 25t67 -26q28 -28 28 -62q0 -36 -28 -62t-67 -26zM268 -326q45 0 90 17v-56q-56 -45 -137 -45q-71 0 -118 44q-46 43 -46 114q0 141 140 252h-45v1024h155v-1024h-49q-94 -100 -94 -209q0 -55 26 -85q27 -32 78 -32z
" />
    <glyph glyph-name="Idotaccent" unicode="&#x130;" horiz-adv-x="505" 
d="M160 1661q0 37 25 62q26 26 67 26q39 0 66 -27q28 -28 28 -61q0 -37 -28 -63q-26 -25 -66 -25q-42 0 -67 25t-25 63zM334 1393v-1393h-164v1393h164z" />
    <glyph glyph-name="dotlessi" unicode="&#x131;" horiz-adv-x="458" 
d="M307 1024v-1024h-155v1024h155z" />
    <glyph glyph-name="IJ" unicode="&#x132;" horiz-adv-x="1017" 
d="M334 1393v-1393h-164v1393h164zM846 1393v-1346q0 -165 -56 -264q-57 -101 -233 -152l-49 103q78 38 118 89q40 53 48 99q8 50 8 125v1346h164z" />
    <glyph glyph-name="ij" unicode="&#x133;" horiz-adv-x="919" 
d="M135 1292q0 37 26 63q25 25 66 25t67 -26q28 -28 28 -62q0 -36 -28 -62t-67 -26q-40 0 -66 26t-26 62zM596 1292q0 37 26 63q25 25 66 25t67 -26q27 -27 27 -62q0 -36 -27 -62q-28 -26 -67 -26q-40 0 -66 26t-26 62zM307 1024v-1024h-155v1024h155zM766 1024v-1028
q0 -162 -55 -263t-224 -184l-53 91q114 68 145 137q31 68 31 219v1028h156z" />
    <glyph glyph-name="Kcommaaccent" unicode="&#x136;" horiz-adv-x="1120" 
d="M334 1393v-1393h-164v1393h164zM909 1393h150v-39l-508 -637l518 -678v-39h-162l-512 666v84zM494 -475l94 199q-44 0 -76 25q-33 26 -33 73q0 41 29 68q30 28 70 28q50 0 77 -35t27 -82q0 -92 -113 -276h-75z" />
    <glyph glyph-name="kcommaaccent" unicode="&#x137;" horiz-adv-x="985" 
d="M272 1475h35v-1475h-155v1393zM791 0l-443 532l418 492h137v-39l-379 -444l420 -502v-39h-153zM420 -475l94 199q-44 0 -76 25t-32 73q0 41 28 68q30 28 70 28q51 0 78 -35q26 -33 26 -82q0 -94 -112 -276h-76z" />
    <glyph glyph-name="Lacute" unicode="&#x139;" horiz-adv-x="1034" 
d="M190 1571l234 162q29 20 63 20q37 0 57 -19q21 -20 21 -55q0 -52 -53 -69l-283 -115zM983 137l-20 -137h-793v1393h164v-1256h649z" />
    <glyph glyph-name="lacute" unicode="&#x13a;" horiz-adv-x="481" 
d="M156 1653l233 162q29 20 64 20q36 0 56 -19q21 -20 21 -55q0 -52 -53 -69l-282 -115zM268 1475h35v-1293q0 -86 68 -86q31 0 65 15v-113q-60 -18 -123 -18q-79 0 -123 45q-43 44 -43 127v1241z" />
    <glyph glyph-name="Lcommaaccent" unicode="&#x13b;" horiz-adv-x="1034" 
d="M983 137l-20 -137h-793v1393h164v-1256h649zM463 -475l94 199q-44 0 -76 25t-32 73q0 41 28 68q30 28 70 28q51 0 78 -35q26 -33 26 -82q0 -94 -112 -276h-76z" />
    <glyph glyph-name="lcommaaccent" unicode="&#x13c;" horiz-adv-x="481" 
d="M268 1475h35v-1293q0 -86 68 -86q31 0 65 15v-113q-60 -18 -123 -18q-79 0 -123 45q-43 44 -43 127v1241zM217 -475l94 199q-43 0 -75 25q-33 26 -33 73q0 41 28 68q30 28 70 28q51 0 78 -35t27 -82q0 -92 -113 -276h-76z" />
    <glyph glyph-name="Lcaron" unicode="&#x13d;" horiz-adv-x="1034" 
d="M561 1022l94 199q-43 0 -75 25q-33 26 -33 71q0 41 27 68q28 28 71 28q51 0 78 -34q27 -35 27 -81q0 -100 -113 -276h-76zM983 137l-20 -137h-793v1393h164v-1256h649z" />
    <glyph glyph-name="lcaron" unicode="&#x13e;" horiz-adv-x="491" 
d="M406 1104l94 199q-46 0 -78 25q-33 26 -33 71q0 41 29 68q30 28 69 28q51 0 78 -34q27 -35 27 -81q0 -100 -113 -276h-73zM268 1475h35v-1293q0 -86 68 -86q31 0 65 15v-113q-60 -18 -123 -18q-79 0 -123 45q-43 44 -43 127v1241z" />
    <glyph glyph-name="Ldot" unicode="&#x13f;" horiz-adv-x="1034" 
d="M983 137l-20 -137h-793v1393h164v-1256h649zM545 758q0 36 24 59q25 23 62 23q36 0 61 -23t25 -59q0 -42 -24 -64q-23 -22 -62 -22q-40 0 -63 22t-23 64z" />
    <glyph glyph-name="ldot" unicode="&#x140;" horiz-adv-x="616" 
d="M268 1475h35v-1293q0 -86 68 -86q31 0 65 15v-113q-60 -18 -123 -18q-79 0 -123 45q-43 44 -43 127v1241zM440 721q0 36 24 60t62 24q36 0 60 -24t24 -60q0 -42 -23 -64t-61 -22q-39 0 -62 22q-24 23 -24 64z" />
    <glyph glyph-name="Lslash" unicode="&#x141;" horiz-adv-x="1038" 
d="M989 137l-20 -137h-793v621l-147 -60v129l147 60v643h164v-576l246 101v-130l-246 -100v-551h649z" />
    <glyph glyph-name="lslash" unicode="&#x142;" horiz-adv-x="512" 
d="M393 96q31 0 66 15v-113q-66 -18 -125 -18q-78 0 -121 45q-43 44 -43 127v458l-127 -100v123l127 98v662l119 82h35v-623l122 96v-121l-122 -96v-549q0 -86 69 -86z" />
    <glyph glyph-name="Nacute" unicode="&#x143;" horiz-adv-x="1288" 
d="M561 1571l234 162q29 20 63 20q36 0 56 -19q22 -20 22 -55q0 -52 -53 -69l-283 -115zM334 1393l627 -1092h10q-10 164 -10 447v645h155v-1393h-164l-626 1092h-11q11 -181 11 -447v-645h-156v1393h164z" />
    <glyph glyph-name="nacute" unicode="&#x144;" horiz-adv-x="1054" 
d="M465 1202l233 162q29 20 64 20q36 0 56 -19q22 -20 22 -54q0 -53 -54 -70l-282 -115zM307 905h4l101 84q101 55 213 55q129 0 206 -71q78 -72 78 -213v-760h-155v733q0 182 -158 182q-126 0 -289 -100v-815h-155v1024h145z" />
    <glyph glyph-name="Ncommaaccent" unicode="&#x145;" horiz-adv-x="1288" 
d="M334 1393l627 -1092h10q-10 164 -10 447v645h155v-1393h-164l-626 1092h-11q11 -181 11 -447v-645h-156v1393h164zM551 -475l94 199q-44 0 -76 25t-32 73q0 41 28 68q30 28 70 28q51 0 78 -35q26 -33 26 -82q0 -94 -112 -276h-76z" />
    <glyph glyph-name="ncommaaccent" unicode="&#x146;" horiz-adv-x="1054" 
d="M307 905h4l101 84q101 55 213 55q129 0 206 -71q78 -72 78 -213v-760h-155v733q0 182 -158 182q-126 0 -289 -100v-815h-155v1024h145zM455 -475l94 199q-44 0 -76 25q-33 26 -33 73q0 41 29 68q30 28 70 28q50 0 77 -35t27 -82q0 -92 -113 -276h-75z" />
    <glyph glyph-name="Ncaron" unicode="&#x147;" horiz-adv-x="1288" 
d="M631 1647l155 188h119l-246 -340h-61l-246 340h117zM334 1393l627 -1092h10q-10 164 -10 447v645h155v-1393h-164l-626 1092h-11q11 -181 11 -447v-645h-156v1393h164z" />
    <glyph glyph-name="ncaron" unicode="&#x148;" horiz-adv-x="1054" 
d="M535 1278l155 188h119l-246 -340h-61l-246 340h117zM307 905h4l101 84q101 55 213 55q129 0 206 -71q78 -72 78 -213v-760h-155v733q0 182 -158 182q-126 0 -289 -100v-815h-155v1024h145z" />
    <glyph glyph-name="Eng" unicode="&#x14a;" horiz-adv-x="1288" 
d="M1116 1393v-1422q0 -81 -9 -138q-8 -53 -37 -115q-26 -57 -89 -100q-61 -42 -156 -69l-53 111q118 56 158 130q41 76 41 185v25l-643 1092h-11q9 -207 9 -447v-645h-156v1393h164l627 -1074h10q-8 184 -8 447v627h153z" />
    <glyph glyph-name="eng" unicode="&#x14b;" horiz-adv-x="1054" 
d="M311 905l101 84q101 55 213 55q129 0 206 -71q78 -72 78 -213v-764q0 -161 -54 -263q-54 -101 -222 -184l-55 91q112 67 145 138q33 70 33 218v737q0 182 -160 182q-122 0 -289 -100v-815h-155v1024h145l10 -119h4z" />
    <glyph glyph-name="Omacron" unicode="&#x14c;" horiz-adv-x="1302" 
d="M367 1538v96h581v-96h-581zM651 -20q-545 0 -545 727q0 706 545 706t545 -706q0 -342 -131 -535q-131 -192 -414 -192zM651 1286q-204 0 -287 -138q-83 -139 -83 -441q0 -306 84 -453q85 -148 286 -148q202 0 287 148q84 147 84 453q0 302 -83 441q-83 138 -288 138z" />
    <glyph glyph-name="omacron" unicode="&#x14d;" horiz-adv-x="1064" 
d="M238 1169v97h581v-97h-581zM532 -20q-432 0 -432 532t432 532q431 0 431 -532t-431 -532zM532 922q-152 0 -215 -101t-63 -309t63 -309t215 -101q150 0 213 101q64 102 64 309t-64 309q-63 101 -213 101z" />
    <glyph glyph-name="Ohungarumlaut" unicode="&#x150;" horiz-adv-x="1302" 
d="M420 1548l223 221q30 25 53 25q28 0 48 -20q22 -22 22 -45q0 -37 -39 -64l-266 -170zM782 1548l226 221q30 25 49 25q30 0 50 -19q21 -19 21 -44q0 -44 -38 -66l-265 -170zM651 -20q-545 0 -545 727q0 706 545 706t545 -706q0 -342 -131 -535q-131 -192 -414 -192z
M651 1286q-204 0 -287 -138q-83 -139 -83 -441q0 -306 84 -453q85 -148 286 -148q202 0 287 148q84 147 84 453q0 302 -83 441q-83 138 -288 138z" />
    <glyph glyph-name="ohungarumlaut" unicode="&#x151;" horiz-adv-x="1064" 
d="M293 1180l223 221q28 24 53 24q28 0 48 -20q22 -22 22 -45q0 -37 -39 -64l-266 -170zM655 1180l226 221q29 24 49 24q30 0 50 -19q21 -20 21 -44q0 -44 -38 -66l-265 -170zM532 -20q-432 0 -432 532t432 532q431 0 431 -532t-431 -532zM532 922q-152 0 -215 -101
t-63 -309t63 -309t215 -101q150 0 213 101q64 102 64 309t-64 309q-63 101 -213 101z" />
    <glyph glyph-name="OE" unicode="&#x152;" horiz-adv-x="1949" 
d="M1855 137l-20 -137h-821v113q-129 -133 -363 -133q-545 0 -545 727q0 706 545 706q233 0 363 -127v107h831v-138h-659v-475h569v-137h-569v-506h669zM651 106q169 0 255 103q86 102 108 315v363q-22 204 -107 302q-84 97 -256 97q-204 0 -287 -138q-83 -139 -83 -441
q0 -306 84 -453q85 -148 286 -148z" />
    <glyph glyph-name="oe" unicode="&#x153;" horiz-adv-x="1744" 
d="M1620 193v-132q-147 -81 -352 -81q-252 0 -375 192q-102 -192 -361 -192q-432 0 -432 532t432 532q257 0 357 -188q118 188 373 188q73 0 134 -16q63 -16 122 -55q60 -39 94 -118q35 -81 35 -191q0 -87 -21 -189h-670q7 -186 98 -278q89 -91 234 -91q70 0 169 26
q93 24 163 61zM532 102q150 0 213 101q64 102 64 309t-64 309q-63 101 -213 101q-152 0 -215 -101t-63 -309t63 -309t215 -101zM956 573l535 7q4 59 4 84q0 258 -225 258q-291 0 -314 -349z" />
    <glyph glyph-name="Racute" unicode="&#x154;" horiz-adv-x="1198" 
d="M586 1495l-39 76l233 162q29 20 64 20q36 0 56 -19q22 -20 22 -55q0 -52 -54 -69zM1104 39v-39h-162l-135 367q0 1 -1.5 5t-4 10.5t-5.5 14.5t-6 15.5t-5.5 14.5t-3.5 9q-6 16 -19 38q-14 24 -27 40q-7 9 -35 35q-21 20 -47 31q-24 11 -58 18q-37 8 -75 8h-186v-606h-164
v1393h457q232 0 347 -107q113 -106 113 -274q0 -141 -73 -245q-73 -105 -223 -142v-9q70 -23 107 -77q34 -50 79 -164zM334 743h293q157 0 222 66q64 65 64 203q0 132 -63 188q-62 55 -223 55h-293v-512z" />
    <glyph glyph-name="racute" unicode="&#x155;" horiz-adv-x="698" 
d="M315 1202l234 162q29 20 63 20q37 0 57 -19q21 -19 21 -54q0 -53 -53 -70l-283 -115zM307 864h4l101 133q56 47 159 47q51 0 99 -14l-58 -143q-33 10 -77 10q-114 0 -228 -147v-750h-155v1024h145z" />
    <glyph glyph-name="Rcommaaccent" unicode="&#x156;" horiz-adv-x="1198" 
d="M1104 39v-39h-162l-135 367q0 1 -1.5 5t-4 10.5t-5.5 14.5t-6 15.5t-5.5 14.5t-3.5 9q-6 16 -19 38q-14 24 -27 40q-7 9 -35 35q-21 20 -47 31q-24 11 -58 18q-37 8 -75 8h-186v-606h-164v1393h457q232 0 347 -107q113 -106 113 -274q0 -141 -73 -245q-73 -105 -223 -142
v-9q70 -23 107 -77q34 -50 79 -164zM334 743h293q157 0 222 66q64 65 64 203q0 132 -63 188q-62 55 -223 55h-293v-512zM614 -82q51 0 78 -35t27 -82q0 -92 -113 -276h-76l95 199q-44 0 -76 25q-33 26 -33 73q0 41 29 68q30 28 69 28z" />
    <glyph glyph-name="rcommaaccent" unicode="&#x157;" horiz-adv-x="698" 
d="M307 864h4l101 133q56 47 159 47q51 0 99 -14l-58 -143q-33 10 -77 10q-114 0 -228 -147v-750h-155v1024h145zM150 -475l94 199q-44 0 -76 25q-33 26 -33 73q0 41 29 68q30 28 69 28q51 0 78 -35t27 -82q0 -92 -113 -276h-75z" />
    <glyph glyph-name="Rcaron" unicode="&#x158;" horiz-adv-x="1198" 
d="M584 1495l-246 340h117l161 -188l156 188h119l-246 -340h-61zM1104 39v-39h-162l-135 367q0 1 -1.5 5t-4 10.5t-5.5 14.5t-6 15.5t-5.5 14.5t-3.5 9q-6 16 -19 38q-14 24 -27 40q-7 9 -35 35q-21 20 -47 31q-24 11 -58 18q-37 8 -75 8h-186v-606h-164v1393h457
q232 0 347 -107q113 -106 113 -274q0 -141 -73 -245q-73 -105 -223 -142v-9q70 -23 107 -77q34 -50 79 -164zM334 743h293q157 0 222 66q64 65 64 203q0 132 -63 188q-62 55 -223 55h-293v-512z" />
    <glyph glyph-name="rcaron" unicode="&#x159;" horiz-adv-x="698" 
d="M385 1278l156 188h118l-245 -340h-62l-246 340h117zM307 864h4l101 133q56 47 159 47q51 0 99 -14l-58 -143q-33 10 -77 10q-114 0 -228 -147v-750h-155v1024h145z" />
    <glyph glyph-name="Sacute" unicode="&#x15a;" 
d="M455 1571l233 162q29 20 64 20q36 0 56 -19q21 -20 21 -55q0 -52 -53 -69l-282 -115zM115 1061q0 163 115 257q116 95 292 95q189 0 385 -86v-153q-172 112 -377 112q-125 0 -183 -58t-58 -145q0 -90 68 -154q70 -66 165 -110q107 -50 194 -97q97 -52 166 -144
q68 -90 68 -224q0 -162 -130 -268t-312 -106q-209 0 -404 90v147q208 -111 398 -111q142 0 208 66t66 174q0 102 -68 171q-71 72 -165 115q-64 29 -194 91q-97 46 -166 132q-68 84 -68 206z" />
    <glyph glyph-name="sacute" unicode="&#x15b;" horiz-adv-x="886" 
d="M393 1202l234 162q29 20 63 20q36 0 56 -19q22 -20 22 -54q0 -53 -53 -70l-283 -115zM459 924q-99 0 -147 -39t-48 -103q0 -61 55 -106q57 -46 136 -76t159 -66t136 -101q55 -64 55 -154q0 -138 -97 -219q-96 -80 -253 -80q-195 0 -338 71l-19 142q169 -93 351 -93
q102 0 152 50t50 114q0 67 -56 111q-61 48 -135 76q-71 27 -159 65q-79 34 -136 102q-56 66 -56 166q0 126 100 193t250 67q161 0 305 -51l-27 -108l-24 -19q-130 58 -254 58z" />
    <glyph glyph-name="Scedilla" unicode="&#x15e;" 
d="M950 354q0 -151 -115 -256q-114 -104 -284 -116v-48q77 0 129 -43q53 -44 53 -120q0 -89 -51 -135q-50 -46 -133 -46q-81 0 -133 23v70q63 -23 104 -23q113 0 113 111q0 52 -38 78t-126 26v105q-191 11 -365 90v147q208 -111 398 -111q142 0 208 66t66 174q0 102 -68 171
q-71 72 -165 115q-64 29 -194 91q-97 46 -166 132q-68 84 -68 206q0 163 115 257q116 95 292 95q189 0 385 -86v-153q-172 112 -377 112q-125 0 -183 -58t-58 -145q0 -90 68 -154q70 -66 165 -110q107 -50 194 -97q97 -52 166 -144q68 -90 68 -224z" />
    <glyph glyph-name="scedilla" unicode="&#x15f;" horiz-adv-x="886" 
d="M805 279q0 -130 -87 -209q-87 -80 -231 -90v-46q77 0 129 -43q54 -45 54 -120q0 -88 -52 -135q-50 -46 -133 -46q-81 0 -133 23v70q63 -23 105 -23q112 0 112 111q0 52 -38 78t-125 26v107q-155 6 -289 69l-19 142q169 -93 351 -93q102 0 152 50t50 114q0 67 -56 111
q-61 48 -135 76q-71 27 -159 65q-79 34 -136 102q-56 66 -56 166q0 126 100 193t250 67q161 0 305 -51l-27 -108l-24 -19q-130 58 -254 58q-99 0 -147 -39t-48 -103q0 -61 55 -106q57 -46 136 -76t159 -66t136 -101q55 -64 55 -154z" />
    <glyph glyph-name="Scaron" unicode="&#x160;" 
d="M524 1647l156 188h119l-246 -340h-61l-246 340h116zM115 1061q0 163 115 257q116 95 292 95q189 0 385 -86v-153q-172 112 -377 112q-125 0 -183 -58t-58 -145q0 -90 68 -154q70 -66 165 -110q107 -50 194 -97q97 -52 166 -144q68 -90 68 -224q0 -162 -130 -268
t-312 -106q-209 0 -404 90v147q208 -111 398 -111q142 0 208 66t66 174q0 102 -68 171q-71 72 -165 115q-64 29 -194 91q-97 46 -166 132q-68 84 -68 206z" />
    <glyph glyph-name="scaron" unicode="&#x161;" horiz-adv-x="886" 
d="M463 1278l155 188h119l-245 -340h-62l-246 340h117zM459 924q-99 0 -147 -39t-48 -103q0 -61 55 -106q57 -46 136 -76t159 -66t136 -101q55 -64 55 -154q0 -138 -97 -219q-96 -80 -253 -80q-195 0 -338 71l-19 142q169 -93 351 -93q102 0 152 50t50 114q0 67 -56 111
q-61 48 -135 76q-71 27 -159 65q-79 34 -136 102q-56 66 -56 166q0 126 100 193t250 67q161 0 305 -51l-27 -108l-24 -19q-130 58 -254 58z" />
    <glyph glyph-name="Tcedilla" unicode="&#x162;" horiz-adv-x="1036" 
d="M549 0v-66q77 0 129 -43q53 -44 53 -120q0 -89 -51 -135q-50 -46 -133 -46q-81 0 -133 23v70q63 -23 104 -23q113 0 113 111q0 52 -38 78t-126 26v125h-31v1255h-373v138h910v-138h-373v-1255h-51z" />
    <glyph glyph-name="tcedilla" unicode="&#x163;" horiz-adv-x="624" 
d="M428 -20v-46q77 0 129 -43q53 -44 53 -120q0 -89 -51 -135q-50 -46 -133 -46q-81 0 -133 23v70q63 -23 104 -23q113 0 113 111q0 52 -38 78t-126 26v109q-87 11 -127 60q-41 50 -41 151v720h-127v52l127 57l123 201h31v-201h225v-109h-225v-702q0 -60 24 -87
q25 -28 86 -28q68 0 125 31v-121q-54 -20 -139 -28z" />
    <glyph glyph-name="Tcaron" unicode="&#x164;" horiz-adv-x="1036" 
d="M520 1647l156 188h119l-246 -340h-62l-245 340h116zM436 0v1255h-373v138h910v-138h-373v-1255h-164z" />
    <glyph glyph-name="tcaron" unicode="&#x165;" horiz-adv-x="624" 
d="M377 1083l94 199q-42 0 -76 26q-33 26 -33 70q0 41 28 69t71 28q51 0 78 -34q26 -33 26 -81q0 -102 -112 -277h-76zM51 915v52l127 57l123 201h31v-201h225v-109h-225v-702q0 -60 24 -87q25 -28 86 -28q68 0 125 31v-121q-78 -28 -155 -28q-120 0 -176 49q-58 50 -58 166
v720h-127z" />
    <glyph glyph-name="Tbar" unicode="&#x166;" horiz-adv-x="1062" 
d="M612 1255v-487h277v-129h-277v-639h-163v639h-277v129h277v487h-373v138h911v-138h-375z" />
    <glyph glyph-name="tbar" unicode="&#x167;" horiz-adv-x="641" 
d="M455 98q68 0 125 31v-121q-78 -28 -156 -28q-122 0 -178 49q-58 50 -58 166v280h-125v96h125v344h-125v52l125 57l123 201h33v-201h223v-109h-223v-344h223v-96h-223v-262q0 -59 25 -87t86 -28z" />
    <glyph glyph-name="Umacron" unicode="&#x16a;" horiz-adv-x="1265" 
d="M328 1538v96h581v-96h-581zM635 -20q-473 0 -473 497v916h164v-916q0 -362 309 -362q307 0 307 362v916h164v-916q0 -256 -124 -377q-123 -120 -347 -120z" />
    <glyph glyph-name="umacron" unicode="&#x16b;" horiz-adv-x="1056" 
d="M236 1169v97h581v-97h-581zM750 119h-5l-100 -84q-101 -55 -213 -55q-130 0 -207 71q-78 72 -78 213v760h156v-733q0 -182 158 -182q126 0 289 100v815h155v-1024h-145z" />
    <glyph glyph-name="Uring" unicode="&#x16e;" horiz-adv-x="1265" 
d="M453 1642q0 76 45 117q46 41 120 41q76 0 120 -41t44 -117q0 -74 -44 -115q-43 -40 -120 -40q-76 0 -120 40q-45 41 -45 115zM520 1642q0 -98 98 -98q97 0 97 98q0 101 -97 101q-98 0 -98 -101zM635 -20q-473 0 -473 497v916h164v-916q0 -362 309 -362q307 0 307 362v916
h164v-916q0 -256 -124 -377q-123 -120 -347 -120z" />
    <glyph glyph-name="uring" unicode="&#x16f;" horiz-adv-x="1056" 
d="M358 1274q0 76 45 117q46 41 121 41q76 0 120 -41t44 -117q0 -75 -44 -116q-43 -40 -120 -40t-121 40q-45 40 -45 116zM426 1274q0 -98 98 -98q97 0 97 98q0 100 -97 100q-98 0 -98 -100zM750 119h-5l-100 -84q-101 -55 -213 -55q-130 0 -207 71q-78 72 -78 213v760h156
v-733q0 -182 158 -182q126 0 289 100v815h155v-1024h-145z" />
    <glyph glyph-name="Uhungarumlaut" unicode="&#x170;" horiz-adv-x="1265" 
d="M383 1548l223 221q30 25 53 25q29 0 49 -20q21 -21 21 -45q0 -37 -39 -64l-266 -170zM745 1548l226 221q30 25 49 25q30 0 50 -19q22 -20 22 -44q0 -43 -39 -66l-265 -170zM635 -20q-473 0 -473 497v916h164v-916q0 -362 309 -362q307 0 307 362v916h164v-916
q0 -256 -124 -377q-123 -120 -347 -120z" />
    <glyph glyph-name="uhungarumlaut" unicode="&#x171;" horiz-adv-x="1056" 
d="M291 1180l223 221q27 24 53 24q28 0 48 -20q22 -22 22 -45q0 -37 -39 -64l-266 -170zM653 1180l226 221q29 24 49 24q30 0 50 -19q21 -20 21 -44q0 -44 -38 -66l-265 -170zM750 119h-5l-100 -84q-101 -55 -213 -55q-130 0 -207 71q-78 72 -78 213v760h156v-733
q0 -182 158 -182q126 0 289 100v815h155v-1024h-145z" />
    <glyph glyph-name="Uogonek" unicode="&#x172;" horiz-adv-x="1265" 
d="M1106 1393v-916q0 -243 -113 -365t-317 -132q-78 -91 -78 -189q0 -53 27 -85t77 -32q46 0 91 17v-56q-55 -45 -138 -45q-70 0 -117 44q-46 43 -46 114q0 128 116 232q-446 16 -446 497v916h164v-916q0 -362 309 -362q307 0 307 362v916h164z" />
    <glyph glyph-name="uogonek" unicode="&#x173;" horiz-adv-x="1056" 
d="M870 -326q46 0 91 17v-56q-55 -45 -138 -45q-70 0 -117 44t-47 114q0 141 140 252h-39l-10 119h-5l-100 -84q-101 -55 -213 -55q-130 0 -207 71q-78 72 -78 213v760h156v-733q0 -182 158 -182q126 0 289 100v815h155v-1024h-45q-94 -100 -94 -209q0 -53 27 -85t77 -32z
" />
    <glyph glyph-name="Wcircumflex" unicode="&#x174;" horiz-adv-x="1724" 
d="M709 1495h-117l246 340h61l246 -340h-119l-156 188zM1647 1393v-39l-342 -1364h-213l-230 1018l-223 -1018h-213l-354 1364v39h151l244 -940q45 -169 68 -297h2q15 74 35 156q27 109 32 141l184 940h160l193 -940q23 -105 57 -297h2q28 158 66 297l235 940h146z" />
    <glyph glyph-name="wcircumflex" unicode="&#x175;" horiz-adv-x="1501" 
d="M602 1126h-117l246 340h62l245 -340h-118l-156 189zM1442 1024v-39l-320 -995h-194l-170 801l-209 -801h-197l-268 995v39h143l230 -856h4l225 856h152l194 -856h4l260 856h146z" />
    <glyph glyph-name="Ycircumflex" unicode="&#x176;" horiz-adv-x="1120" 
d="M412 1495h-117l246 340h61l246 -340h-119l-156 188zM1061 1354l-418 -865v-489h-164v479l-422 875v39h164l238 -494q35 -70 104 -244h2q47 128 105 246l235 492h156v-39z" />
    <glyph glyph-name="ycircumflex" unicode="&#x177;" horiz-adv-x="960" 
d="M201 1126l245 340h62l246 -340h-119l-156 189l-162 -189h-116zM66 985v39h143l272 -868h4l265 868h143v-39l-256 -792q-28 -86 -63 -169q-43 -102 -59 -134q-26 -54 -64 -112q-43 -66 -57 -86q-20 -28 -58 -79q-44 -58 -49 -64h-137v39q171 205 256 371z" />
    <glyph glyph-name="Ydieresis" unicode="&#x178;" horiz-adv-x="1120" 
d="M385 1561q-39 0 -64 24q-26 24 -26 66q0 38 26 64t64 26q36 0 64 -26q26 -25 26 -64q0 -42 -25 -66q-26 -24 -65 -24zM756 1561q-40 0 -65 24t-25 66q0 39 25 64q26 26 65 26q36 0 62 -26t26 -64q0 -42 -26 -66t-62 -24zM1061 1354l-418 -865v-489h-164v479l-422 875v39
h164l238 -494q35 -70 104 -244h2q47 128 105 246l235 492h156v-39z" />
    <glyph glyph-name="Zacute" unicode="&#x179;" horiz-adv-x="1009" 
d="M434 1571l234 162q29 20 63 20q36 0 56 -19q22 -20 22 -55q0 -52 -53 -69l-283 -115zM940 137l-20 -137h-848v119l655 1136h-621v138h799v-119l-655 -1137h690z" />
    <glyph glyph-name="zacute" unicode="&#x17a;" horiz-adv-x="907" 
d="M387 1202l234 162q29 20 63 20q36 0 56 -19q22 -20 22 -54q0 -53 -53 -70l-283 -115zM256 109h578l-29 -109h-717v102l557 813h-557l37 109h688v-102z" />
    <glyph glyph-name="Zdotaccent" unicode="&#x17b;" horiz-adv-x="1009" 
d="M410 1661q0 37 25 62q26 26 67 26q39 0 66 -27q28 -28 28 -61q0 -37 -28 -63q-26 -25 -66 -25q-42 0 -67 25t-25 63zM940 137l-20 -137h-848v119l655 1136h-621v138h799v-119l-655 -1137h690z" />
    <glyph glyph-name="zdotaccent" unicode="&#x17c;" horiz-adv-x="907" 
d="M360 1292q0 37 26 63q25 25 67 25q40 0 66 -26q28 -28 28 -62q0 -36 -28 -62t-66 -26q-41 0 -67 26t-26 62zM256 109h578l-29 -109h-717v102l557 813h-557l37 109h688v-102z" />
    <glyph glyph-name="Zcaron" unicode="&#x17d;" horiz-adv-x="1009" 
d="M504 1647l155 188h119l-246 -340h-61l-246 340h117zM940 137l-20 -137h-848v119l655 1136h-621v138h799v-119l-655 -1137h690z" />
    <glyph glyph-name="zcaron" unicode="&#x17e;" horiz-adv-x="907" 
d="M457 1278l155 188h119l-246 -340h-61l-246 340h117zM256 109h578l-29 -109h-717v102l557 813h-557l37 109h688v-102z" />
    <glyph glyph-name="florin" unicode="&#x192;" horiz-adv-x="907" 
d="M377 823l37 269q34 241 144 322t337 81l-18 -131l-21 -8q-49 20 -108 20q-149 0 -173 -184l-51 -369h291l-18 -110h-289l-96 -678q-34 -241 -145 -323q-109 -81 -335 -81l19 131l20 9q51 -21 107 -21q147 0 174 184l108 779h-284l20 110h281z" />
    <glyph glyph-name="Scommaaccent" unicode="&#x218;" 
d="M115 1061q0 163 115 257q116 95 292 95q189 0 385 -86v-153q-172 112 -377 112q-125 0 -183 -58t-58 -145q0 -90 68 -154q70 -66 165 -110q107 -50 194 -97q97 -52 166 -144q68 -90 68 -224q0 -162 -130 -268t-312 -106q-209 0 -404 90v147q208 -111 398 -111
q142 0 208 66t66 174q0 102 -68 171q-71 72 -165 115q-64 29 -194 91q-97 46 -166 132q-68 84 -68 206zM432 -475l94 199q-43 0 -75 25q-33 26 -33 73q0 41 28 68q30 28 70 28q51 0 78 -35t27 -82q0 -92 -113 -276h-76z" />
    <glyph glyph-name="scommaaccent" unicode="&#x219;" horiz-adv-x="886" 
d="M459 924q-99 0 -147 -39t-48 -103q0 -61 55 -106q57 -46 136 -76t159 -66t136 -101q55 -64 55 -154q0 -138 -97 -219q-96 -80 -253 -80q-195 0 -338 71l-19 142q169 -93 351 -93q102 0 152 50t50 114q0 67 -56 111q-61 48 -135 76q-71 27 -159 65q-79 34 -136 102
q-56 66 -56 166q0 126 100 193t250 67q161 0 305 -51l-27 -108l-24 -19q-130 58 -254 58zM369 -475l94 199q-44 0 -76 25q-33 26 -33 73q0 41 29 68q30 28 70 28q50 0 77 -35t27 -82q0 -92 -113 -276h-75z" />
    <glyph glyph-name="uni021A" unicode="&#x21a;" horiz-adv-x="1036" 
d="M436 0v1255h-373v138h910v-138h-373v-1255h-164zM430 -475l94 199q-43 0 -75 25q-33 26 -33 73q0 41 28 68q30 28 70 28q51 0 78 -35q26 -33 26 -82q0 -94 -112 -276h-76z" />
    <glyph glyph-name="uni021B" unicode="&#x21b;" horiz-adv-x="624" 
d="M51 915v52l127 57l123 201h31v-201h225v-109h-225v-702q0 -60 24 -87q25 -28 86 -28q68 0 125 31v-121q-78 -28 -155 -28q-120 0 -176 49q-58 50 -58 166v720h-127zM309 -475l94 199q-43 0 -75 25q-33 26 -33 73q0 41 29 68q30 28 69 28q51 0 78 -35t27 -82
q0 -92 -113 -276h-76z" />
    <glyph glyph-name="dotlessj" unicode="&#x237;" horiz-adv-x="458" 
d="M307 1024v-1028q0 -162 -55 -263q-55 -102 -223 -184l-54 91q114 68 145 137q32 70 32 219v1028h155z" />
    <glyph glyph-name="circumflex" unicode="&#x2c6;" horiz-adv-x="868" 
d="M158 1126l245 340h62l246 -340h-119l-156 189l-162 -189h-116z" />
    <glyph glyph-name="ring" unicode="&#x2da;" horiz-adv-x="692" 
d="M180 1274q0 76 45 117q46 41 121 41q76 0 120 -41t44 -117q0 -75 -44 -116q-43 -40 -120 -40t-121 40q-45 40 -45 116zM248 1274q0 -98 98 -98q96 0 96 98q0 100 -96 100q-98 0 -98 -100z" />
    <glyph glyph-name="tilde" unicode="&#x2dc;" horiz-adv-x="980" 
d="M276 1126h-98q10 118 62 185q50 65 125 65q46 0 139 -44t123 -44q32 0 49 20t29 60h96q-18 -221 -160 -221q-53 0 -153 44t-126 44q-34 0 -52 -17q-19 -17 -23 -35q-6 -23 -11 -57z" />
    <glyph glyph-name="Wgrave" unicode="&#x1e80;" horiz-adv-x="1724" 
d="M899 1495l-285 115q-53 18 -53 69q0 35 22 55q20 19 56 19q37 0 66 -20l231 -162zM1647 1393v-39l-342 -1364h-213l-230 1018l-223 -1018h-213l-354 1364v39h151l244 -940q45 -169 68 -297h2q15 74 35 156q27 109 32 141l184 940h160l193 -940q23 -105 57 -297h2
q28 158 66 297l235 940h146z" />
    <glyph glyph-name="wgrave" unicode="&#x1e81;" horiz-adv-x="1501" 
d="M791 1126l-285 115q-53 18 -53 70q0 35 21 54q20 19 56 19q37 0 66 -20l231 -162zM1442 1024v-39l-320 -995h-194l-170 801l-209 -801h-197l-268 995v39h143l230 -856h4l225 856h152l194 -856h4l260 856h146z" />
    <glyph glyph-name="Wacute" unicode="&#x1e82;" horiz-adv-x="1724" 
d="M842 1495l-39 76l233 162q29 20 64 20q36 0 56 -19q22 -20 22 -55q0 -52 -54 -69zM1647 1393v-39l-342 -1364h-213l-230 1018l-223 -1018h-213l-354 1364v39h151l244 -940q45 -169 68 -297h2q15 74 35 156q27 109 32 141l184 940h160l193 -940q23 -105 57 -297h2
q28 158 66 297l235 940h146z" />
    <glyph glyph-name="wacute" unicode="&#x1e83;" horiz-adv-x="1501" 
d="M733 1126l-39 76l234 162q29 20 63 20q37 0 57 -19q21 -19 21 -54q0 -53 -53 -70zM1442 1024v-39l-320 -995h-194l-170 801l-209 -801h-197l-268 995v39h143l230 -856h4l225 856h152l194 -856h4l260 856h146z" />
    <glyph glyph-name="Wdieresis" unicode="&#x1e84;" horiz-adv-x="1724" 
d="M684 1561q-38 0 -64 24t-26 66q0 38 26 64t64 26q36 0 64 -26q26 -25 26 -64q0 -42 -25 -66t-65 -24zM1055 1561q-39 0 -65 24q-25 24 -25 66q0 39 25 64q26 26 65 26q36 0 62 -26t26 -64q0 -42 -26 -66q-25 -24 -62 -24zM1647 1393v-39l-342 -1364h-213l-230 1018
l-223 -1018h-213l-354 1364v39h151l244 -940q45 -169 68 -297h2q15 74 35 156q27 109 32 141l184 940h160l193 -940q23 -105 57 -297h2q28 158 66 297l235 940h146z" />
    <glyph glyph-name="wdieresis" unicode="&#x1e85;" horiz-adv-x="1501" 
d="M575 1192q-37 0 -64 25q-26 24 -26 65q0 39 26 65q25 25 64 25q38 0 64 -25q27 -26 27 -65q0 -41 -26 -65q-27 -25 -65 -25zM946 1192q-37 0 -64 25q-26 24 -26 65q0 39 26 65q25 25 64 25q38 0 63 -25t25 -65q0 -41 -25 -65q-27 -25 -63 -25zM1442 1024v-39l-320 -995
h-194l-170 801l-209 -801h-197l-268 995v39h143l230 -856h4l225 856h152l194 -856h4l260 856h146z" />
    <glyph glyph-name="Ygrave" unicode="&#x1ef2;" horiz-adv-x="1120" 
d="M602 1495l-285 115q-53 18 -53 69q0 35 22 55q20 19 56 19q37 0 66 -20l231 -162zM1061 1354l-418 -865v-489h-164v479l-422 875v39h164l238 -494q35 -70 104 -244h2q47 128 105 246l235 492h156v-39z" />
    <glyph glyph-name="ygrave" unicode="&#x1ef3;" horiz-adv-x="960" 
d="M506 1126l-285 115q-53 18 -53 70q0 35 21 54q20 19 57 19q36 0 65 -20l232 -162zM66 985v39h143l272 -868h4l265 868h143v-39l-256 -792q-28 -86 -63 -169q-43 -102 -59 -134q-26 -54 -64 -112q-43 -66 -57 -86q-20 -28 -58 -79q-44 -58 -49 -64h-137v39
q171 205 256 371z" />
    <glyph glyph-name="figuredash" unicode="&#x2012;" horiz-adv-x="1097" 
d="M133 506v110h832v-110h-832z" />
    <glyph glyph-name="endash" unicode="&#x2013;" horiz-adv-x="1323" 
d="M133 506v110h1057v-110h-1057z" />
    <glyph glyph-name="emdash" unicode="&#x2014;" horiz-adv-x="1732" 
d="M133 506v110h1466v-110h-1466z" />
    <glyph glyph-name="quoteleft" unicode="&#x2018;" horiz-adv-x="430" 
d="M299 1393l-94 -199q42 0 76 -26q32 -25 32 -70q0 -42 -28 -69q-30 -28 -70 -28q-51 0 -78 34q-26 33 -26 81q0 102 112 277h76z" />
    <glyph glyph-name="quoteright" unicode="&#x2019;" horiz-adv-x="428" 
d="M137 1022l94 199q-43 0 -75 25q-33 26 -33 71q0 40 28 68t70 28q51 0 78 -34q27 -35 27 -81q0 -100 -113 -276h-76z" />
    <glyph glyph-name="quotesinglbase" unicode="&#x201a;" horiz-adv-x="458" 
d="M143 -219l95 199q-43 0 -77 25t-34 71q0 40 29 69t69 29q53 0 79 -35t26 -82q0 -92 -113 -276h-74z" />
    <glyph glyph-name="quotedblleft" unicode="&#x201c;" horiz-adv-x="794" 
d="M299 1393l-94 -199q42 0 76 -26q32 -25 32 -70q0 -42 -28 -69q-30 -28 -70 -28q-51 0 -78 34q-26 33 -26 81q0 102 112 277h76zM664 1393l-97 -199q44 0 78 -26q33 -26 33 -70q0 -42 -29 -69q-30 -28 -69 -28q-51 0 -78 34q-27 35 -27 81q0 101 113 277h76z" />
    <glyph glyph-name="quotedblright" unicode="&#x201d;" horiz-adv-x="790" 
d="M137 1022l94 199q-43 0 -75 25q-33 26 -33 71q0 40 28 68t70 28q51 0 78 -34q27 -35 27 -81q0 -100 -113 -276h-76zM502 1022l94 199q-43 0 -77 25t-34 71q0 41 29 68q30 28 70 28q54 0 79 -34t25 -81q0 -100 -113 -276h-73z" />
    <glyph glyph-name="quotedblbase" unicode="&#x201e;" horiz-adv-x="823" 
d="M143 -219l95 199q-43 0 -77 25t-34 71q0 40 29 69t69 29q53 0 79 -35t26 -82q0 -92 -113 -276h-74zM508 -219l94 199q-46 0 -78 25t-32 71q0 41 28 69q29 29 70 29q51 0 78 -35q26 -33 26 -82q0 -94 -112 -276h-74z" />
    <glyph glyph-name="dagger" unicode="&#x2020;" horiz-adv-x="1122" 
d="M606 825l51 -825h-186l51 825l-438 -53v197l434 -51l-47 475h186l-47 -475l428 51v-197z" />
    <glyph glyph-name="daggerdbl" unicode="&#x2021;" horiz-adv-x="1187" 
d="M637 1030l53 -293l-53 -293l434 54v-197l-430 51l49 -475h-186l47 475l-434 -51v197l438 -54l-51 293l51 293l-438 -53v197l434 -52l-47 475h186l-49 -475l430 52v-197z" />
    <glyph glyph-name="bullet" unicode="&#x2022;" horiz-adv-x="729" 
d="M170 475q0 93 58 148t137 55q80 0 138 -55t58 -148q0 -92 -58 -146q-60 -55 -138 -55q-77 0 -137 55q-58 54 -58 146z" />
    <glyph glyph-name="onedotenleader" unicode="&#x2024;" horiz-adv-x="432" 
d="M125 76q0 37 28 67q27 29 62 29q39 0 66 -29q26 -27 26 -67q0 -43 -26 -69q-27 -27 -66 -27q-35 0 -62 28q-28 30 -28 68z" />
    <glyph glyph-name="ellipsis" unicode="&#x2026;" horiz-adv-x="1173" 
d="M125 76q0 37 28 67q27 29 62 29q39 0 66 -29q26 -27 26 -67q0 -43 -26 -69q-27 -27 -66 -27q-35 0 -62 28q-28 30 -28 68zM496 76q0 40 26 67q27 29 66 29q34 0 61 -29t27 -67q0 -39 -27 -68q-27 -28 -61 -28q-39 0 -66 27q-26 26 -26 69zM864 76q0 38 27 67t65 29
q37 0 64 -29t27 -67q0 -39 -27 -68q-27 -28 -64 -28q-38 0 -65 27t-27 69z" />
    <glyph glyph-name="perthousand" unicode="&#x2030;" horiz-adv-x="2080" 
d="M336 649q-139 0 -195 100q-55 98 -55 283q0 182 55 276q56 95 195 95q136 0 193 -95q57 -94 57 -276t-57 -282q-57 -101 -193 -101zM1073 1393h127l-428 -666l-53 41zM336 1339q-92 0 -128 -73q-36 -74 -36 -234q0 -163 36 -241t128 -78t128 79q36 80 36 240t-36 234
q-36 73 -128 73zM1102 -10q-140 0 -195 99q-55 98 -55 284q0 181 55 275q56 95 195 95q136 0 193 -95q57 -94 57 -275q0 -183 -57 -283t-193 -100zM1753 -10q-139 0 -194 99q-56 100 -56 284q0 180 56 275t194 95q137 0 194 -95q56 -93 56 -275q0 -184 -56 -283
q-57 -100 -194 -100zM352 0h-129l443 686l53 -41zM1102 680q-92 0 -128 -74q-36 -73 -36 -233q0 -161 36 -241q36 -79 128 -79t128 79t36 241q0 159 -36 233t-128 74zM1753 680q-92 0 -128 -74q-36 -73 -36 -233q0 -161 36 -241q36 -79 128 -79t128 79t36 241q0 159 -36 233
t-128 74z" />
    <glyph glyph-name="guilsinglleft" unicode="&#x2039;" horiz-adv-x="653" 
d="M543 236l-88 -82l-355 372v54l355 372l88 -82l-299 -317z" />
    <glyph glyph-name="guilsinglright" unicode="&#x203a;" horiz-adv-x="653" 
d="M111 870l90 82l352 -372v-54l-352 -372l-90 82l301 317z" />
    <glyph glyph-name="exclamdbl" unicode="&#x203c;" horiz-adv-x="839" 
d="M145 1393h187l-47 -1061h-90zM506 1393h186l-47 -1061h-92zM154 76q0 40 26 67q27 29 64 29q36 0 63 -29t27 -67q0 -39 -27 -68q-27 -28 -63 -28q-40 0 -65 27q-25 26 -25 69zM512 76q0 38 27 67t63 29q37 0 64 -29q26 -27 26 -67q0 -43 -25 -69q-25 -27 -65 -27
q-36 0 -63 28t-27 68z" />
    <glyph glyph-name="fraction" unicode="&#x2044;" horiz-adv-x="319" 
d="M522 1393h127l-430 -666l-53 41zM-203 0h-129l445 686l53 -41z" />
    <glyph glyph-name="colonsign" unicode="&#x20a1;" horiz-adv-x="1185" 
d="M664 106q231 0 417 123l-20 -159q-195 -90 -397 -90q-553 0 -553 716q0 717 553 717q202 0 397 -90v-149q-68 40 -131 63l-484 -1067q87 -64 218 -64zM694 1286h-30q-211 0 -295 -156t-84 -434q0 -160 22 -264zM379 242l463 1024l-25 5q-7 1 -15 3l-9 2l-447 -977
q16 -33 33 -57z" />
    <glyph glyph-name="uni20A8" unicode="&#x20a8;" horiz-adv-x="1062" 
d="M965 1241h-183q56 -74 68 -170h115v-153h-119q-49 -229 -291 -295v-7q74 -28 110 -78q38 -53 78 -163l125 -336v-39h-159l-138 367q0 1 -1.5 5t-4 10.5t-5.5 14.5q-5 15 -14 39q-4 11 -20 38q-17 28 -26 40q-7 9 -35 35q-21 20 -47 31q-24 10 -59 18q-37 8 -74 8h-166
v137h274q241 0 279 175h-553v153h557q-15 136 -144 170h-346v14h-67v138h846v-152z" />
    <glyph glyph-name="Euro" unicode="&#x20ac;" horiz-adv-x="1323" 
d="M795 106q231 0 417 123l-20 -159q-195 -90 -397 -90q-476 0 -543 532h-156v109h148l-2 75q0 55 2 99h-148v108h160q72 510 539 510q202 0 397 -90v-149q-191 112 -397 112q-316 0 -367 -383h430v-108h-440q-2 -44 -2 -99l2 -75h440v-109h-434q22 -196 108 -301t263 -105z
" />
    <glyph glyph-name="uni2113" unicode="&#x2113;" horiz-adv-x="776" 
d="M209 545v497q0 208 70 310q78 102 174 102q78 0 124 -55t46 -148q0 -103 -56 -229q-51 -124 -225 -360v-345q0 -149 41 -217q38 -59 104 -59q63 0 113 59q53 56 94 211h33q-38 -171 -121 -260q-61 -71 -153 -71q-76 0 -137 50q-60 50 -89 134q-18 78 -18 219v106
l-146 -170l-18 23zM342 1112v-395q233 314 233 495q0 88 -32 135q-33 48 -84 48q-46 0 -84 -58q-33 -61 -33 -225z" />
    <glyph glyph-name="trademark" unicode="&#x2122;" horiz-adv-x="1533" 
d="M330 606v711h-209v76h514v-76h-211v-711h-94zM1294 606v365q0 156 6 252h-6l-209 -617h-69l-207 617h-8q6 -96 6 -252v-365h-90v787h117l184 -527q10 -32 16 -52q3 -10 10 -30t9 -28h8q7 42 31 110l176 527h116v-787h-90z" />
    <glyph glyph-name="minus" unicode="&#x2212;" horiz-adv-x="919" 
d="M137 487v111h645v-111h-645z" />
    <glyph glyph-name="zero.dnom" horiz-adv-x="757" 
d="M379 -12q-171 0 -237 112t-66 324q0 208 66 316t237 108q167 0 235 -109t68 -315q0 -211 -68 -324q-67 -112 -235 -112zM379 772q-112 0 -156 -83q-43 -82 -43 -265q0 -185 43 -272q44 -89 156 -89t156 89q43 87 43 272q0 183 -43 265q-44 83 -156 83z" />
    <glyph glyph-name="one.dnom" horiz-adv-x="393" 
d="M170 0v754h-123v57l182 31h39v-842h-98z" />
    <glyph glyph-name="two.dnom" horiz-adv-x="669" 
d="M176 82h420l-12 -82h-529v82q262 187 352 295q93 111 93 219q0 176 -199 176q-107 0 -207 -67v90q103 53 234 53q268 0 268 -254q0 -130 -99 -239q-97 -108 -321 -269v-4z" />
    <glyph glyph-name="three.dnom" horiz-adv-x="667" 
d="M393 432v-6q86 -11 143 -62q58 -52 58 -143q0 -110 -80 -172q-79 -61 -211 -61q-99 0 -233 55v88q128 -68 231 -68q89 0 142 42t53 116q0 83 -69 123q-70 41 -181 41h-68v78h68q87 0 158 38t71 130q0 66 -47 104q-46 37 -121 37q-87 0 -219 -61v90q123 47 229 47
q119 0 187 -58q69 -58 69 -147q0 -92 -50 -145q-51 -54 -130 -66z" />
    <glyph glyph-name="four.dnom" horiz-adv-x="681" 
d="M616 176h-84v-176h-98v176h-387v80l420 586h65v-584h84v-82zM434 258v404l-297 -404h297z" />
    <glyph glyph-name="five.dnom" horiz-adv-x="657" 
d="M180 754v-240q55 12 107 12q134 0 220 -64q87 -64 87 -212q0 -124 -81 -193t-212 -69q-114 0 -227 55v88q131 -68 229 -68q186 0 186 193t-223 193q-70 0 -162 -21v408h459v-82h-383z" />
    <glyph glyph-name="six.dnom" horiz-adv-x="718" 
d="M375 553q150 0 216 -81t66 -196q0 -114 -69 -201t-209 -87q-89 0 -151 34q-63 35 -94 92t-46 124q-14 62 -14 143q0 467 334 467q106 0 213 -55v-88q-112 67 -218 67q-186 0 -219 -266q96 47 191 47zM379 63q174 0 174 213q0 197 -201 197q-83 0 -174 -41v-49
q0 -320 201 -320z" />
    <glyph glyph-name="seven.dnom" horiz-adv-x="612" 
d="M281 0h-107q0 176 87 377t224 377h-436v82h524v-72q-132 -169 -212 -375q-80 -204 -80 -389z" />
    <glyph glyph-name="eight.dnom" horiz-adv-x="716" 
d="M463 438q86 -39 136 -91q48 -49 48 -134q0 -104 -87 -166q-86 -61 -212 -61q-134 0 -207 58t-73 155q0 65 45 127t143 96q-74 33 -119 83q-43 47 -43 126q0 88 79 152q80 65 196 65q123 0 188 -56q66 -57 66 -147q0 -139 -160 -207zM203 641q0 -34 14 -59q16 -28 49 -50
q29 -19 61 -34q50 -24 76 -35q117 60 117 178q0 65 -45 98t-110 33q-75 0 -118 -34q-44 -35 -44 -97zM352 61q83 0 136 41t53 105q0 88 -121 145q-14 8 -101 43q-151 -67 -151 -188q0 -62 50 -104t134 -42z" />
    <glyph glyph-name="nine.dnom" horiz-adv-x="718" 
d="M340 848q88 0 150 -34q64 -35 95 -92t46 -124q14 -62 14 -143q0 -467 -334 -467q-104 0 -211 55v88q113 -68 215 -68q189 0 222 267q-112 -47 -193 -47q-149 0 -215 81t-66 195q0 115 69 202t208 87zM367 362q74 0 176 41v50q0 319 -201 319q-174 0 -174 -213
q0 -197 199 -197z" />
    <glyph glyph-name="zero.numr" horiz-adv-x="757" 
d="M379 545q-171 0 -237 112q-66 113 -66 324q0 208 66 316t237 108q167 0 235 -109t68 -315q0 -211 -68 -324q-67 -112 -235 -112zM379 1329q-112 0 -156 -83q-43 -82 -43 -265q0 -185 43 -272q43 -88 156 -88t156 88q43 87 43 272q0 183 -43 265q-44 83 -156 83z" />
    <glyph glyph-name="one.numr" horiz-adv-x="393" 
d="M170 557v754h-123v57l182 31h39v-842h-98z" />
    <glyph glyph-name="two.numr" horiz-adv-x="669" 
d="M176 639h420l-12 -82h-529v82q262 187 352 295q93 111 93 219q0 176 -199 176q-107 0 -207 -67v90q103 53 234 53q268 0 268 -254q0 -129 -99 -239q-97 -108 -321 -269v-4z" />
    <glyph glyph-name="three.numr" horiz-adv-x="667" 
d="M393 989v-6q86 -11 143 -62q58 -52 58 -143q0 -110 -80 -172q-79 -61 -211 -61q-99 0 -233 55v88q127 -67 231 -67q89 0 142 42t53 115q0 82 -69 123q-70 41 -181 41h-68v78h68q87 0 158 38t71 130q0 66 -47 104q-46 37 -121 37q-87 0 -219 -61v90q123 47 229 47
q119 0 187 -58q69 -59 69 -147q0 -92 -50 -145q-51 -54 -130 -66z" />
    <glyph glyph-name="four.numr" horiz-adv-x="681" 
d="M616 733h-84v-176h-98v176h-387v80l420 586h65v-584h84v-82zM434 815v404l-297 -404h297z" />
    <glyph glyph-name="five.numr" horiz-adv-x="657" 
d="M180 1311v-240q56 12 107 12q134 0 220 -64q87 -65 87 -212q0 -124 -81 -193t-212 -69q-114 0 -227 55v88q130 -67 229 -67q186 0 186 192q0 193 -223 193q-70 0 -162 -21v408h459v-82h-383z" />
    <glyph glyph-name="six.numr" horiz-adv-x="718" 
d="M375 1110q150 0 216 -81t66 -195q0 -115 -69 -202t-209 -87q-89 0 -151 34q-63 35 -94 92t-46 124q-14 62 -14 143q0 467 334 467q106 0 213 -55v-88q-112 67 -218 67q-186 0 -219 -266q96 47 191 47zM379 621q174 0 174 213q0 196 -201 196q-83 0 -174 -41v-49
q0 -319 201 -319z" />
    <glyph glyph-name="seven.numr" horiz-adv-x="612" 
d="M281 557h-107q0 176 87 377t224 377h-436v82h524v-72q-132 -169 -212 -375q-80 -204 -80 -389z" />
    <glyph glyph-name="eight.numr" horiz-adv-x="716" 
d="M463 995q86 -39 136 -91q48 -50 48 -134q0 -104 -87 -166q-86 -61 -212 -61q-134 0 -207 58t-73 155q0 66 45 127q45 62 143 96q-74 33 -119 83q-43 47 -43 126q0 88 79 152q80 65 196 65q123 0 188 -56q66 -57 66 -147q0 -139 -160 -207zM203 1198q0 -34 14 -59
q15 -27 49 -49q35 -23 61 -35q50 -24 76 -35q117 60 117 178q0 65 -45 98t-110 33q-75 0 -118 -34q-44 -35 -44 -97zM352 618q83 0 136 41t53 105q0 46 -31 82q-29 34 -70 54q-48 24 -98 44q-17 7 -23 8q-151 -67 -151 -188q0 -62 50 -104t134 -42z" />
    <glyph glyph-name="nine.numr" horiz-adv-x="718" 
d="M340 1405q88 0 150 -34q64 -35 95 -92t46 -124q14 -62 14 -143q0 -467 -334 -467q-104 0 -211 55v88q112 -67 215 -67q189 0 222 266q-112 -47 -193 -47q-149 0 -215 81t-66 195q0 115 69 202t208 87zM367 920q74 0 176 41v49q0 319 -201 319q-174 0 -174 -213
q0 -196 199 -196z" />
    </font>
</defs>
</svg>
