<?xml version="1.0" standalone="no"?>
<!DOCTYPE svg PUBLIC "-//W3C//DTD SVG 1.1//EN" "http://www.w3.org/Graphics/SVG/1.1/DTD/svg11.dtd" >
<svg xmlns="http://www.w3.org/2000/svg" xmlns:xlink="http://www.w3.org/1999/xlink" version="1.1">
<metadata>
Created by FontForge 20170731 at Mon Jun 27 16:03:36 2022
 By Aleksey,,,
Copyright (c) 2013 by Dino dos Santos. All rights reserved.
</metadata>
<defs>
<font id="BreveSansText-Book" horiz-adv-x="1026" >
  <font-face 
    font-family="BreveSansText-Book"
    font-weight="400"
    font-stretch="normal"
    units-per-em="2048"
    panose-1="0 0 5 0 0 0 0 0 0 0"
    ascent="1638"
    descent="-410"
    x-height="1024"
    cap-height="1393"
    bbox="-344 -508 2044 1847"
    underline-thickness="102"
    underline-position="-204"
    unicode-range="U+0020-2212"
  />
<missing-glyph horiz-adv-x="1103" 
d="M131 0v1024h840v-1024h-840zM930 999h-758l381 -469zM537 510l-385 483v-960zM567 510l383 -473v952zM926 25l-373 467l-377 -467h750z" />
    <glyph glyph-name="fi" unicode="fi" horiz-adv-x="1105" 
d="M176 1024v68q0 126 30 207q30 82 95 123q69 44 144 58q79 15 200 15v-156l-22 -12q-61 21 -115 21q-139 0 -139 -172v-152h225v-137h-225v-887h-193v887h-121v71zM754 1296q0 44 31 74q33 31 81 31q46 0 79 -31q32 -30 32 -74q0 -42 -31 -73t-80 -31q-48 0 -81 31
q-31 30 -31 73zM965 1024v-1024h-193v1024h193z" />
    <glyph glyph-name="fl" unicode="fl" horiz-adv-x="1132" 
d="M176 1024v68q0 126 30 207q30 82 95 123q69 44 144 58q79 15 200 15v-156l-22 -12q-61 21 -115 21q-139 0 -139 -172v-152h225v-137h-225v-887h-193v887h-121v71zM913 1475h48v-1268q0 -86 65 -86q34 0 66 14v-133q-59 -22 -142 -22q-84 0 -133 45t-49 131v1237z" />
    <glyph glyph-name=".notdef" horiz-adv-x="1103" 
d="M131 0v1024h840v-1024h-840zM930 999h-758l381 -469zM537 510l-385 483v-960zM567 510l383 -473v952zM926 25l-373 467l-377 -467h750z" />
    <glyph glyph-name=".null" horiz-adv-x="0" 
 />
    <glyph glyph-name="nonmarkingreturn" horiz-adv-x="681" 
 />
    <glyph glyph-name="space" unicode=" " horiz-adv-x="458" 
 />
    <glyph glyph-name="exclam" unicode="!" horiz-adv-x="497" 
d="M137 1393h223l-55 -1049h-115zM150 88q0 42 30 73q30 32 72 32t73 -31q29 -29 29 -74q0 -47 -29 -77q-30 -31 -73 -31q-42 0 -72 31q-30 32 -30 77z" />
    <glyph glyph-name="quotedbl" unicode="&#x22;" horiz-adv-x="806" 
d="M121 1393h186l-22 -471h-142zM500 1393h186l-24 -471h-142z" />
    <glyph glyph-name="numbersign" unicode="#" horiz-adv-x="1064" 
d="M725 612v-139h233v-115h-233v-278h-115v278h-153v-278h-117v278h-231v115h231v139h-231v115h231v277h117v-277h153v277h115v-277h233v-115h-233zM610 612h-153v-139h153v139z" />
    <glyph glyph-name="dollar" unicode="$" horiz-adv-x="1062" 
d="M977 367q0 -163 -120 -269q-119 -105 -302 -116l-4 -84h-115l4 86q-185 17 -338 90v180q192 -97 347 -113l26 498q-80 36 -134 68q-52 30 -109 75q-63 49 -91 115q-28 65 -28 152q0 165 114 263q113 96 291 101l4 82h113l-4 -86q157 -15 305 -86v-182q-147 90 -313 108
l-25 -438q90 -43 138 -72q46 -27 114 -83q66 -54 96 -126q31 -74 31 -163zM328 1075q0 -119 161 -207l21 383q-94 -7 -138 -57t-44 -119zM588 584l-25 -443q103 12 151 69t48 140q0 78 -45 132q-47 57 -129 102z" />
    <glyph glyph-name="percent" unicode="%" horiz-adv-x="1460" 
d="M336 649q-141 0 -200 100q-58 98 -58 283q0 182 57 277q57 94 201 94q141 0 200 -95q58 -94 58 -276q0 -185 -58 -283q-59 -100 -200 -100zM1081 1393h160l-448 -666l-70 41zM336 1323q-83 0 -118 -70q-34 -68 -34 -221q0 -157 34 -229q35 -74 118 -74q86 0 119 74
q32 71 32 229q0 155 -32 222q-33 69 -119 69zM1126 -10q-140 0 -199 99q-59 100 -59 284q0 180 58 276q57 94 200 94q141 0 200 -95q58 -94 58 -275q0 -186 -58 -284q-58 -99 -200 -99zM369 0h-158l459 686l69 -41zM1126 664q-85 0 -118 -69t-33 -222q0 -157 33 -230
t118 -73q86 0 119 73t33 230q0 153 -33 222t-119 69z" />
    <glyph glyph-name="ampersand" unicode="&#x26;" horiz-adv-x="1284" 
d="M1225 43v-43h-215l-76 82q-147 -102 -371 -102q-223 0 -341 102t-118 278q0 204 224 371q-144 176 -144 338q0 167 114 255q115 89 300 89q205 0 306 -88q102 -89 102 -215q0 -84 -45 -161t-123 -120h-158q129 99 129 238q0 81 -52 133q-53 53 -149 53q-116 0 -169 -52
q-54 -53 -54 -130q0 -90 54 -168q53 -76 210 -241q31 -31 39 -41l252 -271q70 143 70 369h178q0 -318 -123 -504zM586 139q136 0 231 66l-383 409q-119 -105 -119 -241q0 -114 75 -174t196 -60z" />
    <glyph glyph-name="quotesingle" unicode="'" horiz-adv-x="430" 
d="M121 1393h186l-22 -471h-142z" />
    <glyph glyph-name="parenleft" unicode="(" horiz-adv-x="567" 
d="M90 696q0 257 86 479q84 218 225 381h113q-219 -340 -219 -860t219 -860h-113q-140 162 -225 382q-86 222 -86 478z" />
    <glyph glyph-name="parenright" unicode=")" horiz-adv-x="567" 
d="M477 696q0 -256 -86 -478q-85 -220 -225 -382h-113q219 340 219 860t-219 860h113q141 -163 225 -381q86 -222 86 -479z" />
    <glyph glyph-name="asterisk" unicode="*" horiz-adv-x="770" 
d="M178 1327q18 18 39 19q24 2 41 -13q7 -7 111 -178q-6 36 -18 83q-9 36 -19 82q-8 37 -8 42q0 20 19 35q18 14 42 14t41 -14q18 -15 18 -35q0 -10 -7 -42q-2 -7 -5 -23t-6 -30.5t-7 -29.5q-11 -47 -18 -80q11 16 40 66q23 38 45 73q20 31 26 37q17 15 39 14q23 -1 39 -18
t18 -39q2 -24 -14 -41q-11 -11 -176 -112q49 9 82 17q46 12 81 21t42 9q20 0 35 -20q16 -21 16 -42q0 -22 -16 -41q-15 -18 -35 -18q-10 0 -41 7q-11 3 -38 8.5t-43 8.5q-62 13 -81 17q7 -4 17 -10t24 -15t25 -15q16 -10 41.5 -25t30.5 -18q30 -18 36 -24q15 -16 13 -40
q-1 -23 -17 -39q-18 -18 -40 -19q-24 -2 -40 14q-7 5 -111 172q3 -18 19 -79q15 -59 20 -80q8 -35 8 -41q0 -21 -19 -36t-42 -15t-41 15t-18 36q0 10 7 41q2 10 7.5 37t9.5 43q14 60 17 79q-16 -24 -40 -65q-34 -58 -43 -73q-18 -30 -24 -36q-15 -14 -40 -12q-22 1 -40 19
q-17 17 -18 38q-2 24 14 41q3 3 174 109q-49 -9 -83 -17q-70 -17 -81 -20q-35 -8 -41 -8q-19 0 -34 19q-15 20 -15 42q0 23 15 41q16 19 34 19q5 0 42 -8q11 -2 38 -8.5t44 -10.5q34 -8 81 -16q-170 102 -176 110q-15 16 -13 39q2 24 17 39z" />
    <glyph glyph-name="plus" unicode="+" horiz-adv-x="876" 
d="M768 479h-264v-266h-129v266h-266v127h266v268h129v-268h264v-127z" />
    <glyph glyph-name="comma" unicode="," horiz-adv-x="462" 
d="M131 -231l98 211q-42 0 -76 28t-34 80q0 46 32 76q33 31 78 31q56 0 86 -38q31 -39 31 -91q0 -106 -125 -297h-90z" />
    <glyph glyph-name="hyphen" unicode="-" horiz-adv-x="917" 
d="M129 502v127h659v-127h-659z" />
    <glyph glyph-name="period" unicode="." horiz-adv-x="436" 
d="M117 88q0 42 30 73q30 32 72 32q41 0 71 -32q29 -30 29 -73q0 -47 -29 -77q-30 -31 -71 -31q-42 0 -72 31q-30 32 -30 77z" />
    <glyph glyph-name="slash" unicode="/" horiz-adv-x="600" 
d="M532 1434l-329 -1475h-135l325 1475h139z" />
    <glyph glyph-name="zero" unicode="0" horiz-adv-x="1253" 
d="M627 -20q-287 0 -404 186t-117 541q0 349 116 528q115 178 405 178q286 0 403 -179q117 -178 117 -527q0 -353 -117 -540t-403 -187zM627 1253q-174 0 -240 -127q-65 -126 -65 -419q0 -295 66 -432q66 -136 239 -136q172 0 238 136q67 139 67 432q0 291 -66 419
q-66 127 -239 127z" />
    <glyph glyph-name="one" unicode="1" horiz-adv-x="651" 
d="M268 0v1223h-205v129l310 51h100v-1403h-205z" />
    <glyph glyph-name="two" unicode="2" horiz-adv-x="1114" 
d="M334 170h674l-21 -170h-901v170q399 281 556 457q157 177 157 348q0 278 -305 278q-181 0 -353 -112v182q186 90 400 90q212 0 339 -103q128 -104 128 -333q0 -78 -22 -153q-21 -73 -71 -142q-55 -77 -100 -127q-55 -62 -139 -127q-106 -83 -159 -121q-71 -51 -183 -129
v-8z" />
    <glyph glyph-name="three" unicode="3" horiz-adv-x="1112" 
d="M680 723v-10q139 -18 235 -106q95 -87 95 -230q0 -188 -137 -293q-135 -104 -363 -104q-197 0 -410 94v180q207 -115 394 -115q142 0 227 64q84 63 84 180q0 123 -108 184q-109 62 -283 62h-127v155h127q84 0 163 19q72 17 137 79q62 59 62 156q0 104 -78 160
q-77 55 -194 55q-96 0 -175 -24q-76 -23 -198 -80v180q206 84 397 84q204 0 328 -97q125 -98 125 -251q0 -146 -82 -232q-83 -88 -219 -110z" />
    <glyph glyph-name="four" unicode="4" horiz-adv-x="1144" 
d="M1061 281h-146v-281h-204v281h-645v172l692 950h157v-952h146v-170zM711 451v604l-451 -604h451z" />
    <glyph glyph-name="five" unicode="5" horiz-adv-x="1089" 
d="M315 1223v-353q89 19 170 19q223 0 369 -110q145 -109 145 -351q0 -213 -136 -331q-135 -117 -359 -117q-200 0 -400 94v180q219 -115 383 -115q297 0 297 293q0 163 -92 228t-260 65q-116 0 -276 -37v705h792v-170h-633z" />
    <glyph glyph-name="six" unicode="6" horiz-adv-x="1185" 
d="M629 922q241 0 355 -132t114 -327q0 -198 -122 -341q-121 -142 -358 -142q-141 0 -247 53q-103 51 -161 148q-56 92 -82 207q-26 113 -26 247q0 778 570 778q185 0 364 -94v-178q-184 112 -358 112q-157 0 -239 -103q-83 -104 -107 -306q166 78 297 78zM618 139
q139 0 202 91q63 92 63 233q0 143 -68 223t-235 80q-117 0 -258 -66l-3 -69q0 -492 299 -492z" />
    <glyph glyph-name="seven" unicode="7" horiz-adv-x="1019" 
d="M500 0h-234q0 293 146 618q147 326 379 605h-725v170h907v-148q-218 -276 -345 -610q-128 -336 -128 -635z" />
    <glyph glyph-name="eight" unicode="8" horiz-adv-x="1183" 
d="M791 733q138 -67 216 -149t78 -219q0 -177 -146 -283q-148 -107 -361 -107q-232 0 -357 99t-125 258q0 107 70 210q67 99 211 160q-116 61 -178 139q-64 81 -64 199q0 157 133 265t338 108q216 0 328 -94q113 -95 113 -242q0 -233 -256 -344zM606 1253q-110 0 -175 -51
q-64 -51 -64 -143q0 -49 21 -89t74 -75q54 -36 91 -54q56 -28 117 -55q174 96 174 271q0 97 -68 147q-67 49 -170 49zM578 135q121 0 200 61q78 60 78 154q0 50 -26 94q-26 45 -71 75q-49 33 -99 56q-108 49 -119 54q-36 14 -41 16q-197 -113 -197 -295q0 -92 75 -153
q76 -62 200 -62z" />
    <glyph glyph-name="nine" unicode="9" horiz-adv-x="1185" 
d="M567 1413q142 0 248 -53q102 -51 161 -149q56 -93 82 -206q25 -109 25 -247q0 -778 -569 -778q-183 0 -362 94v178q184 -113 356 -113q298 0 348 410q-166 -78 -299 -78q-241 0 -354 131t-113 328q0 199 121 341t356 142zM606 627q121 0 260 65l2 70q0 491 -301 491
q-139 0 -200 -90q-62 -91 -62 -233q0 -143 68 -223t233 -80z" />
    <glyph glyph-name="colon" unicode=":" horiz-adv-x="460" 
d="M129 678q0 46 30 76t70 30q41 0 71 -30t30 -76q0 -44 -30 -75q-30 -32 -71 -32q-40 0 -70 32q-30 31 -30 75zM129 88q0 42 30 73q30 32 70 32q41 0 71 -32q30 -31 30 -73q0 -46 -30 -77t-71 -31q-40 0 -70 31q-30 32 -30 77z" />
    <glyph glyph-name="semicolon" unicode=";" horiz-adv-x="503" 
d="M141 678q0 46 30 76t71 30q42 0 72 -30t30 -76q0 -44 -30 -75q-30 -32 -72 -32q-41 0 -71 32q-30 31 -30 75zM152 -231l98 211q-42 0 -76 28q-35 29 -35 80q0 46 32 76q33 31 79 31q57 0 87 -38q30 -37 30 -91q0 -106 -125 -297h-90z" />
    <glyph glyph-name="less" unicode="&#x3c;" horiz-adv-x="843" 
d="M709 403v-147l-609 262v152l609 262v-148l-430 -190z" />
    <glyph glyph-name="equal" unicode="=" horiz-adv-x="919" 
d="M129 625v127h662v-127h-662zM129 334v127h662v-127h-662z" />
    <glyph glyph-name="greater" unicode="&#x3e;" horiz-adv-x="843" 
d="M135 784v148l608 -262v-152l-608 -262v147l430 191z" />
    <glyph glyph-name="question" unicode="?" horiz-adv-x="940" 
d="M868 1012q0 -100 -28 -175q-28 -76 -73 -122q-44 -45 -104 -74t-117 -39q-54 -10 -118 -10l-18 -248h-115l-21 371q188 0 288 62q102 63 102 224q0 119 -65 186q-65 66 -189 66q-144 0 -332 -112v182q186 90 366 90q195 0 309 -107q115 -108 115 -294zM254 88q0 42 30 73
q30 32 70 32q42 0 73 -31q30 -30 30 -74q0 -46 -30 -77t-73 -31q-40 0 -70 31q-30 32 -30 77z" />
    <glyph glyph-name="at" unicode="@" horiz-adv-x="1669" 
d="M1176 879q0 -1 -29 -142q-22 -110 -23 -113q-2 -9 -7.5 -38t-8.5 -46q-9 -51 -12 -66q-4 -21 -9 -45q-2 -12 -5 -37l-2 -26q-1 -9 -1 -28q0 -113 84 -113q102 0 174 107q72 106 72 303q0 241 -154 363t-381 122q-290 0 -455 -173t-165 -470q0 -286 170 -427
q168 -140 469 -140q279 0 481 131v-127q-202 -141 -530 -141q-319 0 -534 193q-216 194 -216 519q0 329 216 546q216 218 567 218q294 0 488 -166q196 -167 196 -444q0 -223 -119 -380t-316 -157q-169 0 -198 154l-129 -119q-46 -35 -117 -35q-89 0 -145 80t-56 205
q0 535 396 535q161 0 299 -43zM928 356l71 420q-85 27 -165 27q-205 0 -205 -408q0 -153 106 -153q82 0 193 114z" />
    <glyph glyph-name="A" unicode="A" horiz-adv-x="1191" 
d="M1139 43v-43h-205l-109 367h-469l-108 -367h-195v43l412 1360h264zM774 537l-106 360q-55 189 -76 289h-2q-29 -134 -76 -289l-106 -360h366z" />
    <glyph glyph-name="B" unicode="B" horiz-adv-x="1191" 
d="M850 719v-4q104 -29 178 -120q72 -88 72 -214q0 -174 -112 -278q-110 -103 -298 -103h-528v1393h493q183 0 289 -97q105 -96 105 -260q0 -114 -56 -200q-57 -88 -143 -117zM367 797h260q98 0 157 56q60 57 60 159q0 95 -59 154q-58 58 -154 57h-264v-426zM367 170h288
q105 -2 166 57q64 61 64 174q0 105 -70 166q-69 60 -182 60h-266v-457z" />
    <glyph glyph-name="C" unicode="C" horiz-adv-x="1161" 
d="M98 696q0 717 572 717q206 0 403 -94v-178q-202 112 -403 112q-103 0 -176 -41t-110 -119q-38 -80 -54 -173q-17 -97 -17 -224q0 -126 17 -223q16 -93 54 -173q37 -79 110 -120t176 -41q229 0 424 123l-21 -188q-197 -94 -403 -94q-572 0 -572 716z" />
    <glyph glyph-name="D" unicode="D" horiz-adv-x="1310" 
d="M162 1393h487q295 0 428 -174q133 -173 133 -512q0 -707 -561 -707h-487v1393zM367 170h282q193 0 270 125q76 124 76 412q0 287 -75 400q-77 116 -271 116h-282v-1053z" />
    <glyph glyph-name="E" unicode="E" horiz-adv-x="1114" 
d="M367 1223v-426h557v-170h-557v-457h659l-20 -170h-844v1393h854v-170h-649z" />
    <glyph glyph-name="F" unicode="F" horiz-adv-x="1095" 
d="M367 1223v-451h557v-170h-557v-602h-205v1393h854v-170h-649z" />
    <glyph glyph-name="G" unicode="G" horiz-adv-x="1198" 
d="M670 1253q-103 0 -176 -41t-110 -119q-38 -80 -54 -173q-17 -97 -17 -224q0 -126 17 -223q16 -93 54 -173q37 -79 110 -120t176 -41q102 0 198 29v377h-260v170h465v-641q-197 -94 -403 -94q-572 0 -572 716q0 717 572 717q206 0 403 -94v-178q-202 112 -403 112z" />
    <glyph glyph-name="H" unicode="H" horiz-adv-x="1300" 
d="M367 1393v-596h569v596h205v-1393h-205v627h-569v-627h-205v1393h205z" />
    <glyph glyph-name="I" unicode="I" horiz-adv-x="526" 
d="M367 1393v-1393h-205v1393h205z" />
    <glyph glyph-name="J" unicode="J" horiz-adv-x="532" 
d="M373 1393v-1330q0 -79 -12 -138q-12 -61 -43 -119q-32 -60 -98 -104q-67 -44 -169 -71l-61 140q115 52 146 116q32 67 32 176v1330h205z" />
    <glyph glyph-name="K" unicode="K" horiz-adv-x="1169" 
d="M367 1393v-1393h-205v1393h205zM918 1393h196v-43l-481 -633l491 -674v-43h-209l-487 666v79z" />
    <glyph glyph-name="L" unicode="L" horiz-adv-x="1050" 
d="M1006 170l-21 -170h-823v1393h205v-1223h639z" />
    <glyph glyph-name="M" unicode="M" horiz-adv-x="1540" 
d="M1186 0v639q0 275 10 442h-10l-326 -786h-182l-326 786h-10q10 -167 10 -442v-639h-190v1393h262l272 -639q48 -118 76 -213h8q21 84 72 213l264 639h264v-1393h-194z" />
    <glyph glyph-name="N" unicode="N" horiz-adv-x="1300" 
d="M367 1393l581 -1018h10q-12 175 -12 442v576h195v-1393h-205l-584 1018h-10q12 -175 12 -443v-575h-192v1393h205z" />
    <glyph glyph-name="O" unicode="O" horiz-adv-x="1318" 
d="M659 -20q-561 0 -561 727q0 706 561 706q562 0 562 -706q0 -727 -562 -727zM659 1253q-190 0 -268 -129t-78 -417q0 -292 79 -429q80 -139 267 -139q188 0 268 139q79 137 79 429q0 288 -78 417t-269 129z" />
    <glyph glyph-name="P" unicode="P" horiz-adv-x="1171" 
d="M162 1393h463q244 0 363 -110q118 -109 118 -298q0 -192 -118 -309t-363 -117h-258v-559h-205v1393zM367 729h258q146 0 206 62t60 194t-58 184q-60 54 -208 54h-258v-494z" />
    <glyph glyph-name="Q" unicode="Q" horiz-adv-x="1318" 
d="M770 -12q21 -104 99 -154q79 -51 274 -51l-21 -135q-279 0 -399 65q-121 66 -160 273q-465 60 -465 721q0 706 561 706q562 0 562 -706q0 -651 -451 -719zM313 707q0 -292 79 -429q80 -139 267 -139q188 0 268 139q79 137 79 429q0 288 -78 417t-269 129
q-190 0 -268 -129t-78 -417z" />
    <glyph glyph-name="R" unicode="R" horiz-adv-x="1214" 
d="M1133 43v-43h-207l-144 375q-41 102 -73 139q-66 68 -181 68h-161v-582h-205v1393h463q243 0 363 -109q118 -108 118 -289q0 -139 -69 -241q-69 -103 -210 -146v-8q66 -23 104 -74q40 -55 79 -155zM367 752h258q147 0 206 59q60 60 60 184q0 123 -58 175q-59 53 -208 53
h-258v-471z" />
    <glyph glyph-name="S" unicode="S" horiz-adv-x="1058" 
d="M106 1049q0 170 121 267t303 97q210 0 402 -90v-182q-185 112 -389 112q-115 0 -168 -51t-53 -127q0 -80 67 -140q70 -62 163 -105q100 -46 190 -96q97 -54 163 -145q68 -94 68 -222q0 -171 -132 -279t-327 -108q-218 0 -418 94v180q232 -115 412 -115q126 0 188 59
t62 152q0 90 -68 155q-65 62 -163 107q-103 47 -190 93q-96 50 -163 135q-68 86 -68 209z" />
    <glyph glyph-name="T" unicode="T" horiz-adv-x="1052" 
d="M424 0v1223h-365v170h934v-170h-364v-1223h-205z" />
    <glyph glyph-name="U" unicode="U" horiz-adv-x="1282" 
d="M641 -20q-231 0 -360 120q-131 122 -131 377v916h204v-916q0 -330 287 -330q285 0 285 330v916h204v-916q0 -256 -130 -377q-129 -120 -359 -120z" />
    <glyph glyph-name="V" unicode="V" horiz-adv-x="1196" 
d="M463 -10l-408 1360v43h205l266 -895q45 -150 74 -287h4q22 108 76 287l266 895h195v-43l-412 -1360h-266z" />
    <glyph glyph-name="W" unicode="W" horiz-adv-x="1769" 
d="M1704 1393v-43l-342 -1360h-266l-211 934l-209 -934h-264l-349 1360v43h197l223 -895q37 -152 64 -297h2q10 51 36 158q23 94 31 139l181 895h194l183 -895q5 -22 57 -297h2q22 122 65 297l220 895h186z" />
    <glyph glyph-name="X" unicode="X" horiz-adv-x="1103" 
d="M1065 43v-43h-211l-313 545l-305 -545h-197v43l393 690l-354 617v43h205l282 -488l262 488h197v-43l-348 -633z" />
    <glyph glyph-name="Y" unicode="Y" horiz-adv-x="1140" 
d="M1094 1350l-422 -879v-471h-205v473l-418 877v43h205l221 -469q31 -65 100 -240h3q47 133 100 242l219 467h197v-43z" />
    <glyph glyph-name="Z" unicode="Z" horiz-adv-x="1034" 
d="M969 170l-21 -170h-880v147l634 1076h-600v170h832v-148l-635 -1075h670z" />
    <glyph glyph-name="bracketleft" unicode="[" horiz-adv-x="634" 
d="M557 1556v-147h-192v-1425h192v-148h-397v1720h397z" />
    <glyph glyph-name="backslash" unicode="\" horiz-adv-x="600" 
d="M532 -41h-137l-327 1475h137z" />
    <glyph glyph-name="bracketright" unicode="]" horiz-adv-x="634" 
d="M78 -164v148h192v1425h-192v147h397v-1720h-397z" />
    <glyph glyph-name="asciicircum" unicode="^" horiz-adv-x="796" 
d="M115 1126l243 344h80l246 -344h-129l-156 181l-157 -181h-127z" />
    <glyph glyph-name="underscore" unicode="_" horiz-adv-x="1105" 
d="M129 -207v127h850v-127h-850z" />
    <glyph glyph-name="grave" unicode="`" horiz-adv-x="718" 
d="M520 1126l-284 111q-62 27 -62 82q0 34 25 56t61 22q34 0 74 -29l227 -162z" />
    <glyph glyph-name="a" unicode="a" 
d="M662 133l-125 -106q-74 -47 -183 -47q-122 0 -204 70t-82 188q0 130 87 195t232 93l275 58v123q0 89 -42 142q-42 52 -167 52q-145 0 -293 -65l-19 22l54 143q156 43 299 43q165 0 264 -72q98 -71 98 -204v-561q0 -86 66 -86q33 0 65 14v-112q-65 -43 -153 -43
q-150 0 -172 153zM662 483l-279 -71q-119 -30 -119 -150q0 -67 43 -101t113 -34q139 0 242 115v241z" />
    <glyph glyph-name="b" unicode="b" horiz-adv-x="1099" 
d="M643 1044q174 0 270 -148q97 -150 97 -384q0 -249 -122 -391q-122 -141 -321 -141q-152 0 -282 92l-84 -82h-58v1403l146 82h47v-584l125 106q74 47 182 47zM549 102q266 0 266 410q0 206 -65 296q-66 91 -199 91q-63 0 -123 -30q-59 -29 -92 -64v-645q104 -58 213 -58z
" />
    <glyph glyph-name="c" unicode="c" horiz-adv-x="956" 
d="M571 899q-143 0 -215 -108q-71 -107 -71 -279q0 -387 288 -387q143 0 295 92v-156q-147 -81 -327 -81q-218 0 -334 140q-117 141 -117 392t124 391q124 141 351 141q159 0 314 -55l-33 -129l-27 -18q-127 57 -248 57z" />
    <glyph glyph-name="d" unicode="d" horiz-adv-x="1101" 
d="M961 1475v-1475h-185l-10 133l-123 -106q-77 -47 -184 -47q-175 0 -271 148t-96 384q0 249 115 391q114 141 305 141q141 0 254 -79v428l147 82h48zM551 125q98 0 215 111v606q-104 67 -215 67q-264 0 -264 -397q0 -206 65 -296q66 -91 199 -91z" />
    <glyph glyph-name="e" unicode="e" horiz-adv-x="1054" 
d="M965 664q0 -90 -23 -197h-655q11 -173 95 -257q85 -85 220 -85q74 0 169 27q100 29 159 65v-156q-147 -81 -361 -81q-221 0 -350 142t-129 390q0 251 124 391q124 141 351 141q82 0 144 -17q69 -19 126 -56q61 -40 95 -118q35 -81 35 -189zM287 578l485 10q6 44 6 80
q0 233 -205 233q-264 0 -286 -323z" />
    <glyph glyph-name="f" unicode="f" horiz-adv-x="628" 
d="M174 1024v68q0 241 113 322q112 81 356 81v-156l-22 -12q-62 21 -113 21q-139 0 -139 -172v-152h225v-137h-225v-887h-195v887h-119v71z" />
    <glyph glyph-name="g" unicode="g" horiz-adv-x="1030" 
d="M326 180l376 -39q297 -33 297 -278q0 -144 -128 -239t-371 -95q-240 0 -346 68q-105 67 -105 176q0 102 98 200l84 -26l-16 -111q0 -98 72 -137t209 -39q156 0 228 48q73 49 73 128q0 60 -30 90q-32 32 -110 39l-358 35q-78 6 -114 46q-35 39 -35 93q0 49 37 101
q38 53 108 94q-98 46 -150 136q-53 92 -53 208q0 162 105 264t288 102q80 0 146 -18l319 18v-129h-141q78 -95 78 -237q0 -176 -103 -282q-102 -105 -288 -105q-53 0 -95 8zM481 911q-102 0 -154 -59q-53 -61 -53 -156q0 -272 226 -272q103 0 153 62q52 64 52 173
q0 252 -224 252z" />
    <glyph glyph-name="h" unicode="h" horiz-adv-x="1075" 
d="M340 897l100 92q101 55 213 55q130 0 209 -73q80 -74 80 -215v-756h-194v721q0 166 -148 166q-112 0 -264 -92v-795h-193v1393l146 82h47v-578h4z" />
    <glyph glyph-name="i" unicode="i" horiz-adv-x="479" 
d="M127 1296q0 44 32 74q33 31 81 31q45 0 78 -31q32 -30 32 -74q0 -42 -31 -73t-79 -31t-81 31q-32 30 -32 73zM336 1024v-1024h-193v1024h193z" />
    <glyph glyph-name="j" unicode="j" horiz-adv-x="479" 
d="M127 1296q0 44 32 74q33 31 81 31q45 0 78 -31q32 -30 32 -74q0 -42 -31 -73t-79 -31t-81 31q-32 30 -32 73zM338 1024v-1020q0 -164 -59 -267q-60 -106 -234 -188l-72 115q111 68 140 131q30 66 30 209v1020h195z" />
    <glyph glyph-name="k" unicode="k" 
d="M289 1475h47v-1475h-193v1393zM795 0l-418 532l401 492h170v-43l-358 -436l399 -502v-43h-194z" />
    <glyph glyph-name="l" unicode="l" horiz-adv-x="505" 
d="M285 1475h47v-1268q0 -86 65 -86q34 0 66 14v-133q-59 -22 -141 -22q-84 0 -134 45q-49 45 -49 131v1237z" />
    <glyph glyph-name="m" unicode="m" horiz-adv-x="1669" 
d="M915 881l119 108q101 55 213 55q130 0 209 -73q80 -74 80 -215v-756h-195v721q0 166 -147 166q-106 0 -258 -92v-795h-193v721q0 166 -145 166q-110 0 -262 -92v-795h-193v1024h183l10 -127h4l100 92q101 55 213 55q201 0 258 -163h4z" />
    <glyph glyph-name="n" unicode="n" horiz-adv-x="1075" 
d="M336 897h4l100 92q101 55 213 55q130 0 209 -73q80 -74 80 -215v-756h-194v721q0 166 -148 166q-112 0 -264 -92v-795h-193v1024h183z" />
    <glyph glyph-name="o" unicode="o" horiz-adv-x="1081" 
d="M541 -20q-227 0 -338 138t-111 394t111 394t338 138q228 0 339 -138t111 -394t-111 -394t-339 -138zM541 901q-137 0 -196 -96q-58 -95 -58 -293t58 -293q59 -96 196 -96q139 0 197 96q59 97 59 293t-59 293q-58 96 -197 96z" />
    <glyph glyph-name="p" unicode="p" horiz-adv-x="1101" 
d="M643 1044q174 0 270 -148q97 -150 97 -384q0 -249 -115 -391q-114 -141 -303 -141q-140 0 -256 83v-514h-193v1475h183l10 -133l125 106q74 47 182 47zM551 115q264 0 264 397q0 206 -65 296q-66 91 -199 91q-21 0 -38 -4q-21 -5 -38 -12q-6 -3 -33 -16q-16 -8 -32 -20
l-28 -21q-1 -1 -10 -8t-16 -13q-18 -16 -20 -17v-604q108 -69 215 -69z" />
    <glyph glyph-name="q" unicode="q" horiz-adv-x="1099" 
d="M958 1034v-1485h-194v584l-123 -106q-77 -47 -184 -47q-175 0 -271 148t-96 384q0 249 122 391q122 141 323 141q152 0 282 -94l94 84h47zM549 125q63 0 123 30q59 29 92 64v647q-107 56 -213 56q-266 0 -266 -410q0 -206 65 -296q66 -91 199 -91z" />
    <glyph glyph-name="r" unicode="r" horiz-adv-x="735" 
d="M336 856h4l100 137q62 51 164 51q54 0 107 -14l-68 -176q-39 10 -84 10q-117 0 -223 -127v-737h-193v1024h183z" />
    <glyph glyph-name="s" unicode="s" horiz-adv-x="890" 
d="M467 899q-87 0 -131 -35q-43 -34 -43 -90t54 -96q55 -41 131 -71q93 -36 154 -64q77 -35 131 -101t54 -155q0 -143 -100 -225t-262 -82q-193 0 -342 71l-23 166q173 -92 350 -92q96 0 139 42q44 42 44 101q0 58 -55 99q-53 40 -130 70q-70 28 -152 66q-79 37 -131 104
q-55 70 -55 165q0 134 104 203t259 69q158 0 313 -55l-35 -129l-24 -18q-128 57 -250 57z" />
    <glyph glyph-name="t" unicode="t" horiz-adv-x="653" 
d="M51 887v71l119 66l143 209h52v-209h225v-137h-225v-649q0 -58 25 -84q26 -27 85 -27q61 0 125 31v-146q-76 -32 -174 -32q-133 0 -195 53q-61 52 -61 182v672h-119z" />
    <glyph glyph-name="u" unicode="u" horiz-adv-x="1077" 
d="M741 127h-4l-100 -92q-101 -55 -213 -55q-130 0 -209 73q-80 74 -80 215v756h195v-721q0 -166 147 -166q112 0 264 92v795h193v-1024h-182z" />
    <glyph glyph-name="v" unicode="v" horiz-adv-x="995" 
d="M614 -10h-237l-314 991v43h185l256 -831h4l244 831h184v-43z" />
    <glyph glyph-name="w" unicode="w" horiz-adv-x="1538" 
d="M1485 1024v-43l-309 -991h-246l-158 745l-190 -745h-246l-260 991v43h184l209 -823h4l209 823h197l180 -823h4l237 823h185z" />
    <glyph glyph-name="x" unicode="x" horiz-adv-x="958" 
d="M915 43v-43h-188l-254 379l-256 -379h-174v43l330 489l-299 449v43h184l229 -342l226 342h172v-43l-297 -451z" />
    <glyph glyph-name="y" unicode="y" horiz-adv-x="989" 
d="M57 981v43h185l256 -831h4l243 831h185v-43l-248 -764q-30 -89 -41 -117q-23 -62 -43 -105q-7 -15 -20.5 -45t-19.5 -44q-20 -42 -43 -81q-8 -12 -15 -25t-14.5 -25.5l-10.5 -17.5q-19 -33 -41 -63q-33 -46 -37 -51q-17 -22 -38 -51q-30 -42 -31 -43h-189v43
q169 198 254 367z" />
    <glyph glyph-name="z" unicode="z" horiz-adv-x="919" 
d="M301 137h549l-33 -137h-737v123l530 764h-530l45 137h704v-123z" />
    <glyph glyph-name="braceleft" unicode="{" horiz-adv-x="628" 
d="M238 700v-6q90 -18 133 -73t43 -119q0 -73 -29 -186t-29 -169q0 -92 44 -128q42 -35 147 -35v-148q-199 0 -292 63t-93 203q0 84 27 198q28 118 28 151q0 88 -31 124q-30 35 -102 35v172q72 0 102 35q31 36 31 125q0 33 -28 151q-27 114 -27 197q0 141 93 204
q92 62 292 62v-147q-103 0 -147 -36t-44 -128q0 -56 29 -169t29 -185q0 -66 -43 -118t-133 -73z" />
    <glyph glyph-name="bar" unicode="|" horiz-adv-x="501" 
d="M338 1434v-1475h-174v1475h174z" />
    <glyph glyph-name="braceright" unicode="}" horiz-adv-x="628" 
d="M393 694v6q-93 21 -134 73q-42 53 -42 118q0 70 28 185q27 111 27 169q0 92 -43 128q-44 36 -145 36v147q201 0 291 -62q92 -63 92 -204q0 -79 -28 -197q-27 -114 -27 -151q0 -91 31 -125q32 -35 104 -35v-172q-72 0 -104 -35q-31 -34 -31 -124q0 -37 27 -151
q28 -118 28 -198q0 -140 -92 -203q-91 -63 -291 -63v148q103 0 145 35q43 36 43 128q0 58 -27 169q-28 115 -28 186q0 67 43 120q44 54 133 72z" />
    <glyph glyph-name="asciitilde" unicode="~" horiz-adv-x="892" 
d="M242 1126h-111q10 120 64 192q53 71 131 71q52 0 146 -47q92 -46 124 -46q58 0 82 80h104q-18 -237 -168 -237q-56 0 -157 46t-129 46q-44 0 -62 -26q-18 -25 -24 -79z" />
    <glyph glyph-name="exclamdown" unicode="&#xa1;" horiz-adv-x="468" 
d="M135 936q0 44 31 77q30 31 72 31t72 -31q30 -32 30 -77q0 -44 -30 -74q-31 -31 -72 -31q-42 0 -72 32q-31 33 -31 73zM291 680l55 -1049h-223l53 1049h115z" />
    <glyph glyph-name="cent" unicode="&#xa2;" horiz-adv-x="1196" 
d="M1098 262l-21 -188q-169 -80 -325 -92v-84h-109v82q-541 23 -541 716q0 694 541 717v82h109v-84q156 -12 325 -92v-178q-168 92 -325 108v-1106q183 16 346 119zM317 696q0 -259 71 -401t255 -154v1110q-97 -6 -162 -49q-66 -43 -100 -121q-34 -76 -49 -170
q-15 -91 -15 -215z" />
    <glyph glyph-name="sterling" unicode="&#xa3;" horiz-adv-x="1067" 
d="M967 170l-21 -170h-825v139q205 111 205 338q0 60 -41 144h-164v127h94q-96 168 -96 282q0 182 120 283q119 100 304 100q206 0 401 -90v-182q-188 112 -387 112q-221 0 -221 -198q0 -25 3 -49q3 -23 11 -52q4 -14 12 -41q5 -17 19 -45q4 -8 8 -17t6.5 -14.5t3.5 -7.5
t4 -7.5t9 -15.5t11 -20q20 -36 21 -38h394v-127h-334q20 -63 20 -125q0 -177 -145 -316v-10h588z" />
    <glyph glyph-name="currency" unicode="&#xa4;" horiz-adv-x="1331" 
d="M803 139q227 0 422 123l-21 -188q-195 -94 -401 -94q-485 0 -559 516h-156v129h143l-2 71q0 52 2 90h-143v129h158q80 498 557 498q206 0 401 -94v-178q-202 112 -401 112q-287 0 -344 -338h420v-129h-433q-2 -38 -2 -90l2 -71h433v-129h-422q23 -175 104 -265
q83 -92 242 -92z" />
    <glyph glyph-name="yen" unicode="&#xa5;" horiz-adv-x="1157" 
d="M1102 1350l-387 -807h272v-127h-307v-416h-205v416h-307v127h274l-385 807v43h205l221 -469q39 -79 101 -240h2q47 133 100 242l219 467h197v-43z" />
    <glyph glyph-name="brokenbar" unicode="&#xa6;" horiz-adv-x="501" 
d="M338 1434v-656h-174v656h174zM338 614v-655h-174v655h174z" />
    <glyph glyph-name="section" unicode="&#xa7;" horiz-adv-x="1046" 
d="M133 1208q0 184 119 285q118 100 303 100q201 0 403 -90v-184q-185 113 -391 113q-219 0 -219 -199q0 -66 54 -124q52 -56 133 -100l155 -84q76 -41 132 -94q55 -52 55 -108q0 -84 -101 -135q-44 62 -158 131q-117 71 -218 125q-102 55 -185 151q-82 95 -82 213zM913 184
q0 -184 -119 -284q-121 -101 -305 -101q-199 0 -401 90v185q185 -113 389 -113q221 0 221 199q0 66 -54 124q-53 58 -132 100l-156 84q-78 42 -132 93t-54 109q0 84 100 135q44 -62 158 -131q117 -71 218 -125t185 -152q82 -95 82 -213z" />
    <glyph glyph-name="dieresis" unicode="&#xa8;" horiz-adv-x="911" 
d="M162 1286q0 43 31 71q30 27 75 27q43 0 73 -27t30 -71q0 -48 -29 -75q-28 -27 -74 -27q-45 0 -75 27q-31 28 -31 75zM541 1286q0 45 28 72q27 26 74 26q45 0 75 -27t30 -71q0 -48 -30 -75t-75 -27t-74 27q-28 27 -28 75z" />
    <glyph glyph-name="copyright" unicode="&#xa9;" horiz-adv-x="1622" 
d="M811 -20q-298 0 -507 209q-210 210 -210 507t210 507t507 210t507 -210t210 -507t-210 -507q-209 -209 -507 -209zM811 51q266 0 456 190q189 189 189 455q0 267 -189 456t-456 189t-456 -189t-189 -456q0 -266 189 -455q190 -190 456 -190zM502 696q0 404 321 404
q117 0 228 -51v-103q-114 66 -228 66q-115 0 -158 -82q-44 -83 -44 -234q0 -150 44 -233q43 -82 158 -82q127 0 238 72l-10 -109q-111 -51 -228 -51q-321 0 -321 403z" />
    <glyph glyph-name="ordfeminine" unicode="&#xaa;" horiz-adv-x="868" 
d="M532 807l-83 -72q-47 -30 -123 -30q-79 0 -131 47t-52 125q0 152 205 192l184 37v82q0 60 -28 95q-28 36 -111 36q-102 0 -194 -45l-15 16l35 94q98 29 201 29q108 0 171 -48q62 -47 62 -136v-373q0 -57 43 -57q19 0 43 8v-74q-38 -28 -94 -28q-103 0 -113 102zM532 1040
l-188 -49q-80 -21 -80 -98q0 -45 30 -69q29 -23 75 -23q89 0 163 78v161zM113 526v82h651v-82h-651z" />
    <glyph glyph-name="guillemotleft" unicode="&#xab;" horiz-adv-x="1081" 
d="M559 248l-100 -94l-363 364v70l363 364l100 -94l-291 -305zM979 248l-98 -94l-365 364v70l365 364l98 -94l-289 -305z" />
    <glyph glyph-name="logicalnot" unicode="&#xac;" horiz-adv-x="987" 
d="M723 190v332h-594v133h729v-465h-135z" />
    <glyph glyph-name="softhyphen" unicode="&#xad;" horiz-adv-x="917" 
d="M129 502v127h659v-127h-659z" />
    <glyph glyph-name="registered" unicode="&#xae;" horiz-adv-x="1622" 
d="M811 1413q297 0 507 -210t210 -507t-210 -507q-209 -209 -507 -209t-507 209q-210 210 -210 507t210 507t507 210zM811 51q266 0 456 190q189 189 189 455q0 267 -189 456t-456 189t-456 -189t-189 -456q0 -266 189 -455q190 -190 456 -190zM938 647v-4q64 -23 102 -131
l74 -184v-25h-121l-80 211q-27 76 -65 98q-33 21 -78 21h-90v-330h-117v787h262q137 0 204 -61t67 -163q0 -172 -158 -219zM680 727h145q84 0 117 34q33 35 33 105t-33 99q-32 28 -117 28h-145v-266z" />
    <glyph glyph-name="macron" unicode="&#xaf;" horiz-adv-x="888" 
d="M147 1165v113h594v-113h-594z" />
    <glyph glyph-name="degree" unicode="&#xb0;" horiz-adv-x="657" 
d="M96 1182q0 102 69 167q68 64 163 64q97 0 165 -64t68 -167q0 -102 -68 -167q-70 -67 -165 -67q-93 0 -163 67q-69 66 -69 167zM199 1182q0 -54 32 -92q33 -39 97 -39q65 0 98 39t33 92t-32 91t-99 38q-64 0 -97 -38q-32 -36 -32 -91z" />
    <glyph glyph-name="plusminus" unicode="&#xb1;" horiz-adv-x="917" 
d="M788 653v-129h-264v-260h-129v260h-266v129h266v262h129v-262h264zM129 197h659v-127h-659v127z" />
    <glyph glyph-name="twosuperior" unicode="&#xb2;" horiz-adv-x="677" 
d="M205 864h403l-12 -102h-541v102q241 169 333 273q95 107 95 209q0 167 -182 167q-111 0 -211 -67v110q114 54 238 54q126 0 203 -63t77 -199q0 -70 -27 -133q-24 -56 -92 -124q-66 -66 -121 -107q-73 -54 -163 -116v-4z" />
    <glyph glyph-name="threesuperior" unicode="&#xb3;" horiz-adv-x="679" 
d="M414 1194v-6q83 -10 140 -63q56 -52 56 -138q0 -112 -82 -175q-81 -62 -217 -62q-123 0 -245 55v108q121 -67 235 -67q86 0 136 38t50 107q0 74 -64 111t-169 37h-76v94h76q85 0 152 35q65 34 65 116q0 64 -47 97q-45 32 -117 32q-91 0 -223 -61v107q122 51 238 51
q121 0 197 -59q75 -59 75 -150q0 -88 -49 -140t-131 -67z" />
    <glyph glyph-name="acute" unicode="&#xb4;" horiz-adv-x="718" 
d="M156 1206l225 162q40 29 76 29t61 -22t25 -56q0 -53 -62 -82l-286 -111z" />
    <glyph glyph-name="paragraph" unicode="&#xb6;" horiz-adv-x="1146" 
d="M760 0v1208h-144v-692h-90q-221 0 -338 114q-116 113 -116 324q0 212 116 325q117 114 338 114h439v-1393h-205z" />
    <glyph glyph-name="periodcentered" unicode="&#xb7;" horiz-adv-x="450" 
d="M127 557q0 43 28 71q27 27 70 27q41 0 70 -27t29 -71t-29 -71t-70 -27q-44 0 -70 26q-28 28 -28 72z" />
    <glyph glyph-name="cedilla" unicode="&#xb8;" horiz-adv-x="690" 
d="M328 0v-66q81 0 133 -43q53 -44 53 -120q0 -84 -52 -132q-54 -49 -136 -49q-94 0 -146 27v74q75 -23 105 -23q112 0 112 103q0 100 -159 100v129h90z" />
    <glyph glyph-name="onesuperior" unicode="&#xb9;" horiz-adv-x="409" 
d="M166 762v733h-123v78l186 31h60v-842h-123z" />
    <glyph glyph-name="ordmasculine" unicode="&#xba;" horiz-adv-x="882" 
d="M440 705q-293 0 -293 354t293 354t293 -354t-293 -354zM440 1319q-94 0 -132 -65t-38 -195q0 -131 38 -196q37 -64 132 -64t132 64q38 65 38 196q0 130 -38 195t-132 65zM117 526v82h653v-82h-653z" />
    <glyph glyph-name="guillemotright" unicode="&#xbb;" horiz-adv-x="1081" 
d="M102 858l99 94l364 -364v-70l-364 -364l-99 94l289 305zM524 858l99 94l364 -364v-70l-364 -364l-99 94l289 305z" />
    <glyph glyph-name="onequarter" unicode="&#xbc;" horiz-adv-x="1564" 
d="M184 557v733h-123v78l187 31h59v-842h-123zM1260 1393l-447 -666l-70 41l357 625h160zM1493 168h-86v-168h-123v168h-387v104l416 570h94v-572h86v-102zM690 686l70 -41l-369 -645h-158zM1284 270v363l-270 -363h270z" />
    <glyph glyph-name="onehalf" unicode="&#xbd;" horiz-adv-x="1669" 
d="M184 557v733h-123v78l187 31h59v-842h-123zM1260 1393l-447 -666l-70 41l357 625h160zM1176 102h405l-12 -102h-541v102q241 169 333 273q95 107 95 209q0 168 -184 168q-110 0 -211 -68v111q114 53 239 53q128 0 204 -63q77 -63 77 -199q0 -135 -98 -236
q-103 -106 -307 -244v-4zM690 686l70 -41l-369 -645h-158z" />
    <glyph glyph-name="threequarters" unicode="&#xbe;" horiz-adv-x="1761" 
d="M643 782q0 -112 -83 -175q-81 -62 -218 -62q-120 0 -246 55v109q122 -68 236 -68q86 0 136 38t50 107q0 74 -64 111t-169 37h-76v94h76q84 0 151 35q66 35 66 117q0 63 -47 96q-46 33 -117 33q-88 0 -223 -62v107q121 51 239 51q122 0 196 -58q75 -59 75 -151
q0 -87 -50 -140q-49 -52 -131 -67v-6q86 -11 142 -62q57 -53 57 -139zM1454 1393l-444 -666l-70 41l356 625h158zM1690 168h-88v-168h-123v168h-387v104l415 570h95v-572h88v-102zM887 686l69 -41l-368 -645h-160zM1479 270v363l-269 -363h269z" />
    <glyph glyph-name="questiondown" unicode="&#xbf;" horiz-adv-x="927" 
d="M680 936q0 -44 -30 -74q-31 -31 -72 -31q-42 0 -72 32q-31 33 -31 73q0 44 31 77q30 31 72 31t72 -31q30 -32 30 -77zM66 12q0 124 40 210q40 85 111 130q70 44 140 62q71 18 149 18l18 248h113l22 -371q-187 0 -287 -62q-102 -63 -102 -224q0 -119 65 -186
q65 -66 189 -66q144 0 332 112v-182q-183 -90 -367 -90q-194 0 -308 107q-115 108 -115 294z" />
    <glyph glyph-name="Agrave" unicode="&#xc0;" horiz-adv-x="1191" 
d="M627 1495l-285 111q-61 27 -61 82q0 35 24 56t62 21q35 0 73 -28l228 -162zM1139 43v-43h-205l-109 367h-469l-108 -367h-195v43l412 1360h264zM774 537l-106 360q-46 156 -74 289h-2q-21 -99 -78 -289l-106 -360h366z" />
    <glyph glyph-name="Aacute" unicode="&#xc1;" horiz-adv-x="1191" 
d="M561 1495l-39 80l226 162q38 28 75 28q38 0 62 -21t24 -56q0 -54 -61 -82zM1139 43v-43h-205l-109 367h-469l-108 -367h-195v43l412 1360h264zM774 537l-106 360q-46 156 -74 289h-2q-21 -99 -78 -289l-106 -360h366z" />
    <glyph glyph-name="Acircumflex" unicode="&#xc2;" horiz-adv-x="1191" 
d="M438 1495h-129l246 344h78l246 -344h-127l-156 180zM1139 43v-43h-205l-109 367h-469l-108 -367h-195v43l412 1360h264zM774 537l-106 360q-46 156 -74 289h-2q-21 -99 -78 -289l-106 -360h366z" />
    <glyph glyph-name="Atilde" unicode="&#xc3;" horiz-adv-x="1191" 
d="M465 1599q-44 0 -62 -25t-24 -79h-111q10 120 64 192q52 70 131 70q54 0 146 -46t124 -46q58 0 82 80h105q-18 -238 -168 -238q-57 0 -158 46t-129 46zM1139 43v-43h-205l-109 367h-469l-108 -367h-195v43l412 1360h264zM774 537l-106 360q-46 156 -74 289h-2
q-21 -99 -78 -289l-106 -360h366z" />
    <glyph glyph-name="Adieresis" unicode="&#xc4;" horiz-adv-x="1191" 
d="M408 1552q-45 0 -76 28t-31 75q0 42 31 70t76 28q41 0 72 -28q30 -27 30 -70q0 -48 -29 -75q-30 -28 -73 -28zM782 1552q-43 0 -73 28q-29 27 -29 75q0 44 29 71t73 27t75 -28q30 -27 30 -70q0 -48 -30 -75q-31 -28 -75 -28zM1139 43v-43h-205l-109 367h-469l-108 -367
h-195v43l412 1360h264zM774 537l-106 360q-46 156 -74 289h-2q-21 -99 -78 -289l-106 -360h366z" />
    <glyph glyph-name="Aring" unicode="&#xc5;" horiz-adv-x="1191" 
d="M596 1483q-78 0 -124 42t-46 117q0 76 45 119q44 43 125 43q76 0 122 -43t46 -119q0 -75 -46 -117t-122 -42zM596 1739q-94 0 -94 -97q0 -94 94 -94q43 0 68 25q24 24 24 69q0 97 -92 97zM1139 43v-43h-205l-109 367h-469l-108 -367h-195v43l412 1360h264zM774 537
l-106 360q-46 156 -74 289h-2q-21 -99 -78 -289l-106 -360h366z" />
    <glyph glyph-name="AE" unicode="&#xc6;" horiz-adv-x="1636" 
d="M1550 170l-20 -170h-785v367h-368l-160 -367h-197v43l596 1350h922v-170h-588v-426h498v-170h-498v-457h600zM745 537v686h-18q-45 -157 -104 -289l-172 -397h294z" />
    <glyph glyph-name="Ccedilla" unicode="&#xc7;" horiz-adv-x="1161" 
d="M1094 262l-21 -188q-181 -86 -354 -92v-48q81 0 133 -43q53 -44 53 -120q0 -84 -52 -132q-54 -49 -136 -49q-93 0 -146 27v74q75 -23 105 -23q112 0 112 103q0 100 -159 100v109q-531 27 -531 716q0 717 572 717q206 0 403 -94v-178q-202 112 -403 112q-103 0 -176 -41
t-110 -119q-38 -80 -54 -173q-17 -97 -17 -224q0 -126 17 -223q16 -93 54 -173q37 -79 110 -120t176 -41q229 0 424 123z" />
    <glyph glyph-name="Egrave" unicode="&#xc8;" horiz-adv-x="1114" 
d="M621 1495l-285 111q-62 27 -62 82q0 34 25 56q24 21 61 21q36 0 74 -28l228 -162zM367 1223v-426h557v-170h-557v-457h661l-20 -170h-846v1393h854v-170h-649z" />
    <glyph glyph-name="Eacute" unicode="&#xc9;" horiz-adv-x="1114" 
d="M516 1575l225 162q38 28 76 28t62 -21t24 -56q0 -54 -61 -82l-287 -111zM367 1223v-426h557v-170h-557v-457h661l-20 -170h-846v1393h854v-170h-649z" />
    <glyph glyph-name="Ecircumflex" unicode="&#xca;" horiz-adv-x="1114" 
d="M303 1495l246 344h78l245 -344h-127l-155 180l-158 -180h-129zM367 1223v-426h557v-170h-557v-457h661l-20 -170h-846v1393h854v-170h-649z" />
    <glyph glyph-name="Edieresis" unicode="&#xcb;" horiz-adv-x="1114" 
d="M295 1655q0 42 31 70t75 28q42 0 73 -28q30 -27 30 -70q0 -48 -29 -75q-30 -28 -74 -28t-75 28t-31 75zM674 1655q0 44 28 71t74 27q44 0 75 -28q30 -27 30 -70q0 -48 -30 -75q-31 -28 -75 -28t-74 28q-28 27 -28 75zM367 1223v-426h557v-170h-557v-457h661l-20 -170
h-846v1393h854v-170h-649z" />
    <glyph glyph-name="Igrave" unicode="&#xcc;" horiz-adv-x="526" 
d="M295 1495l-285 111q-61 27 -61 82q0 35 24 56t62 21q36 0 74 -28l227 -162zM367 1393v-1393h-205v1393h205z" />
    <glyph glyph-name="Iacute" unicode="&#xcd;" horiz-adv-x="526" 
d="M190 1575l226 162q38 28 76 28q37 0 61 -21q25 -22 25 -56q0 -53 -62 -82l-287 -111zM367 1393v-1393h-205v1393h205z" />
    <glyph glyph-name="Icircumflex" unicode="&#xce;" horiz-adv-x="526" 
d="M-23 1495l246 344h78l246 -344h-127l-156 180l-158 -180h-129zM367 1393v-1393h-205v1393h205z" />
    <glyph glyph-name="Idieresis" unicode="&#xcf;" horiz-adv-x="526" 
d="M-31 1655q0 42 31 70t76 28q41 0 72 -28q30 -27 30 -70q0 -48 -28 -75q-30 -28 -74 -28q-45 0 -76 28t-31 75zM348 1655q0 44 29 71t74 27q43 0 74 -28q30 -27 30 -70q0 -48 -30 -75q-31 -28 -74 -28q-44 0 -74 28q-29 27 -29 75zM367 1393v-1393h-205v1393h205z" />
    <glyph glyph-name="Eth" unicode="&#xd0;" horiz-adv-x="1316" 
d="M166 1393h489q295 0 428 -174q134 -175 134 -512q0 -707 -562 -707h-489v618h-139v156h139v619zM371 170h284q193 0 270 125q76 124 76 412q0 285 -76 400q-77 116 -270 116h-284v-449h327v-156h-327v-448z" />
    <glyph glyph-name="Ntilde" unicode="&#xd1;" horiz-adv-x="1300" 
d="M420 1495h-111q10 120 64 192q52 70 131 70q54 0 146 -46t124 -46q58 0 82 80h105q-18 -238 -168 -238q-57 0 -158 46t-129 46q-44 0 -62 -25t-24 -79zM367 1393l581 -1018h10q-10 167 -10 442v576h193v-1393h-205l-582 1018h-10q10 -167 10 -443v-575h-192v1393h205z
" />
    <glyph glyph-name="Ograve" unicode="&#xd2;" horiz-adv-x="1318" 
d="M694 1495l-284 111q-62 27 -62 82q0 34 25 56q24 21 61 21q36 0 74 -28l227 -162zM659 -20q-561 0 -561 727q0 706 561 706q562 0 562 -706q0 -727 -562 -727zM659 1253q-190 0 -268 -129t-78 -417q0 -292 79 -429q80 -139 267 -139q188 0 268 139q79 137 79 429
q0 288 -78 417t-269 129z" />
    <glyph glyph-name="Oacute" unicode="&#xd3;" horiz-adv-x="1318" 
d="M590 1575l225 162q38 28 76 28q37 0 61 -21q25 -22 25 -56q0 -53 -62 -82l-286 -111zM659 -20q-561 0 -561 727q0 706 561 706q562 0 562 -706q0 -727 -562 -727zM659 1253q-190 0 -268 -129t-78 -417q0 -292 79 -429q80 -139 267 -139q188 0 268 139q79 137 79 429
q0 288 -78 417t-269 129z" />
    <glyph glyph-name="Ocircumflex" unicode="&#xd4;" horiz-adv-x="1318" 
d="M377 1495l246 344h77l246 -344h-127l-155 180l-158 -180h-129zM659 -20q-561 0 -561 727q0 706 561 706q562 0 562 -706q0 -727 -562 -727zM659 1253q-190 0 -268 -129t-78 -417q0 -292 79 -429q80 -139 267 -139q188 0 268 139q79 137 79 429q0 288 -78 417t-269 129z
" />
    <glyph glyph-name="Otilde" unicode="&#xd5;" horiz-adv-x="1318" 
d="M446 1495h-110q10 121 63 192q52 70 131 70q55 0 147 -46t124 -46q58 0 82 80h104q-18 -238 -168 -238q-56 0 -157 46t-130 46q-43 0 -61 -25q-19 -27 -25 -79zM659 -20q-561 0 -561 727q0 706 561 706q562 0 562 -706q0 -727 -562 -727zM659 1253q-190 0 -268 -129
t-78 -417q0 -292 79 -429q80 -139 267 -139q188 0 268 139q79 137 79 429q0 288 -78 417t-269 129z" />
    <glyph glyph-name="Odieresis" unicode="&#xd6;" horiz-adv-x="1318" 
d="M369 1655q0 43 30 70q31 28 76 28q42 0 73 -28q30 -27 30 -70q0 -48 -29 -75q-30 -28 -74 -28q-45 0 -76 28q-30 27 -30 75zM748 1655q0 44 28 71t74 27q44 0 75 -28q29 -26 29 -70q0 -49 -29 -75q-31 -28 -75 -28t-74 28q-28 27 -28 75zM659 -20q-561 0 -561 727
q0 706 561 706q562 0 562 -706q0 -727 -562 -727zM659 1253q-190 0 -268 -129t-78 -417q0 -292 79 -429q80 -139 267 -139q188 0 268 139q79 137 79 429q0 288 -78 417t-269 129z" />
    <glyph glyph-name="multiply" unicode="&#xd7;" horiz-adv-x="915" 
d="M459 455l-248 -248l-90 90l248 248l-248 246l90 90l248 -248l246 248l90 -90l-248 -246l248 -248l-90 -90z" />
    <glyph glyph-name="Oslash" unicode="&#xd8;" horiz-adv-x="1318" 
d="M1112 1516l-96 -213q205 -166 205 -596q0 -727 -562 -727q-134 0 -225 36l-63 -139h-146l92 205q-219 170 -219 625q0 706 561 706q143 0 242 -43l66 146h145zM313 707q0 -312 86 -443l432 953q-66 36 -172 36q-190 0 -268 -129t-78 -417zM659 139q188 0 268 139
q79 137 79 429q0 286 -74 411l-428 -946q63 -33 155 -33z" />
    <glyph glyph-name="Ugrave" unicode="&#xd9;" horiz-adv-x="1282" 
d="M657 1495l-284 111q-62 27 -62 82q0 34 25 56q24 21 61 21q36 0 74 -28l227 -162zM639 -20q-230 0 -359 120q-130 121 -130 377v916h204v-916q0 -330 285 -330q287 0 287 330v916h204v-916q0 -255 -131 -377q-129 -120 -360 -120z" />
    <glyph glyph-name="Uacute" unicode="&#xda;" horiz-adv-x="1282" 
d="M553 1575l225 162q38 28 76 28q37 0 61 -21q25 -22 25 -56q0 -54 -61 -82l-287 -111zM639 -20q-230 0 -359 120q-130 121 -130 377v916h204v-916q0 -330 285 -330q287 0 287 330v916h204v-916q0 -255 -131 -377q-129 -120 -360 -120z" />
    <glyph glyph-name="Ucircumflex" unicode="&#xdb;" horiz-adv-x="1282" 
d="M342 1495l246 344h78l245 -344h-127l-155 180l-158 -180h-129zM639 -20q-230 0 -359 120q-130 121 -130 377v916h204v-916q0 -330 285 -330q287 0 287 330v916h204v-916q0 -255 -131 -377q-129 -120 -360 -120z" />
    <glyph glyph-name="Udieresis" unicode="&#xdc;" horiz-adv-x="1282" 
d="M332 1655q0 43 30 70q31 28 76 28q42 0 73 -28q30 -27 30 -70q0 -48 -29 -75q-30 -28 -74 -28q-45 0 -76 28q-30 27 -30 75zM711 1655q0 44 28 71t74 27q44 0 75 -28q30 -27 30 -70q0 -48 -30 -75q-31 -28 -75 -28t-74 28q-28 27 -28 75zM639 -20q-230 0 -359 120
q-130 121 -130 377v916h204v-916q0 -330 285 -330q287 0 287 330v916h204v-916q0 -255 -131 -377q-129 -120 -360 -120z" />
    <glyph glyph-name="Yacute" unicode="&#xdd;" horiz-adv-x="1140" 
d="M547 1495l-39 80l225 162q38 28 76 28q37 0 61 -21q25 -22 25 -56q0 -54 -61 -82zM1094 1350l-422 -879v-471h-205v473l-418 877v43h205l221 -469q57 -122 100 -240h3q63 164 100 242l219 467h197v-43z" />
    <glyph glyph-name="Thorn" unicode="&#xde;" horiz-adv-x="1173" 
d="M367 1114h258q245 0 363 -109t118 -298q0 -193 -118 -310q-117 -116 -363 -116h-258v-281h-205v1393h205v-279zM367 451h258q146 0 206 61q60 62 60 195q0 129 -58 183t-208 54h-258v-493z" />
    <glyph glyph-name="germandbls" unicode="&#xdf;" horiz-adv-x="1171" 
d="M174 1024v41q0 223 126 327q125 103 304 103q164 0 266 -75q103 -76 103 -220q0 -80 -39 -149q-40 -71 -85 -110q-48 -42 -85 -83q-39 -44 -39 -76q0 -42 61 -91q57 -46 135 -93q73 -44 134 -126t61 -183q0 -148 -102 -229q-101 -80 -250 -80q-131 0 -238 40l-22 166
q132 -61 237 -61q97 0 139 47t42 111q0 58 -38 110q-35 48 -91 91q-27 21 -107 78q-55 39 -91 87q-38 50 -38 105q0 51 33 103q33 53 72 90q35 34 71 102q33 63 33 135q0 90 -54 127q-53 37 -130 37q-213 0 -213 -304v-1044h-195v887h-119v71z" />
    <glyph glyph-name="agrave" unicode="&#xe0;" 
d="M524 1126l-284 111q-62 27 -62 82q0 34 25 56t61 22q34 0 74 -29l227 -162zM662 133l-125 -106q-74 -47 -183 -47q-122 0 -204 70t-82 188q0 130 87 195t232 93l275 58v123q0 89 -42 142q-42 52 -167 52q-145 0 -293 -65l-19 22l54 143q156 43 299 43q166 0 263 -72
t97 -204v-561q0 -86 68 -86q33 0 65 14v-112q-65 -43 -153 -43q-150 0 -172 153zM662 483l-279 -71q-119 -30 -119 -150q0 -67 43 -101t115 -34q137 0 240 115v241z" />
    <glyph glyph-name="aacute" unicode="&#xe1;" 
d="M420 1206l225 162q40 29 76 29t61 -22t25 -56q0 -53 -62 -82l-286 -111zM662 133l-125 -106q-74 -47 -183 -47q-122 0 -204 70t-82 188q0 130 87 195t232 93l275 58v123q0 89 -42 142q-42 52 -167 52q-145 0 -293 -65l-19 22l54 143q156 43 299 43q166 0 263 -72t97 -204
v-561q0 -86 68 -86q33 0 65 14v-112q-65 -43 -153 -43q-150 0 -172 153zM662 483l-279 -71q-119 -30 -119 -150q0 -67 43 -101t115 -34q137 0 240 115v241z" />
    <glyph glyph-name="acircumflex" unicode="&#xe2;" 
d="M207 1126l246 344h77l246 -344h-127l-155 181l-158 -181h-129zM662 133l-125 -106q-74 -47 -183 -47q-122 0 -204 70t-82 188q0 130 87 195t232 93l275 58v123q0 89 -42 142q-42 52 -167 52q-145 0 -293 -65l-19 22l54 143q156 43 299 43q166 0 263 -72t97 -204v-561
q0 -86 68 -86q33 0 65 14v-112q-65 -43 -153 -43q-150 0 -172 153zM662 483l-279 -71q-119 -30 -119 -150q0 -67 43 -101t115 -34q137 0 240 115v241z" />
    <glyph glyph-name="atilde" unicode="&#xe3;" 
d="M276 1126h-110q10 122 63 192q53 71 131 71q53 0 147 -47q92 -46 124 -46q58 0 82 80h104q-18 -237 -168 -237q-56 0 -157 46t-130 46q-43 0 -61 -26q-19 -27 -25 -79zM662 133l-125 -106q-74 -47 -183 -47q-122 0 -204 70t-82 188q0 130 87 195t232 93l275 58v123
q0 89 -42 142q-42 52 -167 52q-145 0 -293 -65l-19 22l54 143q156 43 299 43q166 0 263 -72t97 -204v-561q0 -86 68 -86q33 0 65 14v-112q-65 -43 -153 -43q-150 0 -172 153zM662 483l-279 -71q-119 -30 -119 -150q0 -67 43 -101t115 -34q137 0 240 115v241z" />
    <glyph glyph-name="adieresis" unicode="&#xe4;" 
d="M199 1286q0 44 30 71t76 27q43 0 73 -27t30 -71q0 -48 -29 -75t-74 -27q-46 0 -76 27t-30 75zM578 1286q0 45 28 72q27 26 74 26q45 0 75 -27q29 -26 29 -71q0 -49 -29 -75q-30 -27 -75 -27q-46 0 -74 27t-28 75zM662 133l-125 -106q-74 -47 -183 -47q-122 0 -204 70
t-82 188q0 130 87 195t232 93l275 58v123q0 89 -42 142q-42 52 -167 52q-145 0 -293 -65l-19 22l54 143q156 43 299 43q166 0 263 -72t97 -204v-561q0 -86 68 -86q33 0 65 14v-112q-65 -43 -153 -43q-150 0 -172 153zM662 483l-279 -71q-119 -30 -119 -150q0 -67 43 -101
t115 -34q137 0 240 115v241z" />
    <glyph glyph-name="aring" unicode="&#xe5;" 
d="M324 1274q0 76 45 119q44 43 125 43q75 0 121 -43q47 -44 47 -119q0 -76 -47 -118t-121 -42q-78 0 -124 42t-46 118zM399 1274q0 -94 95 -94q43 0 67 24q25 25 25 70q0 96 -92 96q-95 0 -95 -96zM662 133l-125 -106q-74 -47 -183 -47q-122 0 -204 70t-82 188
q0 130 87 195t232 93l275 58v123q0 89 -42 142q-42 52 -167 52q-145 0 -293 -65l-19 22l54 143q156 43 299 43q166 0 263 -72t97 -204v-561q0 -86 68 -86q33 0 65 14v-112q-65 -43 -153 -43q-150 0 -172 153zM662 483l-279 -71q-119 -30 -119 -150q0 -67 43 -101t115 -34
q137 0 240 115v241z" />
    <glyph glyph-name="ae" unicode="&#xe6;" horiz-adv-x="1609" 
d="M1522 664q0 -76 -23 -197h-657q10 -173 95 -257q85 -85 220 -85q75 0 170 27q98 28 158 65v-156q-147 -81 -359 -81q-280 0 -399 221l-195 -174q-74 -47 -186 -47q-122 0 -198 70t-76 188q0 227 309 288l276 58v123q0 89 -42 142q-42 52 -166 52q-145 0 -293 -65l-21 22
l55 143q156 43 299 43q219 0 306 -120q120 120 327 120q82 0 143 -17q67 -19 126 -56q62 -39 96 -118q35 -81 35 -189zM842 578l487 10q6 44 6 80q0 79 -22 129q-22 49 -61 71q-38 21 -64 27q-27 6 -58 6q-266 0 -288 -323zM414 127q133 0 280 147q-36 94 -37 209l-280 -71
q-111 -27 -111 -150q0 -67 40 -101t108 -34z" />
    <glyph glyph-name="ccedilla" unicode="&#xe7;" horiz-adv-x="956" 
d="M285 512q0 -387 288 -387q143 0 295 92v-156q-130 -73 -282 -79v-48q81 0 133 -43q53 -44 53 -120q0 -84 -52 -132q-54 -49 -136 -49q-94 0 -146 27v74q75 -23 105 -23q112 0 112 103q0 100 -159 100v111q-197 15 -301 153q-105 139 -105 377q0 251 124 391
q124 141 351 141q161 0 316 -55l-35 -129l-25 -18q-130 57 -250 57q-143 0 -215 -108q-71 -107 -71 -279z" />
    <glyph glyph-name="egrave" unicode="&#xe8;" horiz-adv-x="1054" 
d="M608 1126l-284 111q-62 27 -62 82q0 34 25 56t61 22q34 0 74 -29l227 -162zM965 664q0 -90 -23 -197h-655q11 -173 95 -257q85 -85 220 -85q76 0 170 27q98 28 158 65v-156q-147 -81 -361 -81q-221 0 -350 142t-129 390q0 251 124 391q124 141 351 141q82 0 144 -17
q69 -19 126 -56q61 -40 95 -118q35 -81 35 -189zM287 578l485 10q8 61 8 80q0 79 -22 129q-22 49 -61 71q-38 21 -64 27q-27 6 -58 6q-266 0 -288 -323z" />
    <glyph glyph-name="eacute" unicode="&#xe9;" horiz-adv-x="1054" 
d="M543 1126l-39 80l225 162q40 29 76 29t61 -22t25 -56q0 -53 -62 -82zM965 664q0 -90 -23 -197h-655q11 -173 95 -257q85 -85 220 -85q76 0 170 27q98 28 158 65v-156q-147 -81 -361 -81q-221 0 -350 142t-129 390q0 251 124 391q124 141 351 141q82 0 144 -17
q69 -19 126 -56q61 -40 95 -118q35 -81 35 -189zM287 578l485 10q8 61 8 80q0 79 -22 129q-22 49 -61 71q-38 21 -64 27q-27 6 -58 6q-266 0 -288 -323z" />
    <glyph glyph-name="ecircumflex" unicode="&#xea;" horiz-adv-x="1054" 
d="M420 1126h-129l246 344h77l246 -344h-127l-155 181zM965 664q0 -90 -23 -197h-655q11 -173 95 -257q85 -85 220 -85q76 0 170 27q98 28 158 65v-156q-147 -81 -361 -81q-221 0 -350 142t-129 390q0 251 124 391q124 141 351 141q82 0 144 -17q69 -19 126 -56
q61 -40 95 -118q35 -81 35 -189zM287 578l485 10q8 61 8 80q0 79 -22 129q-22 49 -61 71q-38 21 -64 27q-27 6 -58 6q-266 0 -288 -323z" />
    <glyph glyph-name="edieresis" unicode="&#xeb;" horiz-adv-x="1054" 
d="M389 1184q-46 0 -76 27t-30 75q0 44 30 71t76 27q43 0 73 -27t30 -71q0 -48 -29 -75t-74 -27zM764 1184q-46 0 -74 27t-28 75q0 45 28 72q27 26 74 26q45 0 75 -27q29 -26 29 -71q0 -49 -29 -75q-30 -27 -75 -27zM965 664q0 -90 -23 -197h-655q11 -173 95 -257
q85 -85 220 -85q76 0 170 27q98 28 158 65v-156q-147 -81 -361 -81q-221 0 -350 142t-129 390q0 251 124 391q124 141 351 141q82 0 144 -17q69 -19 126 -56q61 -40 95 -118q35 -81 35 -189zM287 578l485 10q8 61 8 80q0 79 -22 129q-22 49 -61 71q-38 21 -64 27
q-27 6 -58 6q-266 0 -288 -323z" />
    <glyph glyph-name="igrave" unicode="&#xec;" horiz-adv-x="479" 
d="M270 1126l-284 111q-62 27 -62 82q0 34 25 56t61 22q34 0 74 -29l227 -162zM336 1024v-1024h-193v1024h193z" />
    <glyph glyph-name="iacute" unicode="&#xed;" horiz-adv-x="479" 
d="M166 1206l225 162q40 29 76 29t61 -22t25 -56q0 -54 -61 -82l-287 -111zM336 1024v-1024h-193v1024h193z" />
    <glyph glyph-name="icircumflex" unicode="&#xee;" horiz-adv-x="479" 
d="M-47 1126l246 344h77l246 -344h-127l-155 181l-158 -181h-129zM336 1024v-1024h-193v1024h193z" />
    <glyph glyph-name="idieresis" unicode="&#xef;" horiz-adv-x="479" 
d="M-55 1286q0 44 30 71t76 27q43 0 73 -27t30 -71q0 -48 -29 -75q-28 -27 -74 -27t-76 27t-30 75zM324 1286q0 45 28 72q27 26 74 26q45 0 75 -27q29 -26 29 -71q0 -49 -29 -75q-30 -27 -75 -27q-46 0 -74 27t-28 75zM336 1024v-1024h-193v1024h193z" />
    <glyph glyph-name="eth" unicode="&#xf0;" horiz-adv-x="1103" 
d="M924 1296l-189 -79q275 -252 275 -609q0 -628 -469 -628q-226 0 -337 145q-112 147 -112 358q0 97 22 183q20 80 69 150q48 69 135 108t208 39q101 0 217 -43q-60 124 -170 229l-235 -100l-41 96l190 80q-111 84 -264 168h256q73 -37 164 -101l240 101zM541 123
q155 0 215 121q59 119 59 364q0 84 -18 162q-119 51 -226 51q-284 0 -284 -338q0 -161 62 -260q63 -100 192 -100z" />
    <glyph glyph-name="ntilde" unicode="&#xf1;" horiz-adv-x="1075" 
d="M324 1126h-111q11 122 63 192q53 71 132 71q52 0 146 -47q92 -46 124 -46q58 0 82 80h104q-18 -237 -168 -237q-56 0 -157 46t-129 46q-44 0 -62 -26q-18 -25 -24 -79zM336 897h4l100 92q101 55 213 55q130 0 209 -73q80 -74 80 -215v-756h-192v721q0 166 -150 166
q-107 0 -264 -92v-795h-193v1024h183z" />
    <glyph glyph-name="ograve" unicode="&#xf2;" horiz-adv-x="1081" 
d="M569 1126l-284 111q-62 27 -62 82q0 34 25 56t61 22q34 0 74 -29l227 -162zM541 -20q-226 0 -337 138q-112 139 -112 394t112 394q111 138 337 138q228 0 339 -138t111 -394t-111 -394t-339 -138zM541 901q-137 0 -196 -96q-58 -95 -58 -293t58 -293q59 -96 196 -96
q139 0 197 96q59 97 59 293t-59 293q-58 96 -197 96z" />
    <glyph glyph-name="oacute" unicode="&#xf3;" horiz-adv-x="1081" 
d="M465 1206l225 162q40 29 76 29t61 -22t25 -56q0 -54 -61 -82l-287 -111zM541 -20q-226 0 -337 138q-112 139 -112 394t112 394q111 138 337 138q228 0 339 -138t111 -394t-111 -394t-339 -138zM541 901q-137 0 -196 -96q-58 -95 -58 -293t58 -293q59 -96 196 -96
q139 0 197 96q59 97 59 293t-59 293q-58 96 -197 96z" />
    <glyph glyph-name="ocircumflex" unicode="&#xf4;" horiz-adv-x="1081" 
d="M252 1126l246 344h77l246 -344h-127l-155 181l-158 -181h-129zM541 -20q-226 0 -337 138q-112 139 -112 394t112 394q111 138 337 138q228 0 339 -138t111 -394t-111 -394t-339 -138zM541 901q-137 0 -196 -96q-58 -95 -58 -293t58 -293q59 -96 196 -96q139 0 197 96
q59 97 59 293t-59 293q-58 96 -197 96z" />
    <glyph glyph-name="otilde" unicode="&#xf5;" horiz-adv-x="1081" 
d="M322 1126h-111q11 122 63 192q53 71 132 71q52 0 146 -47q92 -46 124 -46q58 0 82 80h104q-18 -237 -168 -237q-56 0 -157 46t-129 46q-44 0 -62 -26q-18 -25 -24 -79zM541 -20q-226 0 -337 138q-112 139 -112 394t112 394q111 138 337 138q228 0 339 -138t111 -394
t-111 -394t-339 -138zM541 901q-137 0 -196 -96q-58 -95 -58 -293t58 -293q59 -96 196 -96q139 0 197 96q59 97 59 293t-59 293q-58 96 -197 96z" />
    <glyph glyph-name="odieresis" unicode="&#xf6;" horiz-adv-x="1081" 
d="M244 1286q0 44 30 71t76 27q43 0 73 -27t30 -71q0 -48 -29 -75q-28 -27 -74 -27t-76 27t-30 75zM623 1286q0 45 28 72q27 26 74 26q45 0 75 -27q29 -26 29 -71q0 -49 -29 -75q-30 -27 -75 -27t-74 27q-28 27 -28 75zM541 -20q-226 0 -337 138q-112 139 -112 394t112 394
q111 138 337 138q228 0 339 -138t111 -394t-111 -394t-339 -138zM541 901q-137 0 -196 -96q-58 -95 -58 -293t58 -293q59 -96 196 -96q139 0 197 96q59 97 59 293t-59 293q-58 96 -197 96z" />
    <glyph glyph-name="divide" unicode="&#xf7;" horiz-adv-x="948" 
d="M373 868q0 44 30 75q30 32 72 32q41 0 71 -32q29 -30 29 -75q0 -43 -29 -75q-30 -33 -71 -33q-42 0 -72 33t-30 75zM125 479v127h698v-127h-698zM373 219q0 41 30 74t72 33q41 0 71 -32q29 -30 29 -75q0 -47 -29 -77q-30 -31 -71 -31q-42 0 -72 31t-30 77z" />
    <glyph glyph-name="oslash" unicode="&#xf8;" horiz-adv-x="1081" 
d="M961 1085l-99 -157q129 -135 129 -416q0 -256 -111 -394t-339 -138q-141 0 -238 53l-59 -94h-125l100 159q-127 134 -127 414q0 256 111 394t338 138q138 0 235 -53l60 94h125zM287 512q0 -157 35 -248l370 592q-52 45 -151 45q-137 0 -196 -96q-58 -95 -58 -293z
M541 123q139 0 197 96q59 97 59 293q0 165 -37 252l-373 -594q61 -47 154 -47z" />
    <glyph glyph-name="ugrave" unicode="&#xf9;" horiz-adv-x="1077" 
d="M567 1126l-284 111q-62 27 -62 82q0 34 25 56t61 22q34 0 74 -29l227 -162zM741 127h-4l-100 -92q-101 -55 -213 -55q-130 0 -209 73q-80 74 -80 215v756h193v-721q0 -166 149 -166q107 0 264 92v795h193v-1024h-182z" />
    <glyph glyph-name="uacute" unicode="&#xfa;" horiz-adv-x="1077" 
d="M463 1206l225 162q40 29 76 29t61 -22t25 -56q0 -53 -62 -82l-286 -111zM741 127h-4l-100 -92q-101 -55 -213 -55q-130 0 -209 73q-80 74 -80 215v756h193v-721q0 -166 149 -166q107 0 264 92v795h193v-1024h-182z" />
    <glyph glyph-name="ucircumflex" unicode="&#xfb;" horiz-adv-x="1077" 
d="M250 1126l246 344h77l246 -344h-127l-155 181l-158 -181h-129zM741 127h-4l-100 -92q-101 -55 -213 -55q-130 0 -209 73q-80 74 -80 215v756h193v-721q0 -166 149 -166q107 0 264 92v795h193v-1024h-182z" />
    <glyph glyph-name="udieresis" unicode="&#xfc;" horiz-adv-x="1077" 
d="M242 1286q0 44 30 71t76 27q43 0 73 -27t30 -71q0 -48 -29 -75q-28 -27 -74 -27t-76 27t-30 75zM621 1286q0 45 28 72q27 26 74 26q45 0 75 -27q29 -26 29 -71q0 -49 -29 -75q-30 -27 -75 -27q-46 0 -74 27t-28 75zM741 127h-4l-100 -92q-101 -55 -213 -55
q-130 0 -209 73q-80 74 -80 215v756h193v-721q0 -166 149 -166q107 0 264 92v795h193v-1024h-182z" />
    <glyph glyph-name="yacute" unicode="&#xfd;" horiz-adv-x="989" 
d="M418 1206l225 162q40 29 76 29t61 -22t25 -56q0 -53 -62 -82l-286 -111zM57 981v43h185l256 -831h4l243 831h185v-43l-248 -764q-30 -89 -41 -117q-23 -62 -43 -105q-7 -15 -20.5 -45t-19.5 -44q-20 -42 -43 -81q-8 -12 -15 -25t-14.5 -25.5l-10.5 -17.5q-19 -33 -41 -63
q-33 -46 -37 -51q-17 -22 -38 -51q-30 -42 -31 -43h-191v43q177 210 256 367z" />
    <glyph glyph-name="thorn" unicode="&#xfe;" horiz-adv-x="1101" 
d="M643 1044q174 0 270 -148q97 -150 97 -384q0 -249 -115 -391q-114 -141 -303 -141q-140 0 -256 83v-514h-193v1844l146 82h47v-584l125 106q74 47 182 47zM551 115q264 0 264 397q0 206 -65 296q-66 91 -199 91q-21 0 -38 -4q-21 -5 -38 -12q-6 -3 -33 -16
q-16 -8 -32 -20l-28 -21q-1 -1 -10 -8t-16 -13q-18 -16 -20 -17v-604q108 -69 215 -69z" />
    <glyph glyph-name="ydieresis" unicode="&#xff;" horiz-adv-x="989" 
d="M197 1286q0 44 30 71t76 27q43 0 73 -27t30 -71q0 -48 -29 -75t-74 -27q-46 0 -76 27t-30 75zM575 1286q0 45 29 72q27 26 74 26q45 0 75 -27q29 -26 29 -71q0 -49 -29 -75q-30 -27 -75 -27q-46 0 -74 27q-29 27 -29 75zM57 981v43h185l256 -831h4l243 831h185v-43
l-248 -764q-30 -89 -41 -117q-23 -62 -43 -105q-7 -15 -20.5 -45t-19.5 -44q-20 -42 -43 -81q-8 -12 -15 -25t-14.5 -25.5l-10.5 -17.5q-19 -33 -41 -63q-33 -46 -37 -51q-17 -22 -38 -51q-30 -42 -31 -43h-191v43q177 210 256 367z" />
    <glyph glyph-name="Amacron" unicode="&#x100;" horiz-adv-x="1191" 
d="M893 1534h-594v113h594v-113zM1139 43v-43h-205l-109 367h-469l-108 -367h-195v43l412 1360h264zM774 537l-106 360q-46 156 -74 289h-2q-21 -99 -78 -289l-106 -360h366z" />
    <glyph glyph-name="amacron" unicode="&#x101;" 
d="M197 1165v113h594v-113h-594zM662 133l-125 -106q-74 -47 -183 -47q-122 0 -204 70t-82 188q0 130 87 195t232 93l275 58v123q0 89 -42 142q-42 52 -167 52q-145 0 -293 -65l-19 22l54 143q156 43 299 43q166 0 263 -72t97 -204v-561q0 -86 68 -86q33 0 65 14v-112
q-65 -43 -153 -43q-150 0 -172 153zM662 483l-279 -71q-119 -30 -119 -150q0 -67 43 -101t115 -34q137 0 240 115v241z" />
    <glyph glyph-name="Abreve" unicode="&#x102;" horiz-adv-x="1191" 
d="M596 1495q-122 0 -184 86t-62 231h105q10 -93 39 -150q28 -56 102 -56q72 0 100 56q29 57 39 150h105q0 -145 -61 -232q-60 -85 -183 -85zM1139 43v-43h-205l-109 367h-469l-108 -367h-195v43l412 1360h264zM774 537l-106 360q-46 156 -74 289h-2q-21 -99 -78 -289
l-106 -360h366z" />
    <glyph glyph-name="abreve" unicode="&#x103;" 
d="M494 1126q-123 0 -185 86q-61 85 -61 232h104q10 -94 39 -151q28 -56 103 -56q72 0 100 56q29 57 39 151h104q0 -148 -60 -233t-183 -85zM662 133l-125 -106q-74 -47 -183 -47q-122 0 -204 70t-82 188q0 130 87 195t232 93l275 58v123q0 89 -42 142q-42 52 -167 52
q-145 0 -293 -65l-19 22l54 143q156 43 299 43q166 0 263 -72t97 -204v-561q0 -86 68 -86q33 0 65 14v-112q-65 -43 -153 -43q-150 0 -172 153zM662 483l-279 -71q-119 -30 -119 -150q0 -67 43 -101t115 -34q137 0 240 115v241z" />
    <glyph glyph-name="Aogonek" unicode="&#x104;" horiz-adv-x="1191" 
d="M1090 -317q46 0 90 20v-68q-61 -45 -146 -45q-78 0 -125 45t-47 113q0 145 152 252h-80l-109 367h-469l-108 -367h-195v43l412 1360h264l410 -1360v-43h-60q-94 -94 -94 -201q0 -53 27 -85q27 -31 78 -31zM774 537l-106 360q-46 156 -74 289h-2q-21 -99 -78 -289
l-106 -360h366z" />
    <glyph glyph-name="aogonek" unicode="&#x105;" 
d="M899 -317q46 0 90 20v-68q-62 -45 -145 -45q-78 0 -125 45t-47 113q0 132 127 234q-119 18 -137 151l-125 -106q-74 -47 -183 -47q-122 0 -204 70t-82 188q0 130 87 195t232 93l275 58v123q0 89 -42 142q-42 52 -167 52q-145 0 -293 -65l-19 22l54 143q156 43 299 43
q166 0 263 -72t97 -204v-561q0 -86 68 -86q33 0 65 14v-112q-37 -26 -115 -41q-77 -84 -77 -183q0 -55 26 -85q27 -31 78 -31zM662 483l-279 -71q-119 -30 -119 -150q0 -67 43 -101t115 -34q137 0 240 115v241z" />
    <glyph glyph-name="Cacute" unicode="&#x106;" horiz-adv-x="1161" 
d="M588 1575l225 162q38 28 76 28q37 0 61 -21q25 -22 25 -56q0 -53 -62 -82l-286 -111zM98 696q0 717 572 717q206 0 403 -94v-178q-202 112 -403 112q-103 0 -176 -41t-110 -119q-38 -80 -54 -173q-17 -97 -17 -224q0 -126 17 -223q16 -93 54 -173q37 -79 110 -120
t176 -41q229 0 424 123l-21 -188q-197 -94 -403 -94q-572 0 -572 716z" />
    <glyph glyph-name="cacute" unicode="&#x107;" horiz-adv-x="956" 
d="M463 1206l225 162q40 29 76 29t61 -22t25 -56q0 -53 -62 -82l-286 -111zM571 899q-143 0 -215 -108q-71 -107 -71 -279q0 -387 288 -387q143 0 295 92v-156q-147 -81 -327 -81q-218 0 -334 140q-117 141 -117 392t124 391q124 141 351 141q161 0 316 -55l-35 -129
l-25 -18q-130 57 -250 57z" />
    <glyph glyph-name="Cdotaccent" unicode="&#x10a;" horiz-adv-x="1161" 
d="M549 1665q0 44 32 74q31 30 81 30q46 0 78 -30t32 -74q0 -43 -31 -74q-30 -30 -79 -30q-50 0 -81 30q-32 30 -32 74zM98 696q0 717 572 717q206 0 403 -94v-178q-202 112 -403 112q-103 0 -176 -41t-110 -119q-38 -80 -54 -173q-17 -97 -17 -224q0 -126 17 -223
q16 -93 54 -173q37 -79 110 -120t176 -41q229 0 424 123l-21 -188q-197 -94 -403 -94q-572 0 -572 716z" />
    <glyph glyph-name="cdotaccent" unicode="&#x10b;" horiz-adv-x="956" 
d="M424 1296q0 44 32 74q33 31 81 31q45 0 78 -31q32 -30 32 -74q0 -42 -31 -73t-79 -31t-81 31q-32 30 -32 73zM571 899q-143 0 -215 -108q-71 -107 -71 -279q0 -387 288 -387q143 0 295 92v-156q-147 -81 -327 -81q-218 0 -334 140q-117 141 -117 392t124 391
q124 141 351 141q161 0 316 -55l-35 -129l-25 -18q-130 57 -250 57z" />
    <glyph glyph-name="Ccaron" unicode="&#x10c;" horiz-adv-x="1161" 
d="M662 1659l155 180h127l-246 -344h-77l-246 344h129zM98 696q0 717 572 717q206 0 403 -94v-178q-202 112 -403 112q-103 0 -176 -41t-110 -119q-38 -80 -54 -173q-17 -97 -17 -224q0 -126 17 -223q16 -93 54 -173q37 -79 110 -120t176 -41q229 0 424 123l-21 -188
q-197 -94 -403 -94q-572 0 -572 716z" />
    <glyph glyph-name="ccaron" unicode="&#x10d;" horiz-adv-x="956" 
d="M537 1290l155 180h127l-246 -344h-77l-246 344h129zM571 899q-143 0 -215 -108q-71 -107 -71 -279q0 -387 288 -387q143 0 295 92v-156q-147 -81 -327 -81q-218 0 -334 140q-117 141 -117 392t124 391q124 141 351 141q161 0 316 -55l-35 -129l-25 -18q-130 57 -250 57z
" />
    <glyph glyph-name="Dcaron" unicode="&#x10e;" horiz-adv-x="1310" 
d="M629 1659l155 180h127l-245 -344h-78l-246 344h129zM162 1393h489q295 0 428 -174q133 -173 133 -512q0 -707 -561 -707h-489v1393zM367 170h284q193 0 270 125q76 124 76 412q0 285 -76 400q-77 116 -270 116h-284v-1053z" />
    <glyph glyph-name="dcaron" unicode="&#x10f;" horiz-adv-x="1159" 
d="M1149 1495q56 0 86 -39q31 -40 31 -92q0 -101 -125 -297h-90l98 211q-42 0 -77 29q-34 28 -34 79q0 45 32 77t79 32zM913 1475h48v-1475h-185l-10 133l-123 -106q-77 -47 -184 -47q-175 0 -271 148t-96 384q0 249 115 391q114 141 305 141q141 0 254 -79v428zM551 125
q98 0 215 111v606q-104 67 -215 67q-264 0 -264 -397q0 -206 65 -296q66 -91 199 -91z" />
    <glyph glyph-name="Dcroat" unicode="&#x110;" horiz-adv-x="1316" 
d="M166 1393h489q295 0 428 -174q134 -175 134 -512q0 -707 -562 -707h-489v618h-139v156h139v619zM371 170h284q193 0 270 125q76 124 76 412q0 285 -76 400q-77 116 -270 116h-284v-449h327v-156h-327v-448z" />
    <glyph glyph-name="dcroat" unicode="&#x111;" horiz-adv-x="1101" 
d="M1090 1165h-129v-1165h-185l-10 133l-123 -106q-77 -47 -184 -47q-175 0 -271 148t-96 384q0 249 115 391q114 141 305 141q141 0 254 -79v200h-281v113h281v115l147 82h48v-197h129v-113zM551 125q98 0 215 111v606q-104 67 -215 67q-264 0 -264 -397q0 -206 65 -296
q66 -91 199 -91z" />
    <glyph glyph-name="Emacron" unicode="&#x112;" horiz-adv-x="1114" 
d="M293 1534v113h594v-113h-594zM367 1223v-426h557v-170h-557v-457h661l-20 -170h-846v1393h854v-170h-649z" />
    <glyph glyph-name="emacron" unicode="&#x113;" horiz-adv-x="1054" 
d="M874 1165h-593v113h593v-113zM965 664q0 -90 -23 -197h-655q11 -173 95 -257q85 -85 220 -85q76 0 170 27q98 28 158 65v-156q-147 -81 -361 -81q-221 0 -350 142t-129 390q0 251 124 391q124 141 351 141q82 0 144 -17q69 -19 126 -56q61 -40 95 -118q35 -81 35 -189z
M287 578l485 10q8 61 8 80q0 79 -22 129q-22 49 -61 71q-38 21 -64 27q-27 6 -58 6q-266 0 -288 -323z" />
    <glyph glyph-name="Edotaccent" unicode="&#x116;" horiz-adv-x="1114" 
d="M477 1665q0 44 32 74q31 30 81 30q48 0 79 -30t31 -74t-30 -74t-80 -30t-81 30q-32 30 -32 74zM367 1223v-426h557v-170h-557v-457h661l-20 -170h-846v1393h854v-170h-649z" />
    <glyph glyph-name="edotaccent" unicode="&#x117;" horiz-adv-x="1054" 
d="M578 1192q-48 0 -81 31q-32 30 -32 73q0 44 32 74q33 31 81 31q45 0 78 -31q32 -30 32 -74q0 -42 -31 -73t-79 -31zM965 664q0 -90 -23 -197h-655q11 -173 95 -257q85 -85 220 -85q76 0 170 27q98 28 158 65v-156q-147 -81 -361 -81q-221 0 -350 142t-129 390
q0 251 124 391q124 141 351 141q82 0 144 -17q69 -19 126 -56q61 -40 95 -118q35 -81 35 -189zM287 578l485 10q8 61 8 80q0 79 -22 129q-22 49 -61 71q-38 21 -64 27q-27 6 -58 6q-266 0 -288 -323z" />
    <glyph glyph-name="Eogonek" unicode="&#x118;" horiz-adv-x="1114" 
d="M1018 -317q46 0 90 20v-68q-62 -45 -145 -45q-79 0 -125 45q-47 45 -47 113q0 146 151 252h-780v1393h854v-170h-649v-426h557v-170h-557v-457h661l-20 -170q-95 -95 -95 -201q0 -53 27 -85q27 -31 78 -31z" />
    <glyph glyph-name="eogonek" unicode="&#x119;" horiz-adv-x="1054" 
d="M940 -256q46 0 90 20v-67q-62 -45 -145 -45q-79 0 -125 45q-47 45 -47 113q0 110 92 202q-109 -32 -236 -32q-221 0 -350 142t-129 390q0 251 124 391q124 141 351 141q82 0 144 -17q69 -19 126 -56q61 -40 95 -118q35 -81 35 -189q0 -90 -23 -197h-655q11 -173 95 -257
q85 -85 220 -85q76 0 170 27q98 28 158 65v-156q-94 -94 -94 -200q0 -55 26 -85q27 -32 78 -32zM575 901q-266 0 -288 -323l485 10q8 61 8 80q0 79 -22 129q-22 49 -61 71q-38 21 -64 27q-27 6 -58 6z" />
    <glyph glyph-name="Ecaron" unicode="&#x11a;" horiz-adv-x="1114" 
d="M590 1659l155 180h127l-245 -344h-78l-246 344h129zM367 1223v-426h557v-170h-557v-457h661l-20 -170h-846v1393h854v-170h-649z" />
    <glyph glyph-name="ecaron" unicode="&#x11b;" horiz-adv-x="1054" 
d="M537 1126l-246 344h129l158 -180l155 180h127l-246 -344h-77zM965 664q0 -90 -23 -197h-655q11 -173 95 -257q85 -85 220 -85q76 0 170 27q98 28 158 65v-156q-147 -81 -361 -81q-221 0 -350 142t-129 390q0 251 124 391q124 141 351 141q82 0 144 -17q69 -19 126 -56
q61 -40 95 -118q35 -81 35 -189zM287 578l485 10q8 61 8 80q0 79 -22 129q-22 49 -61 71q-38 21 -64 27q-27 6 -58 6q-266 0 -288 -323z" />
    <glyph glyph-name="Gbreve" unicode="&#x11e;" horiz-adv-x="1198" 
d="M670 1495q-123 0 -185 86q-61 85 -61 231h104q10 -93 39 -150q28 -56 103 -56q72 0 100 56q29 57 39 150h104q0 -146 -60 -232q-60 -85 -183 -85zM670 1253q-103 0 -176 -41t-110 -119q-38 -80 -54 -173q-17 -97 -17 -224q0 -126 17 -223q16 -93 54 -173q37 -79 110 -120
t176 -41q102 0 198 29v377h-260v170h465v-641q-197 -94 -403 -94q-572 0 -572 716q0 717 572 717q206 0 403 -94v-178q-202 112 -403 112z" />
    <glyph glyph-name="gbreve" unicode="&#x11f;" horiz-adv-x="1030" 
d="M489 1126q-122 0 -184 86q-61 85 -61 232h104q10 -94 39 -151q28 -56 102 -56q73 0 101 56q29 57 39 151h104q0 -148 -60 -233t-184 -85zM326 180l374 -39q297 -33 297 -278q0 -144 -128 -239t-371 -95q-449 0 -449 244q0 102 98 200l84 -26l-18 -111q0 -98 72 -137
t211 -39q156 0 228 48q73 49 73 128q0 60 -30 90q-32 32 -110 39l-358 35q-78 6 -114 46q-35 39 -35 93q0 107 143 195q-97 46 -149 136q-52 91 -52 208q0 162 104 264t287 102q81 0 148 -18l319 18v-129h-141q78 -95 78 -237q0 -176 -103 -282q-102 -105 -288 -105
q-53 0 -95 8zM479 911q-103 0 -153 -59q-52 -61 -52 -156q0 -272 226 -272q103 0 153 62q52 64 52 173q0 125 -59 189q-58 63 -167 63z" />
    <glyph glyph-name="Gdotaccent" unicode="&#x120;" horiz-adv-x="1198" 
d="M670 1561q-50 0 -81 30q-32 30 -32 74t32 74q31 30 81 30q48 0 79 -30t31 -74t-30 -74t-80 -30zM670 1253q-103 0 -176 -41t-110 -119q-38 -80 -54 -173q-17 -97 -17 -224q0 -126 17 -223q16 -93 54 -173q37 -79 110 -120t176 -41q102 0 198 29v377h-260v170h465v-641
q-197 -94 -403 -94q-572 0 -572 716q0 717 572 717q206 0 403 -94v-178q-202 112 -403 112z" />
    <glyph glyph-name="gdotaccent" unicode="&#x121;" horiz-adv-x="1030" 
d="M492 1192q-48 0 -81 31q-32 30 -32 73q0 44 32 74q33 31 81 31q45 0 78 -31q32 -30 32 -74q0 -42 -31 -73t-79 -31zM326 180l374 -39q297 -33 297 -278q0 -144 -128 -239t-371 -95q-449 0 -449 244q0 102 98 200l84 -26l-18 -111q0 -98 72 -137t211 -39q156 0 228 48
q73 49 73 128q0 60 -30 90q-32 32 -110 39l-358 35q-78 6 -114 46q-35 39 -35 93q0 107 143 195q-97 46 -149 136q-52 91 -52 208q0 162 104 264t287 102q81 0 148 -18l319 18v-129h-141q78 -95 78 -237q0 -176 -103 -282q-102 -105 -288 -105q-53 0 -95 8zM479 911
q-103 0 -153 -59q-52 -61 -52 -156q0 -272 226 -272q103 0 153 62q52 64 52 173q0 125 -59 189q-58 63 -167 63z" />
    <glyph glyph-name="Gcommaaccent" unicode="&#x122;" horiz-adv-x="1198" 
d="M670 1253q-103 0 -176 -41t-110 -119q-38 -80 -54 -173q-17 -97 -17 -224q0 -126 17 -223q16 -93 54 -173q37 -79 110 -120t176 -41q102 0 198 29v377h-260v170h465v-641q-197 -94 -403 -94q-572 0 -572 716q0 717 572 717q206 0 403 -94v-178q-202 112 -403 112z
M668 -82q57 0 87 -39q29 -38 29 -90q0 -106 -125 -297h-88l99 211q-43 0 -78 29t-35 78q0 47 32 77q33 31 79 31z" />
    <glyph glyph-name="gcommaaccent" unicode="&#x123;" horiz-adv-x="1030" 
d="M506 1126q-57 0 -87 39t-30 92q0 101 125 297h88l-98 -211q44 0 78 -28t34 -80q0 -46 -31 -77q-32 -32 -79 -32zM326 180l374 -39q297 -33 297 -278q0 -144 -128 -239t-371 -95q-449 0 -449 244q0 102 98 200l84 -26l-18 -111q0 -98 72 -137t211 -39q156 0 228 48
q73 49 73 128q0 60 -30 90q-32 32 -110 39l-358 35q-78 6 -114 46q-35 39 -35 93q0 107 143 195q-97 46 -149 136q-52 91 -52 208q0 162 104 264t287 102q81 0 148 -18l319 18v-129h-141q78 -95 78 -237q0 -176 -103 -282q-102 -105 -288 -105q-53 0 -95 8zM479 911
q-103 0 -153 -59q-52 -61 -52 -156q0 -272 226 -272q103 0 153 62q52 64 52 173q0 125 -59 189q-58 63 -167 63z" />
    <glyph glyph-name="Hbar" unicode="&#x126;" horiz-adv-x="1310" 
d="M1284 1012h-139v-1012h-205v627h-569v-627h-205v1012h-139v157h139v224h205v-224h569v224h205v-224h139v-157zM940 1012h-569v-215h569v215z" />
    <glyph glyph-name="hbar" unicode="&#x127;" horiz-adv-x="1075" 
d="M653 1044q130 0 209 -73q80 -74 80 -215v-756h-194v721q0 166 -148 166q-112 0 -264 -92v-795h-193v1165h-129v113h129v115l146 82h47v-197h282v-113h-282v-268h4l100 92q101 55 213 55z" />
    <glyph glyph-name="Imacron" unicode="&#x12a;" horiz-adv-x="526" 
d="M-33 1534v113h594v-113h-594zM367 1393v-1393h-205v1393h205z" />
    <glyph glyph-name="imacron" unicode="&#x12b;" horiz-adv-x="479" 
d="M-57 1165v113h594v-113h-594zM336 1024v-1024h-193v1024h193z" />
    <glyph glyph-name="Iogonek" unicode="&#x12e;" horiz-adv-x="526" 
d="M326 -317q46 0 90 20v-68q-62 -45 -146 -45q-79 0 -125 45q-47 45 -47 113q0 145 152 252h-88v1393h205v-1393h-52q-94 -94 -94 -201q0 -53 27 -85q27 -31 78 -31z" />
    <glyph glyph-name="iogonek" unicode="&#x12f;" horiz-adv-x="479" 
d="M240 1192q-48 0 -81 31q-32 30 -32 73q0 44 32 74q33 31 81 31q45 0 78 -31q32 -30 32 -74q0 -42 -31 -73t-79 -31zM285 -317q46 0 90 20v-68q-61 -45 -146 -45q-79 0 -125 45q-47 45 -47 113q0 145 152 252h-66v1024h193v-1024h-62q-94 -94 -94 -201q0 -53 27 -85
q27 -31 78 -31z" />
    <glyph glyph-name="Idotaccent" unicode="&#x130;" horiz-adv-x="526" 
d="M152 1665q0 44 31 74t81 30q48 0 79 -30q32 -30 32 -74q0 -43 -31 -74q-30 -30 -80 -30t-81 30t-31 74zM367 1393v-1393h-205v1393h205z" />
    <glyph glyph-name="dotlessi" unicode="&#x131;" horiz-adv-x="479" 
d="M336 1024v-1024h-193v1024h193z" />
    <glyph glyph-name="IJ" unicode="&#x132;" horiz-adv-x="1058" 
d="M367 1393v-1393h-205v1393h205zM899 1393v-1330q0 -84 -11 -138q-12 -61 -43 -119q-31 -59 -99 -104q-67 -44 -168 -71l-62 140q117 52 147 116q31 65 31 176v1330h205z" />
    <glyph glyph-name="ij" unicode="&#x133;" horiz-adv-x="956" 
d="M127 1296q0 44 32 74q33 31 81 31q45 0 78 -31q32 -30 32 -74q0 -42 -31 -73t-79 -31t-81 31q-32 30 -32 73zM604 1296q0 44 32 74q33 31 81 31q46 0 79 -31q31 -30 31 -74q0 -43 -30 -73q-31 -31 -80 -31q-48 0 -81 31q-32 30 -32 73zM336 1024v-1024h-193v1024h193z
M815 1024v-1020q0 -164 -59 -267q-61 -106 -232 -188l-73 115q109 66 140 132q32 67 32 208v1020h192z" />
    <glyph glyph-name="Kcommaaccent" unicode="&#x136;" horiz-adv-x="1169" 
d="M367 1393v-1393h-205v1393h205zM918 1393h198v-43l-483 -633l493 -674v-43h-211l-487 666v79zM506 -508l98 211q-43 0 -78 29q-34 28 -34 78q0 47 31 77q33 31 79 31q57 0 87 -39t30 -90q0 -106 -125 -297h-88z" />
    <glyph glyph-name="kcommaaccent" unicode="&#x137;" 
d="M289 1475h47v-1475h-193v1393zM795 0l-418 532l401 492h170v-43l-358 -436l399 -502v-43h-194zM420 -508l98 211q-43 0 -78 29q-34 28 -34 78q0 47 31 77q33 31 79 31q57 0 87 -39t30 -90q0 -106 -125 -297h-88z" />
    <glyph glyph-name="Lacute" unicode="&#x139;" horiz-adv-x="1050" 
d="M182 1575l226 162q38 28 75 28q38 0 62 -21t24 -56q0 -54 -61 -82l-287 -111zM1008 170l-21 -170h-825v1393h205v-1223h641z" />
    <glyph glyph-name="lacute" unicode="&#x13a;" horiz-adv-x="505" 
d="M164 1657l225 162q38 28 76 28q37 0 61 -21q25 -22 25 -57q0 -52 -62 -81l-286 -111zM285 1475h47v-1268q0 -86 67 -86q34 0 66 14v-133q-62 -22 -143 -22q-84 0 -134 45q-49 45 -49 131v1237z" />
    <glyph glyph-name="Lcommaaccent" unicode="&#x13b;" horiz-adv-x="1050" 
d="M1008 170l-21 -170h-825v1393h205v-1223h641zM451 -508l98 211q-43 0 -78 29t-35 78q0 47 32 77q33 31 79 31q57 0 87 -39t30 -90q0 -106 -125 -297h-88z" />
    <glyph glyph-name="lcommaaccent" unicode="&#x13c;" horiz-adv-x="505" 
d="M285 1475h47v-1268q0 -86 67 -86q34 0 66 14v-133q-62 -22 -143 -22q-84 0 -134 45q-49 45 -49 131v1237zM213 -508l98 211q-43 0 -78 29q-34 28 -34 78q0 47 31 77q33 31 79 31q57 0 87 -39t30 -90q0 -106 -125 -297h-88z" />
    <glyph glyph-name="Lcaron" unicode="&#x13d;" horiz-adv-x="1050" 
d="M578 985l98 211q-43 0 -78 29t-35 80q0 45 33 76q34 32 78 32q57 0 87 -39t30 -92q0 -101 -125 -297h-88zM1008 170l-21 -170h-825v1393h205v-1223h641z" />
    <glyph glyph-name="lcaron" unicode="&#x13e;" horiz-adv-x="532" 
d="M422 1067l98 211q-41 0 -76 29q-34 28 -34 79q0 46 31 77q32 32 79 32q57 0 87 -39t30 -92q0 -101 -125 -297h-90zM285 1475h47v-1268q0 -86 67 -86q34 0 66 14v-133q-62 -22 -143 -22q-84 0 -134 45q-49 45 -49 131v1237z" />
    <glyph glyph-name="Ldot" unicode="&#x13f;" horiz-adv-x="1050" 
d="M1008 170l-21 -170h-825v1393h205v-1223h641zM565 762q0 43 28 71q27 27 71 27q40 0 69 -27t29 -71t-29 -71t-69 -27q-45 0 -71 26q-28 28 -28 72z" />
    <glyph glyph-name="ldot" unicode="&#x140;" horiz-adv-x="657" 
d="M285 1475h47v-1268q0 -86 67 -86q34 0 66 14v-133q-62 -22 -143 -22q-84 0 -134 45q-49 45 -49 131v1237zM457 717q0 42 27 69t71 27q43 0 72 -27q28 -27 28 -69q0 -44 -28 -71q-30 -28 -72 -28q-43 0 -71 28q-27 27 -27 71z" />
    <glyph glyph-name="Lslash" unicode="&#x141;" horiz-adv-x="1058" 
d="M1014 170l-21 -170h-825v598l-139 -53v157l139 54v637h205v-559l245 92v-158l-245 -92v-506h641z" />
    <glyph glyph-name="lslash" unicode="&#x142;" horiz-adv-x="532" 
d="M418 121q33 0 65 14v-133q-59 -22 -141 -22q-84 0 -134 45t-50 131v430l-119 -92v143l119 92v664l147 82h47v-594l123 96v-146l-123 -94v-530q0 -86 66 -86z" />
    <glyph glyph-name="Nacute" unicode="&#x143;" horiz-adv-x="1300" 
d="M565 1575l226 162q38 28 75 28q38 0 62 -21t24 -56q0 -54 -61 -82l-287 -111zM367 1393l581 -1018h10q-10 167 -10 442v576h193v-1393h-205l-582 1018h-10q10 -167 10 -443v-575h-192v1393h205z" />
    <glyph glyph-name="nacute" unicode="&#x144;" horiz-adv-x="1075" 
d="M469 1206l225 162q40 29 76 29t61 -22t25 -56q0 -54 -61 -82l-287 -111zM336 897h4l100 92q101 55 213 55q130 0 209 -73q80 -74 80 -215v-756h-192v721q0 166 -150 166q-107 0 -264 -92v-795h-193v1024h183z" />
    <glyph glyph-name="Ncommaaccent" unicode="&#x145;" horiz-adv-x="1300" 
d="M367 1393l581 -1018h10q-10 167 -10 442v576h193v-1393h-205l-582 1018h-10q10 -167 10 -443v-575h-192v1393h205zM543 -508l98 211q-43 0 -78 29t-35 78q0 47 32 77q33 31 79 31q57 0 87 -39t30 -90q0 -106 -125 -297h-88z" />
    <glyph glyph-name="ncommaaccent" unicode="&#x146;" horiz-adv-x="1075" 
d="M336 897h4l100 92q101 55 213 55q130 0 209 -73q80 -74 80 -215v-756h-192v721q0 166 -150 166q-107 0 -264 -92v-795h-193v1024h183zM446 -508l99 211q-43 0 -78 29t-35 78q0 47 32 77q33 31 79 31q57 0 87 -39q29 -38 29 -90q0 -107 -124 -297h-89z" />
    <glyph glyph-name="Ncaron" unicode="&#x147;" horiz-adv-x="1300" 
d="M639 1659l156 180h127l-246 -344h-78l-246 344h129zM367 1393l581 -1018h10q-10 167 -10 442v576h193v-1393h-205l-582 1018h-10q10 -167 10 -443v-575h-192v1393h205z" />
    <glyph glyph-name="ncaron" unicode="&#x148;" horiz-adv-x="1075" 
d="M543 1290l155 180h127l-245 -344h-78l-246 344h129zM336 897h4l100 92q101 55 213 55q130 0 209 -73q80 -74 80 -215v-756h-192v721q0 166 -150 166q-107 0 -264 -92v-795h-193v1024h183z" />
    <glyph glyph-name="Eng" unicode="&#x14a;" horiz-adv-x="1300" 
d="M1141 1393v-1418q0 -74 -13 -136q-11 -52 -44 -115q-32 -61 -97 -104q-68 -45 -166 -71l-57 132q115 52 155 119q39 66 39 171v29l-606 1018h-10q12 -175 12 -443v-575h-192v1393h205l581 -996h10q-12 176 -12 443v553h195z" />
    <glyph glyph-name="eng" unicode="&#x14b;" horiz-adv-x="1075" 
d="M340 897l100 92q101 55 213 55q130 0 209 -73q80 -74 80 -215v-752q0 -164 -59 -267q-60 -106 -234 -188l-71 115q110 67 139 131q31 68 31 209v717q0 166 -148 166q-112 0 -264 -92v-795h-193v1024h183l10 -127h4z" />
    <glyph glyph-name="Omacron" unicode="&#x14c;" horiz-adv-x="1318" 
d="M367 1534v113h594v-113h-594zM659 -20q-561 0 -561 727q0 706 561 706q562 0 562 -706q0 -727 -562 -727zM659 1253q-190 0 -268 -129t-78 -417q0 -292 79 -429q80 -139 267 -139q188 0 268 139q79 137 79 429q0 288 -78 417t-269 129z" />
    <glyph glyph-name="omacron" unicode="&#x14d;" horiz-adv-x="1081" 
d="M242 1165v113h594v-113h-594zM541 -20q-226 0 -337 138q-112 139 -112 394t112 394q111 138 337 138q228 0 339 -138t111 -394t-111 -394t-339 -138zM541 901q-137 0 -196 -96q-58 -95 -58 -293t58 -293q59 -96 196 -96q139 0 197 96q59 97 59 293t-59 293
q-58 96 -197 96z" />
    <glyph glyph-name="Ohungarumlaut" unicode="&#x150;" horiz-adv-x="1318" 
d="M420 1552l223 226q27 28 57 28q34 0 56 -22t22 -51q0 -45 -47 -72l-266 -166zM786 1552l226 226q24 28 57 28q31 0 53 -22q23 -23 23 -49q0 -51 -47 -74l-264 -166zM659 -20q-561 0 -561 727q0 706 561 706q562 0 562 -706q0 -727 -562 -727zM659 1253q-190 0 -268 -129
t-78 -417q0 -292 79 -429q80 -139 267 -139q188 0 268 139q79 137 79 429q0 288 -78 417t-269 129z" />
    <glyph glyph-name="ohungarumlaut" unicode="&#x151;" horiz-adv-x="1081" 
d="M293 1184l223 225q27 29 57 29q33 0 56 -23q22 -22 22 -51q0 -45 -47 -72l-266 -166zM659 1184l226 225q24 29 57 29q30 0 53 -23t23 -49q0 -51 -47 -74l-264 -166zM541 -20q-226 0 -337 138q-112 139 -112 394t112 394q111 138 337 138q228 0 339 -138t111 -394
t-111 -394t-339 -138zM541 901q-137 0 -196 -96q-58 -95 -58 -293t58 -293q59 -96 196 -96q139 0 197 96q59 97 59 293t-59 293q-58 96 -197 96z" />
    <glyph glyph-name="OE" unicode="&#x152;" horiz-adv-x="1957" 
d="M1872 170l-21 -170h-837v104q-128 -124 -355 -124q-561 0 -561 727q0 706 561 706q230 0 355 -119v99h844v-170h-648v-426h557v-170h-557v-457h662zM659 139q188 0 268 139q79 137 79 429q0 288 -78 417t-269 129q-190 0 -268 -129t-78 -417q0 -292 79 -429
q80 -139 267 -139z" />
    <glyph glyph-name="oe" unicode="&#x153;" horiz-adv-x="1748" 
d="M1624 217v-156q-147 -81 -360 -81q-248 0 -367 176q-107 -176 -356 -176q-227 0 -338 138t-111 394t111 394t338 138q244 0 352 -172q121 172 369 172q81 0 142 -17q68 -19 125 -56q61 -40 95 -118q35 -81 35 -189q0 -89 -21 -197h-657q11 -172 95 -253q86 -83 220 -83
q73 0 169 26q97 26 159 60zM541 123q139 0 197 96q59 97 59 293t-59 293q-58 96 -197 96q-137 0 -196 -96q-58 -95 -58 -293t58 -293q59 -96 196 -96zM981 578l485 10q9 47 9 80q0 77 -23 129q-22 50 -60 71q-37 21 -65 27q-27 6 -57 6q-267 0 -289 -323z" />
    <glyph glyph-name="Racute" unicode="&#x154;" horiz-adv-x="1214" 
d="M578 1495l-39 80l225 162q38 28 76 28q37 0 61 -21q25 -22 25 -56q0 -53 -62 -82zM1133 43v-43h-207l-144 375q-41 102 -73 139q-66 68 -181 68h-161v-582h-205v1393h465q243 0 363 -109q118 -108 118 -289q0 -139 -69 -241q-70 -103 -212 -146v-8q66 -23 104 -74
q40 -55 79 -155zM367 752h260q147 0 206 59q60 60 60 184q0 123 -59 175q-61 53 -207 53h-260v-471z" />
    <glyph glyph-name="racute" unicode="&#x155;" horiz-adv-x="735" 
d="M332 1206l225 162q40 29 76 29t61 -22t25 -56q0 -53 -62 -82l-286 -111zM336 856h4l100 137q62 51 164 51q54 0 107 -14l-66 -176q-39 10 -86 10q-117 0 -223 -127v-737h-193v1024h183z" />
    <glyph glyph-name="Rcommaaccent" unicode="&#x156;" horiz-adv-x="1214" 
d="M1133 43v-43h-207l-144 375q-41 102 -73 139q-66 68 -181 68h-161v-582h-205v1393h465q243 0 363 -109q118 -108 118 -289q0 -139 -69 -241q-70 -103 -212 -146v-8q66 -23 104 -74q40 -55 79 -155zM367 752h260q147 0 206 59q60 60 60 184q0 123 -59 175q-61 53 -207 53
h-260v-471zM618 -82q58 0 88 -39q29 -38 29 -90q0 -106 -125 -297h-88l99 211q-43 0 -78 29t-35 78q0 47 32 77q33 31 78 31z" />
    <glyph glyph-name="rcommaaccent" unicode="&#x157;" horiz-adv-x="735" 
d="M336 856h4l100 137q62 51 164 51q54 0 107 -14l-66 -176q-39 10 -86 10q-117 0 -223 -127v-737h-193v1024h183zM145 -508l99 211q-43 0 -78 29t-35 78q0 47 32 77q33 31 79 31q57 0 87 -39q29 -38 29 -90q0 -106 -125 -297h-88z" />
    <glyph glyph-name="Rcaron" unicode="&#x158;" horiz-adv-x="1214" 
d="M571 1495l-245 344h129l157 -180l156 180h127l-246 -344h-78zM1133 43v-43h-207l-144 375q-41 102 -73 139q-66 68 -181 68h-161v-582h-205v1393h465q243 0 363 -109q118 -108 118 -289q0 -139 -69 -241q-70 -103 -212 -146v-8q66 -23 104 -74q40 -55 79 -155zM367 752
h260q147 0 206 59q60 60 60 184q0 123 -59 175q-61 53 -207 53h-260v-471z" />
    <glyph glyph-name="rcaron" unicode="&#x159;" horiz-adv-x="735" 
d="M406 1290l155 180h127l-246 -344h-77l-246 344h129zM336 856h4l100 137q62 51 164 51q54 0 107 -14l-66 -176q-39 10 -86 10q-117 0 -223 -127v-737h-193v1024h183z" />
    <glyph glyph-name="Sacute" unicode="&#x15a;" horiz-adv-x="1058" 
d="M459 1575l225 162q38 28 76 28q37 0 61 -21q25 -22 25 -56q0 -53 -62 -82l-286 -111zM106 1049q0 170 121 267t303 97q207 0 402 -90v-182q-188 112 -389 112q-115 0 -168 -51t-53 -127q0 -80 66 -140q68 -62 163 -105q99 -45 191 -96q98 -54 162 -145q67 -94 67 -222
q0 -171 -132 -279t-327 -108q-216 0 -416 94v180q227 -115 410 -115q126 0 188 59t62 152q0 75 -48 135q-49 61 -120 95q-97 47 -157 77q-82 42 -157 87q-70 42 -119 122t-49 183z" />
    <glyph glyph-name="sacute" unicode="&#x15b;" horiz-adv-x="890" 
d="M389 1206l225 162q40 29 76 29q37 0 62 -22q24 -21 24 -56q0 -54 -61 -82l-287 -111zM467 899q-87 0 -131 -35q-43 -34 -43 -90t54 -96q55 -41 131 -71q93 -36 154 -64q77 -35 131 -101t54 -155q0 -143 -100 -225t-262 -82q-193 0 -342 71l-23 166q173 -92 350 -92
q96 0 139 42q44 42 44 101q0 58 -55 99q-53 40 -130 70q-70 28 -152 66q-79 37 -131 104q-55 70 -55 165q0 134 104 203t259 69q158 0 313 -55l-35 -129l-24 -18q-128 57 -250 57z" />
    <glyph glyph-name="Scedilla" unicode="&#x15e;" horiz-adv-x="1058" 
d="M971 367q0 -158 -115 -264q-113 -104 -289 -121v-48q81 0 133 -43q54 -45 54 -120q0 -84 -53 -132q-54 -49 -136 -49q-93 0 -145 27v74q75 -23 104 -23q113 0 113 103q0 100 -160 100v109q-204 11 -381 94v180q227 -115 410 -115q126 0 188 59t62 152q0 75 -48 135
q-49 61 -120 95q-97 47 -157 77q-82 42 -157 87q-70 42 -119 122t-49 183q0 170 121 267t303 97q207 0 402 -90v-182q-188 112 -389 112q-115 0 -168 -51t-53 -127q0 -80 66 -140q68 -62 163 -105q99 -45 191 -96q98 -54 162 -145q67 -94 67 -222z" />
    <glyph glyph-name="scedilla" unicode="&#x15f;" horiz-adv-x="890" 
d="M817 287q0 -133 -89 -214q-88 -80 -236 -91v-48q81 0 133 -43q53 -44 53 -120q0 -84 -52 -132q-54 -49 -137 -49q-92 0 -145 27v74q75 -23 105 -23q112 0 112 103q0 100 -160 100v111q-153 6 -288 69l-23 166q173 -92 350 -92q96 0 139 42q44 42 44 101q0 58 -55 99
q-53 40 -130 70q-70 28 -152 66q-79 37 -131 104q-55 70 -55 165q0 134 104 203t259 69q158 0 313 -55l-35 -129l-24 -18q-128 57 -250 57q-87 0 -131 -35q-43 -34 -43 -90t54 -96q55 -41 131 -71q93 -36 154 -64q77 -35 131 -101t54 -155z" />
    <glyph glyph-name="Scaron" unicode="&#x160;" horiz-adv-x="1058" 
d="M532 1659l156 180h127l-246 -344h-77l-246 344h129zM106 1049q0 170 121 267t303 97q207 0 402 -90v-182q-188 112 -389 112q-115 0 -168 -51t-53 -127q0 -80 66 -140q68 -62 163 -105q99 -45 191 -96q98 -54 162 -145q67 -94 67 -222q0 -171 -132 -279t-327 -108
q-216 0 -416 94v180q227 -115 410 -115q126 0 188 59t62 152q0 75 -48 135q-49 61 -120 95q-97 47 -157 77q-82 42 -157 87q-70 42 -119 122t-49 183z" />
    <glyph glyph-name="scaron" unicode="&#x161;" horiz-adv-x="890" 
d="M463 1290l155 180h127l-245 -344h-78l-246 344h129zM467 899q-87 0 -131 -35q-43 -34 -43 -90t54 -96q55 -41 131 -71q93 -36 154 -64q77 -35 131 -101t54 -155q0 -143 -100 -225t-262 -82q-193 0 -342 71l-23 166q173 -92 350 -92q96 0 139 42q44 42 44 101q0 58 -55 99
q-53 40 -130 70q-70 28 -152 66q-79 37 -131 104q-55 70 -55 165q0 134 104 203t259 69q158 0 313 -55l-35 -129l-24 -18q-128 57 -250 57z" />
    <glyph glyph-name="Tcedilla" unicode="&#x162;" horiz-adv-x="1052" 
d="M565 0v-66q81 0 133 -43q54 -45 54 -120q0 -84 -53 -132q-54 -49 -136 -49q-93 0 -145 27v74q75 -23 104 -23q113 0 113 103q0 100 -160 100v129h-51v1223h-365v170h934v-170h-364v-1223h-64z" />
    <glyph glyph-name="tcedilla" unicode="&#x163;" horiz-adv-x="653" 
d="M449 -20v-46q81 0 133 -43q53 -44 53 -120q0 -84 -52 -132q-54 -49 -137 -49q-92 0 -145 27v74q75 -23 105 -23q112 0 112 103q0 100 -160 100v113q-95 12 -142 66q-46 53 -46 165v672h-119v71l119 66l143 209h52v-209h225v-137h-225v-649q0 -58 25 -84q26 -27 85 -27
q61 0 125 31v-146q-48 -21 -151 -32z" />
    <glyph glyph-name="Tcaron" unicode="&#x164;" horiz-adv-x="1052" 
d="M528 1659l156 180h127l-246 -344h-78l-245 344h129zM424 0v1223h-365v170h934v-170h-364v-1223h-205z" />
    <glyph glyph-name="tcaron" unicode="&#x165;" horiz-adv-x="653" 
d="M410 1087l98 211q-43 0 -78 29t-35 80q0 45 33 77q34 32 78 32q57 0 87 -39t30 -93q0 -101 -125 -297h-88zM51 887v71l119 66l143 209h52v-209h225v-137h-225v-649q0 -58 25 -84q26 -27 85 -27q61 0 125 31v-146q-76 -32 -172 -32q-132 0 -196 53q-62 52 -62 182v672
h-119z" />
    <glyph glyph-name="Tbar" unicode="&#x166;" horiz-adv-x="1075" 
d="M641 1223v-455h256v-158h-256v-610h-205v610h-256v158h256v455h-364v170h932v-170h-363z" />
    <glyph glyph-name="tbar" unicode="&#x167;" horiz-adv-x="669" 
d="M483 127q61 0 125 31v-146q-76 -32 -172 -32q-132 0 -194 53t-62 182v252h-121v113h121v307h-121v71l121 66l144 209h49v-209h227v-137h-227v-307h227v-113h-227v-229q0 -58 25 -84q26 -27 85 -27z" />
    <glyph glyph-name="Umacron" unicode="&#x16a;" horiz-adv-x="1282" 
d="M332 1534v113h594v-113h-594zM639 -20q-230 0 -359 120q-130 121 -130 377v916h204v-916q0 -330 285 -330q287 0 287 330v916h204v-916q0 -255 -131 -377q-129 -120 -360 -120z" />
    <glyph glyph-name="umacron" unicode="&#x16b;" horiz-adv-x="1077" 
d="M240 1165v113h594v-113h-594zM741 127h-4l-100 -92q-101 -55 -213 -55q-130 0 -209 73q-80 74 -80 215v756h193v-721q0 -166 149 -166q107 0 264 92v795h193v-1024h-182z" />
    <glyph glyph-name="Uring" unicode="&#x16e;" horiz-adv-x="1282" 
d="M457 1642q0 76 45 119q44 43 125 43q76 0 122 -43t46 -119q0 -75 -46 -117q-47 -42 -122 -42q-77 0 -124 42q-46 42 -46 117zM532 1642q0 -94 95 -94q42 0 67 25t25 69q0 97 -92 97q-95 0 -95 -97zM639 -20q-230 0 -359 120q-130 121 -130 377v916h204v-916
q0 -330 285 -330q287 0 287 330v916h204v-916q0 -255 -131 -377q-129 -120 -360 -120z" />
    <glyph glyph-name="uring" unicode="&#x16f;" horiz-adv-x="1077" 
d="M367 1274q0 76 45 119q44 43 125 43q75 0 121 -43q47 -44 47 -119q0 -76 -47 -118q-46 -42 -121 -42q-77 0 -124 42q-46 42 -46 118zM442 1274q0 -94 95 -94q43 0 67 24q25 25 25 70q0 96 -92 96q-95 0 -95 -96zM741 127h-4l-100 -92q-101 -55 -213 -55q-130 0 -209 73
q-80 74 -80 215v756h193v-721q0 -166 149 -166q107 0 264 92v795h193v-1024h-182z" />
    <glyph glyph-name="Uhungarumlaut" unicode="&#x170;" horiz-adv-x="1282" 
d="M383 1552l223 226q27 28 58 28q33 0 55 -22t22 -51q0 -45 -47 -72l-266 -166zM750 1552l225 226q24 28 57 28q31 0 53 -22q23 -23 23 -49q0 -51 -47 -74l-264 -166zM639 -20q-230 0 -359 120q-130 121 -130 377v916h204v-916q0 -330 285 -330q287 0 287 330v916h204v-916
q0 -255 -131 -377q-129 -120 -360 -120z" />
    <glyph glyph-name="uhungarumlaut" unicode="&#x171;" horiz-adv-x="1077" 
d="M291 1184l223 225q27 29 57 29q33 0 56 -23q22 -22 22 -51q0 -45 -47 -72l-266 -166zM657 1184l226 225q24 29 57 29q30 0 53 -23t23 -49q0 -51 -47 -74l-264 -166zM741 127h-4l-100 -92q-101 -55 -213 -55q-130 0 -209 73q-80 74 -80 215v756h193v-721q0 -166 149 -166
q107 0 264 92v795h193v-1024h-182z" />
    <glyph glyph-name="Uogonek" unicode="&#x172;" horiz-adv-x="1282" 
d="M1130 1393v-916q0 -242 -117 -362q-118 -121 -327 -133q-76 -88 -76 -183q0 -53 27 -85q27 -31 78 -31q46 0 90 20v-68q-61 -45 -146 -45q-77 0 -124 45q-48 46 -48 113q0 131 125 232q-219 6 -340 126q-122 121 -122 371v916h204v-916q0 -330 285 -330q287 0 287 330
v916h204z" />
    <glyph glyph-name="uogonek" unicode="&#x173;" horiz-adv-x="1077" 
d="M891 -317q46 0 90 20v-68q-61 -45 -145 -45q-78 0 -125 45t-47 113q0 146 151 252h-63l-11 127h-4l-100 -92q-101 -55 -213 -55q-130 0 -209 73q-80 74 -80 215v756h193v-721q0 -166 149 -166q107 0 264 92v795h193v-1024h-53q-95 -95 -95 -201q0 -53 27 -85
q27 -31 78 -31z" />
    <glyph glyph-name="Wcircumflex" unicode="&#x174;" horiz-adv-x="1769" 
d="M741 1495h-129l246 344h78l246 -344h-127l-156 180zM1704 1393v-43l-342 -1360h-266l-211 936l-209 -936h-266l-347 1360v43h197l223 -895q37 -152 64 -297h2q10 54 39 177q28 116 28 120l181 895h192l185 -895q34 -172 57 -297h2q22 122 65 297l220 895h186z" />
    <glyph glyph-name="wcircumflex" unicode="&#x175;" horiz-adv-x="1538" 
d="M623 1126h-129l245 344h78l246 -344h-127l-156 181zM1483 1024v-43l-307 -991h-248l-156 745l-190 -745h-246l-260 991v43h184l209 -823h4l209 823h197l178 -823h4l239 823h183z" />
    <glyph glyph-name="Ycircumflex" unicode="&#x176;" horiz-adv-x="1140" 
d="M424 1495h-129l246 344h77l246 -344h-127l-155 180zM1094 1350l-422 -879v-471h-205v473l-418 877v43h205l221 -469q57 -122 100 -240h3q63 164 100 242l219 467h197v-43z" />
    <glyph glyph-name="ycircumflex" unicode="&#x177;" horiz-adv-x="989" 
d="M205 1126l246 344h77l246 -344h-127l-155 181l-158 -181h-129zM57 981v43h185l256 -831h4l243 831h185v-43l-248 -764q-30 -89 -41 -117q-23 -62 -43 -105q-7 -15 -20.5 -45t-19.5 -44q-20 -42 -43 -81q-8 -12 -15 -25t-14.5 -25.5l-10.5 -17.5q-19 -33 -41 -63
q-33 -46 -37 -51q-17 -22 -38 -51q-30 -42 -31 -43h-191v43q177 210 256 367z" />
    <glyph glyph-name="Ydieresis" unicode="&#x178;" horiz-adv-x="1140" 
d="M393 1552q-45 0 -76 28q-30 27 -30 75q0 43 30 70q31 28 76 28q42 0 73 -28q30 -27 30 -70q0 -48 -29 -75q-30 -28 -74 -28zM768 1552q-44 0 -74 28q-28 27 -28 75q0 44 28 71t74 27q44 0 75 -28q29 -26 29 -70q0 -49 -29 -75q-31 -28 -75 -28zM1094 1350l-422 -879v-471
h-205v473l-418 877v43h205l221 -469q57 -122 100 -240h3q63 164 100 242l219 467h197v-43z" />
    <glyph glyph-name="Zacute" unicode="&#x179;" horiz-adv-x="1034" 
d="M442 1575l226 162q38 28 75 28q38 0 62 -21t24 -56q0 -54 -61 -82l-287 -111zM969 170l-21 -170h-880v147l634 1076h-600v170h832v-148l-635 -1075h670z" />
    <glyph glyph-name="zacute" unicode="&#x17a;" horiz-adv-x="919" 
d="M387 1206l225 162q40 29 76 29q37 0 62 -22q24 -21 24 -56q0 -54 -61 -82l-287 -111zM301 137h549l-33 -137h-737v123l528 764h-528l45 137h704v-123z" />
    <glyph glyph-name="Zdotaccent" unicode="&#x17b;" horiz-adv-x="1034" 
d="M401 1665q0 44 32 74q31 30 81 30q48 0 79 -30q32 -30 32 -74q0 -43 -31 -74q-30 -30 -80 -30t-81 30q-32 30 -32 74zM969 170l-21 -170h-880v147l634 1076h-600v170h832v-148l-635 -1075h670z" />
    <glyph glyph-name="zdotaccent" unicode="&#x17c;" horiz-adv-x="919" 
d="M348 1296q0 44 32 74q33 31 81 31q46 0 79 -31q31 -30 31 -74q0 -43 -30 -73q-31 -31 -80 -31q-48 0 -81 31q-32 30 -32 73zM301 137h549l-33 -137h-737v123l528 764h-528l45 137h704v-123z" />
    <glyph glyph-name="Zcaron" unicode="&#x17d;" horiz-adv-x="1034" 
d="M516 1659l156 180h127l-246 -344h-78l-246 344h129zM969 170l-21 -170h-880v147l634 1076h-600v170h832v-148l-635 -1075h670z" />
    <glyph glyph-name="zcaron" unicode="&#x17e;" horiz-adv-x="919" 
d="M461 1290l155 180h127l-245 -344h-78l-246 344h129zM301 137h549l-33 -137h-737v123l528 764h-528l45 137h704v-123z" />
    <glyph glyph-name="florin" unicode="&#x192;" horiz-adv-x="944" 
d="M377 831l37 261q34 241 153 322q118 81 361 81l-23 -156l-24 -12q-57 21 -109 21q-140 0 -164 -172l-49 -345h289l-23 -126h-282l-94 -670q-18 -125 -59 -208q-41 -82 -108 -123q-69 -42 -149 -57q-85 -16 -201 -16l23 156l25 12q54 -20 110 -20q140 0 162 172l106 754
h-282l20 126h281z" />
    <glyph glyph-name="Scommaaccent" unicode="&#x218;" horiz-adv-x="1058" 
d="M106 1049q0 170 121 267t303 97q207 0 402 -90v-182q-188 112 -389 112q-115 0 -168 -51t-53 -127q0 -80 66 -140q68 -62 163 -105q99 -45 191 -96q98 -54 162 -145q67 -94 67 -222q0 -171 -132 -279t-327 -108q-216 0 -416 94v180q227 -115 410 -115q126 0 188 59
t62 152q0 75 -48 135q-49 61 -120 95q-97 47 -157 77q-82 42 -157 87q-70 42 -119 122t-49 183zM428 -508l98 211q-42 0 -77 29t-35 78q0 47 31 77q33 31 79 31q57 0 87 -39t30 -90q0 -106 -125 -297h-88z" />
    <glyph glyph-name="scommaaccent" unicode="&#x219;" horiz-adv-x="890" 
d="M467 899q-87 0 -131 -35q-43 -34 -43 -90t54 -96q55 -41 131 -71q93 -36 154 -64q77 -35 131 -101t54 -155q0 -143 -100 -225t-262 -82q-193 0 -342 71l-23 166q173 -92 350 -92q96 0 139 42q44 42 44 101q0 58 -55 99q-53 40 -130 70q-70 28 -152 66q-79 37 -131 104
q-55 70 -55 165q0 134 104 203t259 69q158 0 313 -55l-35 -129l-24 -18q-128 57 -250 57zM352 -508l99 211q-43 0 -78 29t-35 78q0 47 32 77q33 31 79 31q57 0 87 -39q29 -38 29 -90q0 -106 -125 -297h-88z" />
    <glyph glyph-name="uni021A" unicode="&#x21a;" horiz-adv-x="1052" 
d="M424 0v1223h-365v170h934v-170h-364v-1223h-205zM426 -508l98 211q-43 0 -78 29q-34 28 -34 78q0 47 31 77q33 31 79 31q57 0 87 -39t30 -90q0 -106 -125 -297h-88z" />
    <glyph glyph-name="uni021B" unicode="&#x21b;" horiz-adv-x="653" 
d="M51 887v71l119 66l143 209h52v-209h225v-137h-225v-649q0 -58 25 -84q26 -27 85 -27q61 0 125 31v-146q-76 -32 -172 -32q-132 0 -196 53q-62 52 -62 182v672h-119zM309 -508l99 211q-43 0 -78 29t-35 78q0 47 32 77q33 31 79 31q57 0 87 -39q29 -38 29 -90
q0 -106 -125 -297h-88z" />
    <glyph glyph-name="dotlessj" unicode="&#x237;" horiz-adv-x="479" 
d="M336 1024v-1020q0 -162 -60 -267q-61 -107 -231 -188l-74 115q110 67 141 132t31 208v1020h193z" />
    <glyph glyph-name="circumflex" unicode="&#x2c6;" horiz-adv-x="888" 
d="M158 1126l245 344h78l246 -344h-127l-156 181l-157 -181h-129z" />
    <glyph glyph-name="ring" unicode="&#x2da;" horiz-adv-x="708" 
d="M184 1274q0 76 45 119q44 43 125 43q76 0 122 -43t46 -119t-46 -118t-122 -42q-78 0 -124 42t-46 118zM260 1274q0 -94 94 -94q44 0 68 24t24 70q0 96 -92 96q-94 0 -94 -96z" />
    <glyph glyph-name="tilde" unicode="&#x2dc;" horiz-adv-x="1009" 
d="M289 1126h-111q10 120 64 192q53 71 131 71q52 0 146 -47q92 -46 124 -46q58 0 82 80h104q-18 -237 -167 -237q-57 0 -158 46t-129 46q-44 0 -62 -26q-18 -25 -24 -79z" />
    <glyph glyph-name="Wgrave" unicode="&#x1e80;" horiz-adv-x="1769" 
d="M928 1495l-285 111q-61 27 -61 82q0 35 24 56t62 21q35 0 73 -28l228 -162zM1704 1393v-43l-342 -1360h-266l-211 936l-209 -936h-266l-347 1360v43h197l223 -895q37 -152 64 -297h2q10 54 39 177q28 116 28 120l181 895h192l185 -895q34 -172 57 -297h2q22 122 65 297
l220 895h186z" />
    <glyph glyph-name="wgrave" unicode="&#x1e81;" horiz-adv-x="1538" 
d="M811 1126l-285 111q-61 27 -61 82q0 35 24 56q25 22 62 22q34 0 74 -29l227 -162zM1483 1024v-43l-307 -991h-248l-156 745l-190 -745h-246l-260 991v43h184l209 -823h4l209 823h197l178 -823h4l239 823h183z" />
    <glyph glyph-name="Wacute" unicode="&#x1e82;" horiz-adv-x="1769" 
d="M862 1495l-39 80l226 162q38 28 75 28q38 0 62 -21t24 -56q0 -54 -61 -82zM1704 1393v-43l-342 -1360h-266l-211 936l-209 -936h-266l-347 1360v43h197l223 -895q37 -152 64 -297h2q10 54 39 177q28 116 28 120l181 895h192l185 -895q34 -172 57 -297h2q22 122 65 297
l220 895h186z" />
    <glyph glyph-name="wacute" unicode="&#x1e83;" horiz-adv-x="1538" 
d="M745 1126l-38 80l225 162q40 29 76 29t61 -22t25 -56q0 -53 -62 -82zM1483 1024v-43l-307 -991h-248l-156 745l-190 -745h-246l-260 991v43h184l209 -823h4l209 823h197l178 -823h4l239 823h183z" />
    <glyph glyph-name="Wdieresis" unicode="&#x1e84;" horiz-adv-x="1769" 
d="M709 1552q-45 0 -76 28t-31 75q0 42 31 70t76 28q41 0 72 -28q30 -27 30 -70q0 -48 -29 -75q-30 -28 -73 -28zM1083 1552q-43 0 -73 28q-29 27 -29 75q0 44 29 71q28 27 73 27q44 0 75 -28q30 -27 30 -70q0 -48 -30 -75q-31 -28 -75 -28zM1704 1393v-43l-342 -1360h-266
l-211 936l-209 -936h-266l-347 1360v43h197l223 -895q37 -152 64 -297h2q10 54 39 177q28 116 28 120l181 895h192l185 -895q34 -172 57 -297h2q22 122 65 297l220 895h186z" />
    <glyph glyph-name="wdieresis" unicode="&#x1e85;" horiz-adv-x="1538" 
d="M592 1184q-46 0 -76 27q-31 28 -31 75q0 43 31 71q30 27 76 27q43 0 73 -27q29 -26 29 -71q0 -48 -28 -75t-74 -27zM967 1184q-45 0 -74 27t-29 75q0 45 29 72q27 26 74 26q44 0 74 -27t30 -71q0 -48 -30 -75t-74 -27zM1483 1024v-43l-307 -991h-248l-156 745l-190 -745
h-246l-260 991v43h184l209 -823h4l209 823h197l178 -823h4l239 823h183z" />
    <glyph glyph-name="Ygrave" unicode="&#x1ef2;" horiz-adv-x="1140" 
d="M610 1495l-284 111q-62 27 -62 82q0 34 25 56q24 21 61 21q36 0 74 -28l227 -162zM1094 1350l-422 -879v-471h-205v473l-418 877v43h205l221 -469q57 -122 100 -240h3q63 164 100 242l219 467h197v-43z" />
    <glyph glyph-name="ygrave" unicode="&#x1ef3;" horiz-adv-x="989" 
d="M522 1126l-284 111q-62 27 -62 82q0 34 25 56t61 22q34 0 74 -29l227 -162zM57 981v43h185l256 -831h4l243 831h185v-43l-248 -764q-30 -89 -41 -117q-23 -62 -43 -105q-7 -15 -20.5 -45t-19.5 -44q-20 -42 -43 -81q-8 -12 -15 -25t-14.5 -25.5l-10.5 -17.5
q-19 -33 -41 -63q-33 -46 -37 -51q-17 -22 -38 -51q-30 -42 -31 -43h-191v43q177 210 256 367z" />
    <glyph glyph-name="figuredash" unicode="&#x2012;" horiz-adv-x="1105" 
d="M129 502v127h848v-127h-848z" />
    <glyph glyph-name="endash" unicode="&#x2013;" horiz-adv-x="1327" 
d="M129 502v127h1069v-127h-1069z" />
    <glyph glyph-name="emdash" unicode="&#x2014;" horiz-adv-x="1736" 
d="M129 502v127h1479v-127h-1479z" />
    <glyph glyph-name="quoteleft" unicode="&#x2018;" horiz-adv-x="438" 
d="M315 1393l-98 -211q43 0 78 -29t35 -80q0 -45 -32 -77q-31 -31 -79 -31q-57 0 -87 39t-30 92q0 101 125 297h88z" />
    <glyph glyph-name="quoteright" unicode="&#x2019;" horiz-adv-x="436" 
d="M129 985l98 211q-42 0 -77 29t-35 80q0 45 32 76q34 32 78 32q57 0 87 -39t30 -92q0 -101 -125 -297h-88z" />
    <glyph glyph-name="quotesinglbase" unicode="&#x201a;" horiz-adv-x="462" 
d="M131 -231l98 211q-42 0 -76 28t-34 80q0 46 32 76q33 31 78 31q56 0 86 -38q31 -39 31 -91q0 -106 -125 -297h-90z" />
    <glyph glyph-name="quotedblleft" unicode="&#x201c;" horiz-adv-x="811" 
d="M315 1393l-98 -211q43 0 78 -29t35 -80q0 -45 -32 -77q-31 -31 -79 -31q-57 0 -87 39t-30 92q0 101 125 297h88zM688 1393l-96 -211q41 0 76 -29q34 -28 34 -80q0 -46 -31 -77t-79 -31q-57 0 -87 39t-30 92q0 101 125 297h88z" />
    <glyph glyph-name="quotedblright" unicode="&#x201d;" horiz-adv-x="811" 
d="M129 985l98 211q-42 0 -77 29t-35 80q0 45 32 76q34 32 78 32q57 0 87 -39t30 -92q0 -101 -125 -297h-88zM502 985l98 211q-42 0 -77 29q-34 28 -34 80q0 44 32 76t79 32q56 0 86 -39q31 -40 31 -92q0 -101 -125 -297h-90z" />
    <glyph glyph-name="quotedblbase" unicode="&#x201e;" horiz-adv-x="835" 
d="M131 -231l98 211q-42 0 -76 28t-34 80q0 46 32 76q33 31 78 31q56 0 86 -38q31 -39 31 -91q0 -106 -125 -297h-90zM504 -231l98 211q-42 0 -76 28t-34 80q0 46 31 76q33 31 79 31q57 0 87 -38q30 -37 30 -91q0 -106 -125 -297h-90z" />
    <glyph glyph-name="dagger" unicode="&#x2020;" horiz-adv-x="1130" 
d="M614 809l56 -809h-203l55 809l-442 -53v213l438 -51l-51 475h203l-52 -475l433 51v-213z" />
    <glyph glyph-name="daggerdbl" unicode="&#x2021;" horiz-adv-x="1187" 
d="M645 1014l53 -277l-53 -276l434 53v-213l-430 51l49 -475h-202l51 475l-438 -51v213l442 -53l-55 276l55 277l-442 -53v213l438 -52l-51 475h202l-49 -475l430 52v-213z" />
    <glyph glyph-name="bullet" unicode="&#x2022;" horiz-adv-x="712" 
d="M162 475q0 90 57 147q56 56 137 56q84 0 140 -56q57 -57 57 -147q0 -89 -57 -145q-58 -56 -140 -56q-79 0 -137 56q-57 56 -57 145z" />
    <glyph glyph-name="onedotenleader" unicode="&#x2024;" horiz-adv-x="436" 
d="M117 88q0 42 30 73q30 32 72 32q41 0 71 -32q29 -30 29 -73q0 -47 -29 -77q-30 -31 -71 -31q-42 0 -72 31q-30 32 -30 77z" />
    <glyph glyph-name="ellipsis" unicode="&#x2026;" horiz-adv-x="1193" 
d="M117 88q0 42 30 73q30 32 72 32q41 0 71 -32q29 -30 29 -73q0 -47 -29 -77q-30 -31 -71 -31q-42 0 -72 31q-30 32 -30 77zM496 88q0 43 29 73q30 32 71 32t71 -32q29 -30 29 -73q0 -47 -29 -77q-30 -31 -71 -31t-71 31q-29 30 -29 77zM872 88q0 42 30 73q30 32 71 32
q42 0 73 -31q29 -29 29 -74q0 -47 -29 -77q-30 -31 -73 -31q-41 0 -71 31q-30 32 -30 77z" />
    <glyph glyph-name="perthousand" unicode="&#x2030;" horiz-adv-x="2117" 
d="M336 649q-141 0 -200 100q-58 98 -58 283q0 182 57 277q57 94 201 94q141 0 200 -95q58 -94 58 -276q0 -185 -58 -283q-59 -100 -200 -100zM1081 1393h160l-448 -666l-70 41zM336 1323q-83 0 -118 -70q-34 -68 -34 -221q0 -157 34 -229q35 -74 118 -74q86 0 119 74
q32 71 32 229q0 155 -32 222q-33 69 -119 69zM1126 -10q-140 0 -199 99q-59 100 -59 284q0 180 58 276q57 94 200 94q141 0 200 -95q58 -94 58 -275q0 -186 -58 -284q-58 -99 -200 -99zM1786 -10q-142 0 -200 99q-58 98 -58 284q0 181 57 276q57 94 201 94q141 0 200 -95
q58 -94 58 -275q0 -186 -58 -284q-59 -99 -200 -99zM369 0h-158l459 686l69 -41zM1126 664q-85 0 -118 -69t-33 -222q0 -157 33 -230t118 -73q86 0 119 73t33 230q0 153 -33 222t-119 69zM1786 664q-86 0 -119 -69t-33 -222q0 -157 33 -230t119 -73t119 73q32 71 32 230
q0 155 -32 222q-33 69 -119 69z" />
    <glyph glyph-name="guilsinglleft" unicode="&#x2039;" horiz-adv-x="661" 
d="M559 248l-100 -94l-363 364v70l363 364l100 -94l-291 -305z" />
    <glyph glyph-name="guilsinglright" unicode="&#x203a;" horiz-adv-x="661" 
d="M102 858l99 94l364 -364v-70l-364 -364l-99 94l289 305z" />
    <glyph glyph-name="exclamdbl" unicode="&#x203c;" horiz-adv-x="876" 
d="M137 1393h223l-55 -1049h-115zM514 1393h223l-55 -1049h-113zM150 88q0 42 30 73q30 32 72 32t73 -31q29 -29 29 -74q0 -47 -29 -77q-30 -31 -73 -31q-42 0 -72 31q-30 32 -30 77zM528 88q0 44 30 74q31 31 73 31q41 0 71 -32q31 -33 31 -73q0 -44 -31 -77
q-30 -31 -71 -31q-43 0 -73 31q-30 32 -30 77z" />
    <glyph glyph-name="fraction" unicode="&#x2044;" horiz-adv-x="335" 
d="M522 1393h160l-446 -666l-70 41zM-186 0h-158l457 686l69 -41z" />
    <glyph glyph-name="colonsign" unicode="&#x20a1;" horiz-adv-x="1198" 
d="M676 139q227 0 422 123l-21 -188q-195 -94 -401 -94q-574 0 -574 716q0 717 574 717q206 0 401 -94v-178q-66 37 -131 61l-461 -1014q73 -49 191 -49zM698 1253h-22q-140 0 -221 -75q-83 -77 -110 -192q-28 -120 -28 -290q0 -144 19 -241zM414 254l442 977q-6 2 -59 12
l-420 -926q16 -33 37 -63z" />
    <glyph glyph-name="uni20A8" unicode="&#x20a8;" horiz-adv-x="1075" 
d="M981 1237h-184q57 -77 69 -178h115v-154h-119q-40 -227 -270 -295v-10q64 -22 102 -74t78 -155l125 -328v-43h-209l-141 375q-40 100 -74 139q-66 68 -180 68h-182v170h278q221 0 258 153h-536v154h540q-12 86 -72 125t-190 39h-278v170h870v-156z" />
    <glyph glyph-name="Euro" unicode="&#x20ac;" horiz-adv-x="1331" 
d="M803 139q227 0 422 123l-21 -188q-195 -94 -401 -94q-485 0 -559 516h-156v129h143l-2 71q0 52 2 90h-143v129h158q80 498 557 498q206 0 401 -94v-178q-202 112 -401 112q-287 0 -344 -338h420v-129h-433q-2 -38 -2 -90l2 -71h433v-129h-422q23 -175 104 -265
q83 -92 242 -92z" />
    <glyph glyph-name="uni2113" unicode="&#x2113;" horiz-adv-x="780" 
d="M209 545v497q0 208 70 310q78 102 178 102q78 0 124 -55t46 -148q0 -103 -56 -229q-56 -132 -229 -360v-345q0 -149 41 -217q38 -59 109 -59q62 0 112 59q54 58 94 211h33q-38 -171 -121 -260q-61 -71 -157 -71q-76 0 -137 50q-60 50 -89 134q-18 78 -18 219v106
l-146 -170l-22 23zM342 1112v-395q238 315 238 495q0 87 -33 135t-84 48q-50 0 -88 -58q-33 -61 -33 -225z" />
    <glyph glyph-name="trademark" unicode="&#x2122;" horiz-adv-x="1554" 
d="M322 606v690h-205v97h526v-97h-207v-690h-114zM1303 606v324q0 152 6 252h-6l-193 -576h-82l-194 576h-9q11 -105 11 -252v-324h-111v787h149l160 -469l19 -62q6 -19 16 -57h8q5 36 31 119l156 469h149v-787h-110z" />
    <glyph glyph-name="minus" unicode="&#x2212;" horiz-adv-x="919" 
d="M129 479v127h662v-127h-662z" />
    <glyph glyph-name="zero.dnom" horiz-adv-x="765" 
d="M383 -12q-173 0 -242 111t-69 325q0 210 68 316q69 108 243 108q173 0 242 -108t69 -316q0 -214 -69 -325t-242 -111zM383 752q-104 0 -143 -76t-39 -252q0 -179 40 -259q41 -81 142 -81t142 81q40 80 40 259q0 176 -39 252t-143 76z" />
    <glyph glyph-name="one.dnom" horiz-adv-x="409" 
d="M166 0v733h-123v78l186 31h60v-842h-123z" />
    <glyph glyph-name="two.dnom" horiz-adv-x="677" 
d="M205 102h403l-12 -102h-541v102q241 169 333 273q95 107 95 209q0 168 -182 168q-110 0 -211 -68v111q112 53 238 53t203 -63t77 -199q0 -69 -27 -132q-25 -58 -92 -125q-66 -66 -121 -107q-73 -54 -163 -116v-4z" />
    <glyph glyph-name="three.dnom" horiz-adv-x="679" 
d="M414 432v-6q84 -11 140 -62q56 -52 56 -139q0 -112 -82 -175q-81 -62 -217 -62q-123 0 -245 55v109q122 -68 235 -68q86 0 136 38t50 107q0 74 -64 111t-169 37h-76v94h76q85 0 152 35q65 34 65 117q0 63 -47 96q-46 33 -117 33q-88 0 -223 -62v107q121 51 238 51
q123 0 197 -58q75 -58 75 -151q0 -88 -49 -140t-131 -67z" />
    <glyph glyph-name="four.dnom" horiz-adv-x="702" 
d="M641 168h-88v-168h-123v168h-387v104l416 570h94v-572h88v-102zM430 270v363l-268 -363h268z" />
    <glyph glyph-name="five.dnom" horiz-adv-x="665" 
d="M197 733v-211q54 13 102 13q132 0 220 -67q87 -66 87 -210q0 -130 -81 -200q-80 -70 -216 -70q-119 0 -239 55v109q131 -68 229 -68q178 0 178 176q0 98 -55 137q-56 39 -156 39q-78 0 -166 -24v424h475v-103h-378z" />
    <glyph glyph-name="six.dnom" horiz-adv-x="727" 
d="M383 553q148 0 215 -79q68 -80 68 -198q0 -116 -73 -203q-72 -85 -214 -85q-166 0 -238 109q-71 108 -71 284q0 467 342 467q110 0 217 -55v-109q-107 68 -213 68q-176 0 -209 -240q97 41 176 41zM379 84q83 0 120 54q38 55 38 138q0 185 -181 185q-67 0 -157 -35v-47
q0 -295 180 -295z" />
    <glyph glyph-name="seven.dnom" horiz-adv-x="624" 
d="M305 0h-139q0 176 87 370t228 363h-436v103h545v-88q-129 -167 -207 -368q-78 -200 -78 -380z" />
    <glyph glyph-name="eight.dnom" horiz-adv-x="729" 
d="M489 438q82 -39 128 -88q47 -50 47 -129q0 -106 -89 -171q-88 -64 -219 -64q-142 0 -217 59q-76 60 -76 158q0 64 43 123t132 92q-152 74 -152 205q0 93 81 159t206 66q131 0 198 -57q68 -57 68 -146q0 -138 -150 -207zM373 752q-67 0 -107 -31q-39 -30 -39 -88
q0 -56 47 -91q42 -31 142 -71q100 55 100 162q0 58 -41 88q-42 31 -102 31zM356 82q74 0 121 36t47 93q0 34 -13 57q-14 25 -51 47q-35 21 -57 32q-25 13 -77 32q-10 5 -15 6q-123 -66 -123 -174q0 -55 46 -92t122 -37z" />
    <glyph glyph-name="nine.dnom" horiz-adv-x="727" 
d="M348 848q166 0 238 -110q71 -108 71 -283q0 -467 -342 -467q-112 0 -219 55v109q107 -68 215 -68q174 0 207 240q-91 -41 -174 -41q-147 0 -216 79q-69 80 -69 197q0 118 74 204q73 85 215 85zM371 375q68 0 155 35v47q0 295 -180 295q-82 0 -120 -55t-38 -138
q0 -184 183 -184z" />
    <glyph glyph-name="zero.numr" horiz-adv-x="765" 
d="M383 545q-173 0 -242 111t-69 325q0 210 68 316q69 108 243 108q173 0 242 -108t69 -316q0 -214 -69 -325t-242 -111zM383 1309q-104 0 -143 -76q-39 -77 -39 -252q0 -179 40 -259q41 -81 142 -81t142 81q40 80 40 259q0 175 -39 252q-39 76 -143 76z" />
    <glyph glyph-name="one.numr" horiz-adv-x="409" 
d="M166 557v733h-123v78l186 31h60v-842h-123z" />
    <glyph glyph-name="two.numr" horiz-adv-x="677" 
d="M205 659h403l-12 -102h-541v102q241 169 333 273q95 107 95 209q0 168 -182 168q-110 0 -211 -68v111q112 53 238 53t203 -63t77 -199q0 -69 -27 -132q-25 -58 -92 -125q-66 -66 -121 -107q-56 -41 -163 -115v-5z" />
    <glyph glyph-name="three.numr" horiz-adv-x="679" 
d="M414 989v-6q84 -11 140 -62q56 -52 56 -139q0 -112 -82 -175q-81 -62 -217 -62q-123 0 -245 55v109q122 -68 235 -68q86 0 136 38t50 107q0 74 -64 111t-169 37h-76v94h76q85 0 152 35q65 34 65 117q0 63 -47 96q-46 33 -117 33q-88 0 -223 -62v107q122 51 238 51
q123 0 197 -58q75 -59 75 -151q0 -88 -49 -140t-131 -67z" />
    <glyph glyph-name="four.numr" horiz-adv-x="702" 
d="M641 725h-88v-168h-123v168h-387v104l416 570h94v-572h88v-102zM430 827v363l-268 -363h268z" />
    <glyph glyph-name="five.numr" horiz-adv-x="665" 
d="M197 1290v-211q54 13 102 13q132 0 220 -67q87 -66 87 -210q0 -129 -81 -200q-80 -70 -216 -70q-119 0 -239 55v109q131 -68 229 -68q178 0 178 176q0 98 -55 137q-56 39 -156 39q-78 0 -166 -24v424h475v-103h-378z" />
    <glyph glyph-name="six.numr" horiz-adv-x="727" 
d="M383 1110q148 0 215 -79q68 -80 68 -197t-73 -204q-72 -85 -214 -85q-166 0 -238 109q-71 108 -71 284q0 467 342 467q110 0 217 -55v-109q-107 68 -213 68q-176 0 -209 -240q97 41 176 41zM379 641q83 0 120 54q38 55 38 139q0 184 -181 184q-67 0 -157 -35v-47
q0 -295 180 -295z" />
    <glyph glyph-name="seven.numr" horiz-adv-x="624" 
d="M305 557h-139q0 177 87 370t228 363h-436v103h545v-88q-129 -167 -207 -368q-78 -199 -78 -380z" />
    <glyph glyph-name="eight.numr" horiz-adv-x="729" 
d="M489 995q82 -39 128 -88q47 -50 47 -129q0 -106 -89 -171q-88 -64 -219 -64q-142 0 -217 59q-76 60 -76 158q0 64 43 123t132 92q-152 74 -152 205q0 93 81 159t206 66q131 0 198 -57q68 -57 68 -146q0 -138 -150 -207zM373 1309q-67 0 -107 -31q-39 -30 -39 -88
q0 -56 47 -91q42 -31 142 -71q100 55 100 162q0 58 -41 88q-42 31 -102 31zM356 639q74 0 121 36t47 93q0 34 -13 57q-14 25 -51 47q-35 21 -57 32q-25 13 -77 32l-15 6q-123 -66 -123 -174q0 -55 46 -92t122 -37z" />
    <glyph glyph-name="nine.numr" horiz-adv-x="727" 
d="M348 1405q166 0 238 -110q71 -108 71 -283q0 -467 -342 -467q-112 0 -219 55v109q107 -68 215 -68q174 0 207 240q-91 -41 -174 -41q-147 0 -216 80t-69 196q0 118 74 204q73 85 215 85zM371 932q68 0 155 35v47q0 295 -180 295q-82 0 -120 -55t-38 -138q0 -184 183 -184
z" />
    </font>
</defs>
</svg>
