<?xml version="1.0" standalone="no"?>
<!DOCTYPE svg PUBLIC "-//W3C//DTD SVG 1.1//EN" "http://www.w3.org/Graphics/SVG/1.1/DTD/svg11.dtd" >
<svg xmlns="http://www.w3.org/2000/svg" xmlns:xlink="http://www.w3.org/1999/xlink" version="1.1">
<metadata>
Created by FontForge 20170731 at Mon Jun 27 16:03:36 2022
 By Aleksey,,,
Copyright (c) 2013 by Dino dos Santos. All rights reserved.
</metadata>
<defs>
<font id="BreveSansText-Bold" horiz-adv-x="1138" >
  <font-face 
    font-family="BreveSansText-Bold"
    font-weight="400"
    font-stretch="normal"
    units-per-em="2048"
    panose-1="0 0 8 0 0 0 0 0 0 0"
    ascent="1638"
    descent="-410"
    x-height="1024"
    cap-height="1393"
    bbox="-385 -610 2167 1884"
    underline-thickness="102"
    underline-position="-204"
    unicode-range="U+0020-2212"
  />
<missing-glyph horiz-adv-x="1136" 
d="M135 0v1024h866v-1024h-866zM958 999h-780l391 -469zM553 510l-397 483v-960zM586 510l393 -473v952zM954 25l-385 467l-387 -467h772z" />
    <glyph glyph-name="fi" unicode="fi" horiz-adv-x="1245" 
d="M156 1024v63q0 109 29 182q30 75 77 119t125 68q80 25 156 32q73 7 190 7v-233l-35 -19q-62 14 -116 14q-117 0 -117 -129v-104h225v-219h-225v-805h-309v805h-107v125zM813 1307q0 63 45 106q44 43 121 43q74 0 120 -43t46 -106q0 -64 -46 -106q-47 -42 -120 -42
q-76 0 -121 42t-45 106zM1133 1024v-1024h-310v1024h310z" />
    <glyph glyph-name="fl" unicode="fl" horiz-adv-x="1286" 
d="M156 1024v63q0 109 29 182q30 75 77 119t125 68q80 25 156 32q73 7 190 7v-233l-35 -19q-62 14 -116 14q-117 0 -117 -129v-104h225v-219h-225v-805h-309v805h-107v125zM1040 1475h88v-1201q0 -86 60 -86q28 0 65 15v-187q-73 -36 -196 -36q-101 0 -169 43
q-69 43 -69 139v1231z" />
    <glyph glyph-name=".notdef" horiz-adv-x="1136" 
d="M135 0v1024h866v-1024h-866zM958 999h-780l391 -469zM553 510l-397 483v-960zM586 510l393 -473v952zM954 25l-385 467l-387 -467h772z" />
    <glyph glyph-name=".null" horiz-adv-x="0" 
 />
    <glyph glyph-name="nonmarkingreturn" horiz-adv-x="681" 
 />
    <glyph glyph-name="space" unicode=" " horiz-adv-x="428" 
 />
    <glyph glyph-name="exclam" unicode="!" horiz-adv-x="552" 
d="M109 1393h333l-75 -1016h-183zM143 119q0 58 40 98q41 41 98 41q55 0 96 -41t41 -98q0 -58 -41 -99q-40 -40 -96 -40q-58 0 -98 40t-40 99z" />
    <glyph glyph-name="quotedbl" unicode="&#x22;" horiz-adv-x="864" 
d="M86 1393h291l-51 -471h-189zM487 1393h293l-53 -471h-188z" />
    <glyph glyph-name="numbersign" unicode="#" horiz-adv-x="1083" 
d="M791 606v-127h202v-182h-202v-215h-185v215h-129v-215h-182v215h-205v182h205v127h-205v182h205v216h182v-216h129v216h185v-216h202v-182h-202zM606 606h-129v-127h129v127z" />
    <glyph glyph-name="dollar" unicode="$" horiz-adv-x="1118" 
d="M1049 399q0 -187 -127 -298q-127 -110 -342 -121l-7 -82h-135l8 86q-198 16 -360 96v282q222 -99 381 -116l27 313q-18 9 -44.5 21.5t-34.5 16.5q-34 17 -76 41q-53 30 -78 51q-17 14 -62 59q-40 40 -56 73q-15 32 -32 87q-15 50 -15 108q0 190 134 294q133 103 335 103
l6 82h136l-9 -88q155 -18 318 -92v-277q-180 89 -338 107l-25 -281q107 -53 140 -72q52 -30 119 -86q68 -56 103 -134q34 -75 34 -173zM434 1044q0 -62 90 -114l19 217q-53 -7 -82 -36q-27 -27 -27 -67zM623 489l-21 -241q109 24 109 117q0 72 -88 124z" />
    <glyph glyph-name="percent" unicode="%" horiz-adv-x="1538" 
d="M340 649q-152 0 -216 99q-65 100 -65 284t65 278q64 93 216 93q151 0 217 -93t66 -278t-66 -284t-217 -99zM1108 1393h254l-502 -666l-125 41zM340 1272q-66 0 -90 -53q-25 -56 -25 -187q0 -132 25 -193q24 -59 90 -59t90 58q25 59 25 194q0 132 -25 187q-24 53 -90 53z
M1198 -10q-152 0 -216 98t-64 285q0 185 64 277q64 93 216 93t216 -93q65 -94 65 -277q0 -185 -65 -285q-64 -98 -216 -98zM422 0h-254l514 686l125 -41zM1198 612q-66 0 -90 -53q-25 -55 -25 -186q0 -133 25 -194q24 -58 90 -58t90 57q25 59 25 195q0 131 -25 186
q-24 53 -90 53z" />
    <glyph glyph-name="ampersand" unicode="&#x26;" horiz-adv-x="1388" 
d="M1354 57v-57h-346l-62 63q-154 -83 -354 -83q-245 0 -380 107q-136 108 -136 286q0 225 223 387q-96 150 -96 276q0 180 124 279q123 98 349 98q221 0 329 -90q107 -89 107 -219q0 -75 -36 -141q-37 -68 -95 -101h-229q75 87 75 172q0 56 -39 90q-40 35 -110 35
q-82 0 -123 -38t-41 -95q0 -66 44 -127q39 -54 200 -221l217 -225q55 116 55 280h275q0 -281 -142 -479zM618 233q73 0 142 23l-260 266l-54 56q-61 -65 -61 -150q0 -87 59 -140q61 -55 174 -55z" />
    <glyph glyph-name="quotesingle" unicode="'" horiz-adv-x="462" 
d="M86 1393h291l-51 -471h-189z" />
    <glyph glyph-name="parenleft" unicode="(" horiz-adv-x="657" 
d="M70 696q0 279 107 499q108 222 302 361h150q-232 -336 -232 -860t232 -860h-150q-193 138 -302 362q-107 220 -107 498z" />
    <glyph glyph-name="parenright" unicode=")" horiz-adv-x="657" 
d="M588 696q0 -276 -108 -498q-108 -223 -300 -362h-151q231 334 231 860q0 525 -231 860h151q192 -140 300 -361q108 -222 108 -499z" />
    <glyph glyph-name="asterisk" unicode="*" horiz-adv-x="716" 
d="M152 1327q18 18 38 19q24 2 41 -13q7 -7 111 -178q-9 49 -17 83q-17 67 -20 82q-8 37 -8 42q0 20 19 35q18 14 42 14t41 -14q19 -16 19 -35q0 -10 -7 -42q-10 -45 -19 -83q-6 -24 -17 -80q11 16 40 66q23 38 45 73q22 34 25 37q17 15 39 14t39 -18q18 -18 19 -39
q2 -23 -15 -41q-11 -11 -176 -112q49 9 82 17q47 12 81 21t42 9q21 0 36 -20t15 -42q0 -23 -15 -41t-36 -18q-10 0 -41 7q-11 3 -38 8.5t-43 8.5q-62 13 -81 17q8 -5 30.5 -18.5t36.5 -21.5q56 -34 71 -43q30 -18 36 -24q15 -17 14 -40q-1 -22 -18 -39q-18 -18 -40 -19
q-24 -2 -40 14q-5 4 -110 172q6 -31 18 -79q3 -10 10.5 -38.5t10.5 -41.5q8 -35 8 -41q0 -21 -20 -36t-42 -15q-23 0 -41 15t-18 36q0 10 7 41q3 12 9 39t9 41q8 37 16 79q-16 -24 -40 -65q-34 -58 -43 -73q-18 -30 -24 -36q-15 -14 -39 -12q-22 1 -40 19t-19 38
q-2 23 15 41q3 3 174 109q-49 -9 -83 -17q-70 -17 -81 -20q-35 -8 -41 -8q-20 0 -35 19q-14 18 -14 42t14 41q16 19 35 19q5 0 42 -8q11 -2 38 -8.5t44 -10.5q34 -8 81 -16q-172 103 -177 110q-15 16 -13 39q2 22 18 39z" />
    <glyph glyph-name="plus" unicode="+" horiz-adv-x="860" 
d="M782 451h-258v-258h-186v258h-258v184h258v260h186v-260h258v-184z" />
    <glyph glyph-name="comma" unicode="," horiz-adv-x="479" 
d="M98 -268l109 248q-43 0 -79 36q-38 38 -38 103q0 59 41 100t105 41q72 0 113 -50q40 -49 40 -120q0 -130 -162 -358h-129z" />
    <glyph glyph-name="hyphen" unicode="-" horiz-adv-x="923" 
d="M111 485v187h702v-187h-702z" />
    <glyph glyph-name="period" unicode="." horiz-adv-x="450" 
d="M88 119q0 58 40 98q41 41 97 41q57 0 98 -41q39 -39 39 -98q0 -60 -39 -99q-40 -40 -98 -40q-57 0 -97 40t-40 99z" />
    <glyph glyph-name="slash" unicode="/" horiz-adv-x="632" 
d="M582 1434l-314 -1475h-217l311 1475h220z" />
    <glyph glyph-name="zero" unicode="0" horiz-adv-x="1296" 
d="M647 -20q-307 0 -437 184t-130 543q0 355 129 531q129 175 438 175t439 -175q131 -176 131 -531q0 -356 -132 -543q-130 -184 -438 -184zM647 1151q-133 0 -181 -96t-48 -348q0 -257 49 -361t180 -104q133 0 182 104q50 106 50 361q0 250 -49 348q-48 96 -183 96z" />
    <glyph glyph-name="one" unicode="1" horiz-adv-x="737" 
d="M252 0v1120h-205v232l332 51h201v-1403h-328z" />
    <glyph glyph-name="two" unicode="2" horiz-adv-x="1155" 
d="M1071 272l-20 -272h-971v272q311 190 474 343q165 155 165 307q0 229 -238 229q-169 0 -372 -113v277q205 98 438 98q237 0 377 -114q139 -114 139 -355q0 -73 -22 -145t-51 -123q-33 -57 -84 -107q-62 -60 -97 -88q-45 -36 -115 -78q-72 -44 -113 -64q-8 -4 -29.5 -14.5
t-43 -21.5t-43.5 -22v-9h606z" />
    <glyph glyph-name="three" unicode="3" horiz-adv-x="1179" 
d="M776 731v-10q154 -27 239 -112t85 -208q0 -208 -152 -315q-151 -106 -403 -106q-109 0 -239 27q-125 26 -224 73v282q194 -120 414 -120q119 0 193 43q75 43 75 131q0 172 -320 172h-168v237h168q306 0 306 172q0 82 -75 118t-169 36q-178 0 -393 -111v275q195 98 444 98
q227 0 373 -94q147 -95 147 -270q0 -255 -301 -318z" />
    <glyph glyph-name="four" unicode="4" horiz-adv-x="1249" 
d="M1184 240h-160v-240h-328v240h-645v288l674 875h299v-891h160v-272zM696 512v397l-319 -397h319z" />
    <glyph glyph-name="five" unicode="5" horiz-adv-x="1130" 
d="M385 1120v-211q72 15 154 15q102 0 197 -25q87 -23 167 -76q75 -50 119 -142q43 -90 43 -212q0 -235 -144 -363q-142 -126 -386 -126q-254 0 -455 100v282q210 -120 379 -120q268 0 268 204q0 112 -74 162q-73 49 -225 49q-115 0 -297 -41v777h883v-273h-629z" />
    <glyph glyph-name="six" unicode="6" horiz-adv-x="1214" 
d="M694 922q209 0 329 -123t120 -330q0 -212 -142 -351q-141 -138 -387 -138q-276 0 -405 173q-129 172 -129 482q0 395 156 587q155 191 446 191q232 0 399 -100v-275q-169 113 -350 113q-128 0 -196 -68q-69 -69 -93 -217q120 56 252 56zM623 242q95 0 138 64
q44 65 44 163q0 117 -49 173t-166 56q-80 0 -164 -30v-66q0 -181 43 -270q43 -90 154 -90z" />
    <glyph glyph-name="seven" unicode="7" horiz-adv-x="1089" 
d="M629 0h-396q0 288 141 581t396 539h-719v273h1004v-238q-211 -255 -318 -557q-108 -305 -108 -598z" />
    <glyph glyph-name="eight" unicode="8" horiz-adv-x="1241" 
d="M922 735q241 -124 241 -338q0 -190 -155 -303q-156 -114 -396 -114q-265 0 -399 101q-135 102 -135 269q0 101 57 191q57 89 156 145q-189 123 -189 320q0 181 145 294t380 113q255 0 382 -100q128 -101 128 -244q0 -223 -215 -334zM651 1159q-81 0 -124 -37
q-44 -38 -44 -96q0 -67 61 -111q57 -42 181 -92q92 86 92 195q0 63 -44 102q-43 39 -122 39zM596 233q85 0 135 40q51 41 51 110q0 18 -4 30q-5 15 -15 26q-16 18 -22 24q-11 11 -30 22q-7 4 -18.5 11.5t-15.5 9.5q-16 9 -41 20q-37 16 -44 19q-25 9 -49 20q-35 16 -49 21
q-84 -112 -84 -207q0 -65 51 -105q52 -41 135 -41z" />
    <glyph glyph-name="nine" unicode="9" horiz-adv-x="1214" 
d="M598 1413q537 0 537 -655q0 -778 -605 -778q-230 0 -397 100v274q166 -112 350 -112q130 0 197 67q68 68 92 217q-128 -55 -254 -55q-210 0 -328 123q-118 122 -118 330q0 214 140 351q141 138 386 138zM623 694q87 0 165 33v64q0 181 -43 270q-43 90 -155 90
q-93 0 -137 -65q-43 -64 -43 -162q0 -117 49 -173q49 -57 164 -57z" />
    <glyph glyph-name="colon" unicode=":" horiz-adv-x="495" 
d="M111 692q0 58 40 98q39 39 97 39t97 -39q40 -40 40 -98t-40 -98q-41 -41 -97 -41t-97 41q-40 40 -40 98zM111 119q0 58 40 98q41 41 97 41t97 -41q40 -40 40 -98q0 -59 -40 -99t-97 -40t-97 40t-40 99z" />
    <glyph glyph-name="semicolon" unicode=";" horiz-adv-x="520" 
d="M119 692q0 58 40 98q39 39 97 39t97 -39q40 -40 40 -98t-40 -98q-41 -41 -97 -41t-97 41q-40 40 -40 98zM119 -268l110 248q-42 0 -79 36q-39 37 -39 103q0 59 42 100q43 41 105 41q73 0 114 -50q40 -49 40 -120q0 -130 -162 -358h-131z" />
    <glyph glyph-name="less" unicode="&#x3c;" horiz-adv-x="880" 
d="M770 444v-188l-690 233v209l690 234v-189l-451 -149z" />
    <glyph glyph-name="equal" unicode="=" horiz-adv-x="915" 
d="M106 608v187h703v-187h-703zM106 291v186h703v-186h-703z" />
    <glyph glyph-name="greater" unicode="&#x3e;" horiz-adv-x="880" 
d="M111 743v189l690 -234v-209l-690 -233v188l450 150z" />
    <glyph glyph-name="question" unicode="?" horiz-adv-x="1044" 
d="M987 997q0 -434 -491 -434l-17 -186h-180l-29 383q186 0 287 46q102 46 102 167q0 73 -50 126q-49 52 -152 52q-163 0 -389 -113v277q209 98 444 98q214 0 345 -108q130 -108 130 -308zM250 119q0 57 39 98t96 41q56 0 97 -41q40 -40 40 -98q0 -59 -40 -99t-97 -40
t-96 40t-39 99z" />
    <glyph glyph-name="at" unicode="@" horiz-adv-x="1628" 
d="M1167 872q-80 -447 -80 -501q0 -107 82 -107q183 0 183 365q0 231 -145 341q-143 109 -363 109q-285 0 -432 -164q-148 -165 -148 -438q0 -553 613 -553q262 0 454 117v-156q-185 -127 -504 -127q-344 0 -551 199q-204 197 -204 535q0 314 211 535q212 222 563 222
q292 0 495 -164t203 -460q0 -221 -119 -372t-315 -151q-189 0 -219 140l-111 -107q-56 -33 -121 -33q-94 0 -151 79t-57 212q0 261 90 394q91 135 305 135q147 0 321 -50zM870 350l60 398q-50 20 -103 20q-77 0 -118 -75q-41 -76 -41 -283q0 -68 17 -96q17 -29 63 -29
q47 0 122 65z" />
    <glyph glyph-name="A" unicode="A" horiz-adv-x="1261" 
d="M1233 57v-57h-326l-84 291h-405l-84 -291h-309v57l405 1346h408zM745 565l-53 189q-29 100 -69 295h-5q-39 -182 -69 -295l-53 -189h249z" />
    <glyph glyph-name="B" unicode="B" horiz-adv-x="1236" 
d="M932 725v-4q103 -38 171 -122t68 -212q0 -182 -120 -284q-121 -103 -328 -103h-592v1393h555q205 0 320 -97q114 -96 114 -268q0 -106 -52 -185t-136 -118zM459 852h200q134 0 134 133q0 135 -134 135h-200v-268zM459 272h219q156 0 156 156q0 152 -160 152h-215v-308z
" />
    <glyph glyph-name="C" unicode="C" horiz-adv-x="1202" 
d="M74 696q0 358 149 537q150 180 477 180q214 0 424 -100v-275q-220 113 -424 113q-88 0 -146 -33t-88 -97q-30 -65 -42 -141q-12 -77 -12 -184q0 -106 12 -183t42 -141q30 -66 88 -98q57 -32 146 -32q237 0 445 123l-21 -285q-210 -100 -424 -100q-327 0 -477 180
q-149 179 -149 536z" />
    <glyph glyph-name="D" unicode="D" horiz-adv-x="1351" 
d="M131 1393h537q324 0 466 -168q142 -167 142 -518q0 -354 -143 -530q-144 -177 -465 -177h-537v1393zM459 272h209q153 0 212 94q58 92 58 341q0 243 -57 328t-213 85h-209v-848z" />
    <glyph glyph-name="E" unicode="E" horiz-adv-x="1157" 
d="M459 1120v-268h522v-272h-522v-308h633l-21 -272h-940v1393h942v-273h-614z" />
    <glyph glyph-name="F" unicode="F" 
d="M459 1120v-319h522v-275h-522v-526h-328v1393h942v-273h-614z" />
    <glyph glyph-name="G" unicode="G" horiz-adv-x="1226" 
d="M700 1151q-88 0 -146 -33t-88 -97q-30 -65 -42 -141q-12 -77 -12 -184q0 -106 12 -183t42 -141q30 -66 88 -98q57 -32 146 -32q50 0 97 6v250h-158v272h485v-690q-210 -100 -424 -100q-327 0 -477 180q-149 179 -149 536q0 358 149 537q150 180 477 180q214 0 424 -100
v-275q-220 113 -424 113z" />
    <glyph glyph-name="H" unicode="H" horiz-adv-x="1343" 
d="M459 1393v-541h426v541h327v-1393h-327v580h-426v-580h-328v1393h328z" />
    <glyph glyph-name="I" unicode="I" horiz-adv-x="589" 
d="M459 1393v-1393h-328v1393h328z" />
    <glyph glyph-name="J" unicode="J" horiz-adv-x="598" 
d="M467 1393v-1284q0 -83 -15 -147q-14 -59 -57 -133q-40 -69 -127 -119q-88 -51 -213 -79l-98 250q115 44 149 95q33 50 33 133v1284h328z" />
    <glyph glyph-name="K" unicode="K" horiz-adv-x="1310" 
d="M459 1393v-1393h-328v1393h328zM942 1393h334v-58l-404 -620l414 -658v-57h-352l-414 666v73z" />
    <glyph glyph-name="L" unicode="L" horiz-adv-x="1103" 
d="M1071 272l-20 -272h-920v1393h328v-1121h612z" />
    <glyph glyph-name="M" unicode="M" horiz-adv-x="1603" 
d="M1155 0v440q0 238 19 437h-11l-258 -650h-223l-258 650h-10q18 -189 18 -437v-440h-301v1393h434l160 -424q57 -177 78 -250h8q22 93 74 250l153 424h435v-1393h-318z" />
    <glyph glyph-name="N" unicode="N" horiz-adv-x="1343" 
d="M459 1393l452 -801h11q-19 201 -19 438v363h309v-1393h-327l-453 801h-10q18 -190 18 -439v-362h-309v1393h328z" />
    <glyph glyph-name="O" unicode="O" horiz-adv-x="1363" 
d="M682 -20q-321 0 -464 185q-144 186 -144 542q0 353 143 529q144 177 465 177t465 -177q143 -176 143 -529q0 -355 -144 -541t-464 -186zM682 1151q-152 0 -211 -98q-59 -97 -59 -346q0 -253 60 -359t210 -106t210 106t60 359q0 251 -59 347q-60 97 -211 97z" />
    <glyph glyph-name="P" unicode="P" horiz-adv-x="1204" 
d="M131 1393h485q282 0 412 -114q131 -114 131 -341q0 -469 -543 -469h-157v-469h-328v1393zM459 743h157q111 0 159 48q46 46 46 147q0 98 -45 140t-160 42h-157v-377z" />
    <glyph glyph-name="Q" unicode="Q" horiz-adv-x="1363" 
d="M864 -2q27 -85 100 -123q71 -37 216 -37l-21 -219q-316 0 -461 83q-143 82 -182 292q-442 88 -442 713q0 353 143 529q144 177 465 177t465 -177q143 -176 143 -529q0 -613 -426 -709zM682 1151q-152 0 -211 -98q-59 -97 -59 -346q0 -253 60 -359t210 -106t210 106
t60 359q0 251 -59 347q-60 97 -211 97z" />
    <glyph glyph-name="R" unicode="R" horiz-adv-x="1267" 
d="M1219 57v-57h-345l-163 403q-22 55 -57 79q-34 24 -101 24h-94v-506h-328v1393h485q543 0 543 -443q0 -285 -217 -385v-12q98 -39 160 -197zM459 780h157q116 0 160 40q45 40 45 130t-45 130q-44 40 -160 40h-157v-340z" />
    <glyph glyph-name="S" unicode="S" horiz-adv-x="1110" 
d="M88 1016q0 188 134 293q132 104 333 104q244 0 455 -98v-277q-231 113 -428 113q-79 0 -118 -31q-38 -30 -38 -76q0 -51 63 -95q65 -45 154 -85q80 -36 181 -94q91 -52 155 -148q63 -95 63 -223q0 -195 -138 -307q-137 -112 -367 -112q-258 0 -459 100v282
q267 -120 448 -120q179 0 179 123q0 50 -47 94q-45 42 -113 71q-70 29 -149 72q-82 44 -148 91q-68 48 -114 132q-46 83 -46 191z" />
    <glyph glyph-name="T" unicode="T" horiz-adv-x="1101" 
d="M387 0v1120h-336v273h1000v-273h-336v-1120h-328z" />
    <glyph glyph-name="U" unicode="U" horiz-adv-x="1329" 
d="M664 -20q-244 0 -394 117q-151 118 -151 376v920h327v-920q0 -103 57 -166t161 -63q103 0 160 64t57 165v920h327v-920q0 -258 -149 -376q-148 -117 -395 -117z" />
    <glyph glyph-name="V" unicode="V" horiz-adv-x="1271" 
d="M420 -10l-385 1345v58h327l211 -754q33 -112 70 -295h4q32 161 70 295l211 754h315v-58l-399 -1345h-424z" />
    <glyph glyph-name="W" unicode="W" horiz-adv-x="1910" 
d="M1874 1393v-58l-342 -1345h-424l-154 688l-161 -688h-424l-326 1345v58h328l161 -754q30 -143 56 -297h4q19 113 63 295l166 756h301l154 -754q32 -156 55 -297h4q21 129 60 295l176 756h303z" />
    <glyph glyph-name="X" unicode="X" horiz-adv-x="1200" 
d="M1184 57v-57h-350l-254 432l-226 -432h-331v57l374 682l-350 596v58h350l224 -379l190 379h332v-58l-342 -626z" />
    <glyph glyph-name="Y" unicode="Y" horiz-adv-x="1202" 
d="M1188 1335l-426 -893v-442h-328v449l-414 886v58h330l170 -394q82 -208 90 -229h4q37 117 86 229l174 394h314v-58z" />
    <glyph glyph-name="Z" unicode="Z" horiz-adv-x="1103" 
d="M1049 272l-21 -272h-973v238l574 882h-535v273h922v-238l-565 -883h598z" />
    <glyph glyph-name="bracketleft" unicode="[" horiz-adv-x="716" 
d="M657 1556v-176h-186v-1368h186v-176h-514v1720h514z" />
    <glyph glyph-name="backslash" unicode="\" horiz-adv-x="632" 
d="M582 -41h-220l-311 1475h219z" />
    <glyph glyph-name="bracketright" unicode="]" horiz-adv-x="716" 
d="M61 -164v176h187v1368h-187v176h514v-1720h-514z" />
    <glyph glyph-name="asciicircum" unicode="^" horiz-adv-x="786" 
d="M84 1126l244 363h131l243 -363h-157l-152 160l-151 -160h-158z" />
    <glyph glyph-name="underscore" unicode="_" horiz-adv-x="1124" 
d="M111 -260v186h903v-186h-903z" />
    <glyph glyph-name="grave" unicode="`" horiz-adv-x="763" 
d="M551 1126l-291 103q-86 33 -86 110q0 41 30 68t77 27q39 0 104 -48l213 -165z" />
    <glyph glyph-name="a" unicode="a" horiz-adv-x="1095" 
d="M639 137l-123 -106q-82 -51 -178 -51q-132 0 -212 76q-81 76 -81 196q0 237 303 303l291 59v62q0 164 -176 164q-135 0 -311 -78l-27 29l74 196q169 57 336 57q190 0 301 -80q112 -81 112 -227v-463q0 -86 60 -86q28 0 65 15v-166q-86 -57 -215 -57q-182 0 -219 157z
M639 475l-186 -57q-82 -27 -82 -107q0 -49 32 -75q33 -27 82 -27q82 0 154 72v194z" />
    <glyph glyph-name="b" unicode="b" horiz-adv-x="1155" 
d="M721 1044q170 0 269 -144q100 -145 100 -388q0 -247 -128 -390q-127 -142 -352 -142q-175 0 -309 81l-82 -71h-106v1403l221 82h88v-588l123 106q83 51 176 51zM567 164q112 0 158 88q47 89 47 260q0 311 -197 311q-92 0 -153 -61v-569q87 -29 145 -29z" />
    <glyph glyph-name="c" unicode="c" horiz-adv-x="972" 
d="M606 823q-112 0 -169 -86q-56 -84 -56 -225q0 -311 248 -311q135 0 274 84v-224q-141 -81 -342 -81q-239 0 -368 145q-130 147 -130 387q0 241 134 387q133 145 385 145q182 0 340 -67l-56 -186l-28 -27q-127 59 -232 59z" />
    <glyph glyph-name="d" unicode="d" horiz-adv-x="1157" 
d="M1044 1475v-1475h-299l-10 137l-123 -106q-82 -51 -176 -51q-170 0 -269 144t-99 388q0 246 116 389t312 143q127 0 239 -61v410l221 82h88zM582 201q88 0 153 65v539q-68 37 -153 37q-197 0 -197 -330q0 -311 197 -311z" />
    <glyph glyph-name="e" unicode="e" horiz-adv-x="1085" 
d="M1028 666q0 -84 -33 -220h-610q15 -126 86 -185q72 -60 180 -60q77 0 167 25t147 59v-224q-141 -81 -381 -81q-250 0 -385 145q-136 147 -136 387q0 241 134 387q133 145 385 145q92 0 168 -18q74 -17 140 -59q62 -39 101 -118q37 -75 37 -183zM385 592l342 16q8 53 8 78
q0 85 -43 119q-44 35 -100 35q-183 0 -207 -248z" />
    <glyph glyph-name="f" unicode="f" horiz-adv-x="710" 
d="M156 1024v63q0 109 29 182q30 75 77 119t125 68q80 25 156 32q73 7 190 7v-233l-35 -19q-62 14 -116 14q-117 0 -117 -129v-104h225v-219h-225v-805h-309v805h-107v125z" />
    <glyph glyph-name="g" unicode="g" horiz-adv-x="1089" 
d="M387 227l383 -39q137 -12 217 -86t80 -206q0 -160 -129 -264q-128 -103 -432 -103q-249 0 -369 65q-121 66 -121 168q0 109 113 177l129 -35l-10 -56q0 -73 60 -103t186 -30q270 0 270 121q0 42 -25 61q-22 17 -82 23l-364 35q-95 7 -142 57t-47 115q0 128 172 233
q-204 83 -204 332q0 164 114 258q113 94 330 94q102 0 178 -18l346 18v-170h-120q43 -73 43 -182q0 -184 -114 -278q-115 -95 -331 -95q-26 0 -84 5zM514 850q-75 0 -113 -45q-36 -43 -36 -109q0 -182 159 -182q148 0 148 174q0 76 -40 119t-118 43z" />
    <glyph glyph-name="h" unicode="h" 
d="M426 868l98 117q106 59 215 59q131 0 212 -78q83 -80 83 -225v-741h-309v680q0 125 -115 125q-80 0 -188 -66v-739h-309v1393l221 82h88v-607h4z" />
    <glyph glyph-name="i" unicode="i" horiz-adv-x="534" 
d="M102 1307q0 63 45 106q44 43 121 43q74 0 120 -43t46 -106q0 -64 -46 -106t-120 -42q-76 0 -121 42t-45 106zM422 1024v-1024h-309v1024h309z" />
    <glyph glyph-name="j" unicode="j" horiz-adv-x="534" 
d="M102 1307q0 63 45 106q44 43 121 43q74 0 120 -43t46 -106q0 -64 -46 -106t-120 -42q-76 0 -121 42t-45 106zM422 1024v-991q0 -161 -73 -281q-72 -119 -261 -203l-125 183q96 64 122 118q28 58 28 183v991h309z" />
    <glyph glyph-name="k" unicode="k" horiz-adv-x="1150" 
d="M334 1475h88v-1475h-309v1393zM813 0l-350 532l346 492h281v-57l-297 -408l337 -502v-57h-317z" />
    <glyph glyph-name="l" unicode="l" horiz-adv-x="575" 
d="M330 1475h88v-1201q0 -86 59 -86q29 0 66 15v-187q-73 -36 -197 -36q-101 0 -169 43t-68 139v1231z" />
    <glyph glyph-name="m" unicode="m" horiz-adv-x="1732" 
d="M1014 852l104 133q106 59 215 59q131 0 212 -78q83 -80 83 -225v-741h-309v680q0 125 -115 125q-72 0 -178 -66v-739h-311v680q0 125 -113 125q-72 0 -180 -66v-739h-309v1024h299l10 -156h4l98 117q106 59 215 59q102 0 173 -49q75 -51 98 -143h4z" />
    <glyph glyph-name="n" unicode="n" 
d="M422 868h4l98 117q106 59 215 59q131 0 212 -78q83 -80 83 -225v-741h-309v680q0 125 -115 125q-80 0 -188 -66v-739h-309v1024h299z" />
    <glyph glyph-name="o" unicode="o" horiz-adv-x="1136" 
d="M569 -20q-245 0 -375 140q-131 142 -131 392t131 392q130 140 375 140q243 0 374 -141q130 -140 130 -391t-130 -391q-131 -141 -374 -141zM569 840q-107 0 -147 -82q-41 -84 -41 -246t41 -246q40 -82 147 -82q105 0 146 83q41 84 41 245t-41 245q-41 83 -146 83z" />
    <glyph glyph-name="p" unicode="p" horiz-adv-x="1157" 
d="M721 1044q170 0 269 -144q100 -145 100 -388q0 -245 -117 -389q-116 -143 -311 -143q-130 0 -240 61v-492h-309v1475h299l10 -137l123 106q83 51 176 51zM575 182q197 0 197 330q0 311 -197 311q-82 0 -153 -65v-541q81 -35 153 -35z" />
    <glyph glyph-name="q" unicode="q" horiz-adv-x="1155" 
d="M1042 1034v-1485h-309v588l-123 -106q-82 -51 -176 -51q-170 0 -269 144t-99 388q0 247 128 390q127 142 351 142q173 0 315 -86l94 76h88zM580 201q92 0 153 61v569q-87 29 -145 29q-112 0 -158 -88q-47 -89 -47 -260q0 -311 197 -311z" />
    <glyph glyph-name="r" unicode="r" horiz-adv-x="841" 
d="M422 827h4l98 158q78 59 178 59q54 0 127 -18l-94 -270q-52 14 -104 14q-118 0 -209 -76v-694h-309v1024h299z" />
    <glyph glyph-name="s" unicode="s" horiz-adv-x="905" 
d="M489 823q-104 0 -104 -69q0 -36 48 -64q46 -27 117 -55q64 -25 138 -62q71 -36 118 -103q48 -69 48 -161q0 -149 -110 -239t-287 -90q-191 0 -363 71l-28 234q185 -84 356 -84q115 0 115 75q0 36 -48 67q-47 30 -114 57q-55 22 -136 66q-70 38 -116 108q-47 71 -47 165
q0 153 115 229t282 76q182 0 340 -67l-55 -186l-29 -27q-127 59 -240 59z" />
    <glyph glyph-name="t" unicode="t" horiz-adv-x="743" 
d="M49 805v125l101 94l204 238h105v-238h233v-219h-233v-490q0 -98 110 -98q67 0 125 23v-222q-96 -38 -225 -38q-167 0 -244 66q-75 65 -75 224v535h-101z" />
    <glyph glyph-name="u" unicode="u" 
d="M717 156h-4l-99 -117q-106 -59 -215 -59q-131 0 -212 78q-83 80 -83 225v741h310v-680q0 -125 114 -125q81 0 189 66v739h309v-1024h-299z" />
    <glyph glyph-name="v" unicode="v" horiz-adv-x="1077" 
d="M733 -10h-397l-295 977v57h307l201 -723h4l190 723h299v-57z" />
    <glyph glyph-name="w" unicode="w" horiz-adv-x="1646" 
d="M1616 1024v-57l-283 -977h-397l-115 569l-143 -569h-397l-230 977v57h307l144 -721h4l166 721h334l135 -721h4l172 721h299z" />
    <glyph glyph-name="x" unicode="x" horiz-adv-x="1050" 
d="M1024 57v-57h-317l-193 287l-195 -287h-296v57l329 469l-299 441v57h314l174 -256l172 256h288v-57l-301 -435z" />
    <glyph glyph-name="y" unicode="y" horiz-adv-x="1069" 
d="M35 967v57h307l201 -723h4l190 723h299v-57l-215 -674q-133 -419 -375 -744h-337v58q158 178 247 352z" />
    <glyph glyph-name="z" unicode="z" horiz-adv-x="952" 
d="M440 219h459l-39 -219h-799v184l447 621h-447l66 219h752v-184z" />
    <glyph glyph-name="braceleft" unicode="{" horiz-adv-x="681" 
d="M319 698v-4q199 -29 199 -184q0 -73 -30 -175q-29 -99 -29 -159q0 -164 145 -164v-176q-248 0 -353 61q-104 60 -104 205q0 80 31 198t31 151q0 87 -31 113t-112 26v213q83 0 112 25q31 26 31 114q0 33 -31 151t-31 197q0 146 104 206q103 60 353 60v-176
q-145 0 -145 -163q0 -60 29 -159q30 -102 30 -175q0 -147 -199 -185z" />
    <glyph glyph-name="bar" unicode="|" horiz-adv-x="514" 
d="M367 1434v-1475h-220v1475h220z" />
    <glyph glyph-name="braceright" unicode="}" horiz-adv-x="681" 
d="M365 694v4q-201 38 -201 185q0 70 31 175q30 102 30 159q0 163 -145 163v176q250 0 352 -60q103 -61 103 -206q0 -83 -30 -197t-30 -151q0 -88 31 -114q29 -25 110 -25v-213q-79 0 -110 -26t-31 -113q0 -37 30 -151t30 -198q0 -144 -103 -205q-104 -61 -352 -61v176
q145 0 145 164q0 57 -30 159q-31 105 -31 175q0 154 201 184z" />
    <glyph glyph-name="asciitilde" unicode="~" horiz-adv-x="915" 
d="M242 1126h-144q4 129 65 212q60 83 154 83q69 0 167 -49t130 -49q66 0 82 82h133q-11 -291 -186 -291q-60 0 -174 50t-145 50q-34 0 -53 -18q-18 -17 -29 -70z" />
    <glyph glyph-name="exclamdown" unicode="&#xa1;" horiz-adv-x="522" 
d="M129 905q0 59 40 99t97 40q56 0 96 -40q41 -41 41 -99q0 -57 -41 -98t-96 -41q-56 0 -97 41q-40 40 -40 98zM352 647l76 -1016h-334l76 1016h182z" />
    <glyph glyph-name="cent" unicode="&#xa2;" horiz-adv-x="1226" 
d="M1151 365l-21 -285q-174 -82 -317 -94v-88h-149v82q-305 12 -445 191q-139 178 -139 525q0 348 139 526q140 179 445 191v82h149v-88q143 -12 317 -94v-275q-171 86 -317 107v-897q179 23 338 117zM418 696q0 -208 51 -322q51 -113 195 -130v905q-144 -17 -195 -130
q-51 -114 -51 -323z" />
    <glyph glyph-name="sterling" unicode="&#xa3;" horiz-adv-x="1124" 
d="M1047 272l-21 -272h-922v242q205 82 205 276q0 34 -8 60h-197v186h82q-88 118 -88 246q0 194 133 299q132 104 332 104q244 0 455 -98v-277q-231 113 -412 113q-155 0 -155 -127q0 -40 15 -77q14 -36 32 -60q16 -23 48 -63q39 -50 46 -60h352v-186h-285v-9
q0 -190 -129 -286v-11h517z" />
    <glyph glyph-name="currency" unicode="&#xa4;" horiz-adv-x="1351" 
d="M823 242q237 0 445 123l-21 -285q-210 -100 -424 -100q-513 0 -604 466h-149v187h129l-2 63q0 40 2 70h-129v184h149q94 463 604 463q214 0 424 -100v-275q-220 113 -424 113q-205 0 -262 -201h383v-184h-407l-2 -70q0 -35 2 -63h407v-187h-385q55 -204 264 -204z" />
    <glyph glyph-name="yen" unicode="&#xa5;" horiz-adv-x="1271" 
d="M1221 1335l-371 -776h250v-186h-307v-373h-328v373h-307v186h256l-361 776v58h328l170 -394q62 -148 90 -229h4q40 116 86 229l174 394h316v-58z" />
    <glyph glyph-name="brokenbar" unicode="&#xa6;" horiz-adv-x="514" 
d="M367 1434v-656h-220v656h220zM367 614v-655h-220v655h220z" />
    <glyph glyph-name="section" unicode="&#xa7;" horiz-adv-x="1103" 
d="M92 1270q0 205 133 311q134 107 334 107q242 0 455 -99v-276q-228 112 -428 112q-156 0 -156 -127q0 -50 59 -100q63 -53 145 -98q46 -25 170 -99q82 -49 144 -117q60 -66 60 -139q0 -72 -41 -115q-39 -40 -121 -79q-61 76 -200 165q-141 90 -254 155q-116 66 -208 172
t-92 227zM1010 125q0 -204 -133 -312t-334 -108q-243 0 -453 100v277q218 -113 428 -113q154 0 154 125q0 50 -60 101q-63 53 -144 99q-68 38 -170 99q-80 48 -144 118q-60 66 -60 138q0 71 41 114q40 41 121 81q52 -62 155 -132q107 -73 198 -127q103 -62 192 -124
q93 -65 151 -152t58 -184z" />
    <glyph glyph-name="dieresis" unicode="&#xa8;" horiz-adv-x="995" 
d="M147 1292q0 62 43 99q42 36 109 36q68 0 108 -36q42 -37 42 -99t-42 -100q-41 -37 -108 -37q-66 0 -109 37t-43 100zM547 1292q0 62 42 99q40 36 107 36t109 -36q43 -37 43 -99q0 -63 -43 -100t-109 -37t-107 37q-42 38 -42 100z" />
    <glyph glyph-name="copyright" unicode="&#xa9;" horiz-adv-x="1576" 
d="M788 -20q-297 0 -506 209q-210 210 -210 507t210 507t506 210q297 0 507 -210t210 -507t-210 -507q-209 -209 -507 -209zM788 92q250 0 427 177q178 178 178 427t-178 427q-177 177 -427 177q-252 0 -429 -177t-177 -427t177 -427t429 -177zM459 696q0 201 85 302
q86 102 269 102q120 0 240 -56v-155q-121 63 -240 63q-94 0 -128 -65t-34 -191q0 -125 34 -190q35 -66 128 -66q133 0 252 70l-12 -162q-117 -55 -240 -55q-184 0 -269 101t-85 302z" />
    <glyph glyph-name="ordfeminine" unicode="&#xaa;" horiz-adv-x="823" 
d="M467 811l-84 -74q-49 -32 -115 -32q-88 0 -139 51t-51 129q0 157 194 202l195 39v41q0 111 -117 111q-93 0 -207 -53l-18 20l49 131q104 37 225 37q123 0 193 -53t70 -152v-307q0 -57 38 -57q19 0 43 8v-111q-49 -36 -131 -36q-123 0 -145 106zM467 1034l-129 -39
q-55 -16 -55 -69q0 -34 22 -52q23 -18 53 -18q60 0 109 49v129zM72 498v110h686v-110h-686z" />
    <glyph glyph-name="guillemotleft" unicode="&#xab;" horiz-adv-x="1171" 
d="M602 285l-125 -131l-397 335v127l397 336l125 -131l-256 -268zM1092 285l-125 -131l-398 335v127l398 336l125 -131l-258 -268z" />
    <glyph glyph-name="logicalnot" unicode="&#xac;" horiz-adv-x="991" 
d="M692 190v279h-586v186h773v-465h-187z" />
    <glyph glyph-name="softhyphen" unicode="&#xad;" horiz-adv-x="923" 
d="M111 485v187h702v-187h-702z" />
    <glyph glyph-name="registered" unicode="&#xae;" horiz-adv-x="1576" 
d="M788 1413q297 0 507 -210t210 -507t-210 -507q-209 -209 -507 -209q-297 0 -506 209q-210 210 -210 507t210 507t506 210zM788 92q250 0 427 177q178 178 178 427t-178 427q-177 177 -427 177q-252 0 -429 -177t-177 -427t177 -427t429 -177zM967 623v-9q58 -23 92 -110
l65 -168v-33h-194l-92 227q-24 60 -88 60h-54v-287h-186v787h274q306 0 306 -252q0 -158 -123 -215zM696 743h88q62 0 89 22q26 21 26 73t-25 75t-90 23h-88v-193z" />
    <glyph glyph-name="macron" unicode="&#xaf;" horiz-adv-x="944" 
d="M160 1151v168h624v-168h-624z" />
    <glyph glyph-name="degree" unicode="&#xb0;" horiz-adv-x="638" 
d="M72 1165q0 109 72 178q73 70 175 70q103 0 176 -70q72 -69 72 -178q0 -107 -73 -177t-175 -70q-104 0 -175 70q-72 70 -72 177zM211 1165q0 -41 28 -75q27 -33 80 -33q54 0 81 33q28 34 28 75q0 45 -27 77t-82 32q-54 0 -81 -32t-27 -77z" />
    <glyph glyph-name="plusminus" unicode="&#xb1;" horiz-adv-x="909" 
d="M805 709v-187h-258v-225h-185v225h-260v187h260v227h185v-227h258zM102 225h703v-184h-703v184z" />
    <glyph glyph-name="twosuperior" unicode="&#xb2;" horiz-adv-x="706" 
d="M649 926l-12 -164h-584v164q185 112 285 204q100 91 100 185q0 137 -143 137q-101 0 -223 -68v166q119 60 262 60q309 0 309 -283q0 -59 -25 -118q-22 -53 -56 -93q-29 -35 -87 -77q-53 -39 -92 -59q-68 -35 -98 -50v-4h364z" />
    <glyph glyph-name="threesuperior" unicode="&#xb3;" horiz-adv-x="720" 
d="M471 1200v-6q91 -16 143 -67q52 -50 52 -123q0 -125 -92 -190q-91 -64 -242 -64q-156 0 -277 59v170q119 -72 248 -72q162 0 162 105q0 102 -193 102h-100v143h100q183 0 183 103q0 50 -44 71q-43 21 -102 21q-105 0 -235 -66v164q113 60 266 60q134 0 223 -56
q88 -55 88 -161q0 -155 -180 -193z" />
    <glyph glyph-name="acute" unicode="&#xb4;" horiz-adv-x="763" 
d="M162 1221l213 165q65 48 104 48q47 0 77 -27t30 -68q0 -77 -86 -110l-291 -103z" />
    <glyph glyph-name="paragraph" unicode="&#xb6;" horiz-adv-x="1251" 
d="M760 0v1085h-144v-602h-84q-229 0 -352 120t-123 341q0 220 123 334q124 115 352 115h555v-1393h-327z" />
    <glyph glyph-name="periodcentered" unicode="&#xb7;" horiz-adv-x="468" 
d="M98 573q0 58 40 98t95 40q58 0 98 -40t40 -98q0 -57 -40 -96q-41 -39 -98 -39q-55 0 -95 39t-40 96z" />
    <glyph glyph-name="cedilla" unicode="&#xb8;" horiz-adv-x="745" 
d="M373 0v-61q94 0 150 -43q57 -44 57 -121q0 -78 -54 -132q-53 -53 -153 -53q-104 0 -174 35v94q62 -22 102 -22q107 0 107 80q0 84 -142 84v139h107z" />
    <glyph glyph-name="onesuperior" unicode="&#xb9;" horiz-adv-x="462" 
d="M158 762v672h-123v139l198 31h121v-842h-196z" />
    <glyph glyph-name="ordmasculine" unicode="&#xba;" horiz-adv-x="815" 
d="M403 705q-161 0 -242 93t-81 261t81 261t242 93q162 0 243 -93t81 -261t-81 -261t-243 -93zM403 1278q-70 0 -97 -55t-27 -164t27 -164t97 -55q71 0 98 55t27 164t-27 164t-98 55zM66 498v110h686v-110h-686z" />
    <glyph glyph-name="guillemotright" unicode="&#xbb;" horiz-adv-x="1171" 
d="M80 821l125 131l397 -336v-127l-397 -335l-125 131l256 268zM569 821l123 131l400 -336v-127l-400 -335l-123 131l256 268z" />
    <glyph glyph-name="onequarter" unicode="&#xbc;" horiz-adv-x="1765" 
d="M176 557v672h-123v139l199 31h121v-842h-197zM1391 1393l-488 -666l-125 41l357 625h256zM1706 143h-94v-143h-197v143h-387v174l404 525h180v-535h94v-164zM725 686l125 -41l-369 -645h-254zM1415 307v240l-192 -240h192z" />
    <glyph glyph-name="onehalf" unicode="&#xbd;" horiz-adv-x="1822" 
d="M176 557v672h-123v139l199 31h121v-842h-197zM1391 1393l-488 -666l-125 41l357 625h256zM1753 164l-12 -164h-582v164q183 111 284 205q99 91 99 184q0 137 -143 137q-102 0 -223 -67v165q118 60 264 60q140 0 225 -68q84 -68 84 -215q0 -59 -25 -118q-23 -55 -56 -94
t-87 -77q-53 -37 -93 -58q-53 -28 -99 -50v-4h364zM725 686l125 -41l-369 -645h-254z" />
    <glyph glyph-name="threequarters" unicode="&#xbe;" horiz-adv-x="2009" 
d="M688 799q0 -126 -91 -190t-243 -64q-156 0 -278 59v170q119 -72 248 -72q161 0 161 105q0 102 -192 102h-100v144h100q184 0 184 102q0 50 -45 71t-102 21q-107 0 -236 -65v164q115 59 268 59q136 0 224 -55t88 -162q0 -156 -180 -193v-6q93 -17 143 -67q51 -51 51 -123z
M1632 1393l-485 -666l-125 41l356 625h254zM1950 143h-97v-143h-196v143h-387v174l403 525h180v-535h97v-164zM969 686l125 -41l-369 -645h-256zM1657 307v240l-193 -240h193z" />
    <glyph glyph-name="questiondown" unicode="&#xbf;" horiz-adv-x="1034" 
d="M791 905q0 -58 -40 -98q-41 -41 -96 -41q-57 0 -98 41t-41 98q0 58 41 99q40 40 98 40q56 0 96 -40t40 -99zM53 27q0 434 492 434l14 186h182l27 -383q-184 0 -285 -46q-102 -47 -102 -167q0 -74 49 -126t152 -52q160 0 391 113v-277q-206 -98 -453 -98q-206 0 -336 109
q-131 110 -131 307z" />
    <glyph glyph-name="Agrave" unicode="&#xc0;" horiz-adv-x="1261" 
d="M668 1495l-291 102q-86 33 -86 111q0 41 30 68q29 26 76 26q41 0 105 -47l213 -166zM1233 57v-57h-324l-84 291h-407l-84 -291h-309v57l405 1346h410zM748 565l-56 189q-33 127 -69 295h-2q-24 -119 -70 -295l-53 -189h250z" />
    <glyph glyph-name="Aacute" unicode="&#xc1;" horiz-adv-x="1261" 
d="M580 1495l-48 94l213 166q64 47 105 47q48 0 77 -26t29 -68q0 -78 -86 -111zM1233 57v-57h-324l-84 291h-407l-84 -291h-309v57l405 1346h410zM748 565l-56 189q-33 127 -69 295h-2q-24 -119 -70 -295l-53 -189h250z" />
    <glyph glyph-name="Acircumflex" unicode="&#xc2;" horiz-adv-x="1261" 
d="M475 1495h-158l246 363h129l244 -363h-158l-149 160zM1233 57v-57h-324l-84 291h-407l-84 -291h-309v57l405 1346h410zM748 565l-56 189q-33 127 -69 295h-2q-24 -119 -70 -295l-53 -189h250z" />
    <glyph glyph-name="Atilde" unicode="&#xc3;" horiz-adv-x="1261" 
d="M487 1583q-33 0 -52 -18q-18 -17 -29 -70h-144q4 129 65 212q60 83 154 83q69 0 167 -49t130 -49q66 0 82 82h133q-11 -291 -186 -291q-60 0 -175 50t-145 50zM1233 57v-57h-324l-84 291h-407l-84 -291h-309v57l405 1346h410zM748 565l-56 189q-33 127 -69 295h-2
q-24 -119 -70 -295l-53 -189h250z" />
    <glyph glyph-name="Adieresis" unicode="&#xc4;" horiz-adv-x="1261" 
d="M430 1524q-65 0 -108 37t-43 100q0 61 43 98t108 37q67 0 108 -37q42 -38 42 -98q0 -63 -42 -100q-41 -37 -108 -37zM827 1524q-66 0 -107 37q-42 37 -42 100q0 61 42 98q41 37 107 37t109 -37t43 -98q0 -63 -43 -100t-109 -37zM1233 57v-57h-324l-84 291h-407l-84 -291
h-309v57l405 1346h410zM748 565l-56 189q-33 127 -69 295h-2q-24 -119 -70 -295l-53 -189h250z" />
    <glyph glyph-name="Aring" unicode="&#xc5;" horiz-adv-x="1261" 
d="M627 1468q-78 0 -131 48q-52 47 -52 126q0 76 51 127q50 50 132 50q81 0 133 -50q51 -49 51 -127q0 -80 -51 -126q-53 -48 -133 -48zM627 1724q-82 0 -82 -82q0 -37 21 -58t61 -21q39 0 61 21q23 21 23 58t-23 60q-22 22 -61 22zM1233 57v-57h-324l-84 291h-407l-84 -291
h-309v57l405 1346h410zM748 565l-56 189q-33 127 -69 295h-2q-24 -119 -70 -295l-53 -189h250z" />
    <glyph glyph-name="AE" unicode="&#xc6;" horiz-adv-x="1740" 
d="M1677 272l-20 -272h-881v291h-334l-120 -291h-326v57l590 1336h1071v-273h-553v-268h463v-272h-463v-308h573zM776 565v555h-16q-61 -211 -96 -295l-109 -260h221z" />
    <glyph glyph-name="Ccedilla" unicode="&#xc7;" horiz-adv-x="1202" 
d="M1145 365l-21 -285q-188 -89 -379 -100v-41q95 0 151 -43t56 -121q0 -79 -53 -132t-154 -53q-104 0 -174 35v94q62 -22 103 -22q106 0 106 80q0 84 -141 84v121q-295 16 -430 196t-135 518q0 358 149 537q150 180 477 180q214 0 424 -100v-275q-220 113 -424 113
q-88 0 -146 -33t-88 -97q-30 -65 -42 -141q-12 -77 -12 -184q0 -106 12 -183t42 -141q30 -66 88 -98q57 -32 146 -32q237 0 445 123z" />
    <glyph glyph-name="Egrave" unicode="&#xc8;" horiz-adv-x="1157" 
d="M639 1495l-291 102q-86 33 -86 111q0 41 30 68q29 26 77 26q40 0 104 -47l213 -166zM459 1120v-268h524v-272h-524v-308h633l-21 -272h-940v1393h944v-273h-616z" />
    <glyph glyph-name="Eacute" unicode="&#xc9;" horiz-adv-x="1157" 
d="M502 1589l213 166q64 47 104 47q48 0 77 -26q30 -27 30 -68q0 -78 -86 -111l-291 -102zM459 1120v-268h524v-272h-524v-308h633l-21 -272h-940v1393h944v-273h-616z" />
    <glyph glyph-name="Ecircumflex" unicode="&#xca;" horiz-adv-x="1157" 
d="M289 1495l246 363h129l243 -363h-157l-150 160l-154 -160h-157zM459 1120v-268h524v-272h-524v-308h633l-21 -272h-940v1393h944v-273h-616z" />
    <glyph glyph-name="Edieresis" unicode="&#xcb;" horiz-adv-x="1157" 
d="M248 1661q0 61 43 98t108 37q67 0 108 -37q42 -38 42 -98q0 -63 -42 -100q-41 -37 -108 -37q-65 0 -108 37t-43 100zM647 1661q0 61 42 98q41 37 108 37q65 0 108 -37t43 -98q0 -63 -43 -100t-108 -37q-67 0 -108 37q-42 37 -42 100zM459 1120v-268h524v-272h-524v-308
h633l-21 -272h-940v1393h944v-273h-616z" />
    <glyph glyph-name="Igrave" unicode="&#xcc;" horiz-adv-x="589" 
d="M334 1495l-291 102q-86 33 -86 111q0 41 30 68q29 26 76 26q41 0 105 -47l213 -166zM459 1393v-1393h-328v1393h328z" />
    <glyph glyph-name="Iacute" unicode="&#xcd;" horiz-adv-x="589" 
d="M199 1589l213 166q64 47 104 47q48 0 77 -26q30 -27 30 -68q0 -78 -86 -111l-291 -102zM459 1393v-1393h-328v1393h328z" />
    <glyph glyph-name="Icircumflex" unicode="&#xce;" horiz-adv-x="589" 
d="M-14 1495l245 363h129l244 -363h-158l-149 160l-154 -160h-157zM459 1393v-1393h-328v1393h328z" />
    <glyph glyph-name="Idieresis" unicode="&#xcf;" horiz-adv-x="589" 
d="M-55 1661q0 61 43 98t108 37q67 0 108 -37q42 -38 42 -98q0 -63 -42 -100q-41 -37 -108 -37q-65 0 -108 37t-43 100zM344 1661q0 61 42 98q41 37 108 37q65 0 108 -37t43 -98q0 -63 -43 -100t-108 -37q-67 0 -108 37q-42 37 -42 100zM459 1393v-1393h-328v1393h328z" />
    <glyph glyph-name="Eth" unicode="&#xd0;" horiz-adv-x="1361" 
d="M139 1393h537q326 0 468 -168q142 -167 142 -518q0 -354 -143 -530q-144 -177 -467 -177h-537v578h-110v237h110v578zM467 272h209q152 0 213 94q59 91 59 341q0 243 -58 328t-214 85h-209v-305h266v-237h-266v-306z" />
    <glyph glyph-name="Ntilde" unicode="&#xd1;" horiz-adv-x="1343" 
d="M438 1495h-143q5 130 64 212q60 83 155 83q69 0 167 -49t130 -49q66 0 82 82h133q-10 -291 -186 -291q-60 0 -174 50t-146 50t-52 -18q-19 -18 -30 -70zM459 1393l452 -801h11q-19 201 -19 438v363h309v-1393h-327l-453 801h-10q18 -190 18 -439v-362h-309v1393h328z" />
    <glyph glyph-name="Ograve" unicode="&#xd2;" horiz-adv-x="1363" 
d="M723 1495l-291 102q-86 33 -86 111q0 41 30 68q29 26 77 26q40 0 104 -47l213 -166zM682 -20q-321 0 -464 185q-144 186 -144 542q0 353 143 529q144 177 465 177t465 -177q143 -176 143 -529q0 -355 -144 -541t-464 -186zM682 1151q-152 0 -211 -98q-59 -97 -59 -346
q0 -253 60 -359t210 -106t210 106t60 359q0 251 -59 347q-60 97 -211 97z" />
    <glyph glyph-name="Oacute" unicode="&#xd3;" horiz-adv-x="1363" 
d="M588 1589l213 166q64 47 104 47q48 0 77 -26q30 -27 30 -68q0 -78 -86 -111l-291 -102zM682 -20q-321 0 -464 185q-144 186 -144 542q0 353 143 529q144 177 465 177t465 -177q143 -176 143 -529q0 -355 -144 -541t-464 -186zM682 1151q-152 0 -211 -98q-59 -97 -59 -346
q0 -253 60 -359t210 -106t210 106t60 359q0 251 -59 347q-60 97 -211 97z" />
    <glyph glyph-name="Ocircumflex" unicode="&#xd4;" horiz-adv-x="1363" 
d="M373 1495l245 363h130l243 -363h-157l-150 160l-154 -160h-157zM682 -20q-321 0 -464 185q-144 186 -144 542q0 353 143 529q144 177 465 177t465 -177q143 -176 143 -529q0 -355 -144 -541t-464 -186zM682 1151q-152 0 -211 -98q-59 -97 -59 -346q0 -253 60 -359
t210 -106t210 106t60 359q0 251 -59 347q-60 97 -211 97z" />
    <glyph glyph-name="Otilde" unicode="&#xd5;" horiz-adv-x="1363" 
d="M461 1495h-144q4 129 65 212q60 83 155 83q68 0 166 -49t131 -49q65 0 81 82h134q-11 -291 -187 -291q-62 0 -176 50t-143 50q-33 0 -53 -18q-18 -17 -29 -70zM682 -20q-321 0 -464 185q-144 186 -144 542q0 353 143 529q144 177 465 177t465 -177q143 -176 143 -529
q0 -355 -144 -541t-464 -186zM682 1151q-152 0 -211 -98q-59 -97 -59 -346q0 -253 60 -359t210 -106t210 106t60 359q0 251 -59 347q-60 97 -211 97z" />
    <glyph glyph-name="Odieresis" unicode="&#xd6;" horiz-adv-x="1363" 
d="M334 1661q0 61 43 98t108 37q67 0 108 -37q42 -38 42 -98q0 -63 -42 -100q-41 -37 -108 -37q-65 0 -108 37t-43 100zM733 1661q0 61 42 98q41 37 108 37q65 0 108 -37t43 -98q0 -63 -43 -100t-108 -37q-67 0 -108 37q-42 37 -42 100zM682 -20q-321 0 -464 185
q-144 186 -144 542q0 353 143 529q144 177 465 177t465 -177q143 -176 143 -529q0 -355 -144 -541t-464 -186zM682 1151q-152 0 -211 -98q-59 -97 -59 -346q0 -253 60 -359t210 -106t210 106t60 359q0 251 -59 347q-60 97 -211 97z" />
    <glyph glyph-name="multiply" unicode="&#xd7;" horiz-adv-x="913" 
d="M457 412l-242 -240l-129 129l240 242l-240 241l129 129l242 -239l241 239l129 -129l-239 -241l239 -242l-129 -129z" />
    <glyph glyph-name="Oslash" unicode="&#xd8;" horiz-adv-x="1363" 
d="M1149 1516l-92 -199q233 -157 233 -610q0 -355 -144 -541t-464 -186q-134 0 -240 34l-63 -137h-158l92 199q-239 163 -239 631q0 353 143 529q144 177 465 177q144 0 244 -33l63 136h160zM412 707q0 -217 45 -328l352 749q-48 23 -127 23q-152 0 -211 -98
q-59 -97 -59 -346zM682 242q150 0 210 106t60 359q0 205 -39 307l-352 -750q50 -22 121 -22z" />
    <glyph glyph-name="Ugrave" unicode="&#xd9;" horiz-adv-x="1329" 
d="M690 1495l-291 102q-86 33 -86 111q0 41 30 68q29 26 77 26q40 0 104 -47l213 -166zM664 -20q-244 0 -394 117q-151 118 -151 376v920h327v-920q0 -103 57 -166t161 -63q103 0 160 64t57 165v920h327v-920q0 -258 -149 -376q-148 -117 -395 -117z" />
    <glyph glyph-name="Uacute" unicode="&#xda;" horiz-adv-x="1329" 
d="M553 1589l213 166q64 47 104 47q48 0 77 -26q30 -27 30 -68q0 -78 -86 -111l-291 -102zM664 -20q-244 0 -394 117q-151 118 -151 376v920h327v-920q0 -103 57 -166t161 -63q103 0 160 64t57 165v920h327v-920q0 -258 -149 -376q-148 -117 -395 -117z" />
    <glyph glyph-name="Ucircumflex" unicode="&#xdb;" horiz-adv-x="1329" 
d="M340 1495l246 363h129l243 -363h-157l-150 160l-153 -160h-158zM664 -20q-244 0 -394 117q-151 118 -151 376v920h327v-920q0 -103 57 -166t161 -63q103 0 160 64t57 165v920h327v-920q0 -258 -149 -376q-148 -117 -395 -117z" />
    <glyph glyph-name="Udieresis" unicode="&#xdc;" horiz-adv-x="1329" 
d="M299 1661q0 61 43 98t109 37t107 -37q42 -38 42 -98q0 -63 -42 -100q-41 -37 -107 -37t-109 37t-43 100zM698 1661q0 61 42 98q41 37 108 37q65 0 108 -37t43 -98q0 -63 -43 -100t-108 -37q-67 0 -108 37q-42 37 -42 100zM664 -20q-244 0 -394 117q-151 118 -151 376v920
h327v-920q0 -103 57 -166t161 -63q103 0 160 64t57 165v920h327v-920q0 -258 -149 -376q-148 -117 -395 -117z" />
    <glyph glyph-name="Yacute" unicode="&#xdd;" horiz-adv-x="1202" 
d="M557 1495l-47 94l213 166q64 47 104 47q48 0 77 -26q30 -27 30 -68q0 -78 -86 -111zM1188 1335l-426 -893v-442h-328v444l-414 891v58h330l168 -394q65 -156 92 -229h4q37 117 86 229l172 394h316v-58z" />
    <glyph glyph-name="Thorn" unicode="&#xde;" horiz-adv-x="1204" 
d="M459 1161h157q283 0 412 -113q131 -114 131 -341q0 -467 -543 -467h-157v-240h-328v1393h328v-232zM459 512h157q112 0 159 47q46 46 46 148q0 98 -45 140t-160 42h-157v-377z" />
    <glyph glyph-name="germandbls" unicode="&#xdf;" horiz-adv-x="1245" 
d="M156 1024v41q0 117 44 203t117 134q74 48 157 71q81 22 173 22q182 0 302 -75t120 -228q0 -79 -37 -144q-40 -70 -82 -105q-41 -34 -82 -80q-37 -41 -37 -75q0 -32 39 -65q41 -35 96 -68q54 -32 112 -77q57 -44 96 -115q38 -70 38 -160q0 -150 -104 -236
q-105 -87 -274 -87q-148 0 -252 40l-29 234q124 -53 217 -53q64 0 94 27q31 28 31 73q0 44 -35 85q-32 38 -84 74q-70 49 -98 70q-50 38 -84 87q-35 50 -35 110q0 75 87 209t87 205q0 56 -34 86q-35 30 -89 30q-145 0 -145 -206v-1051h-309v805h-107v125z" />
    <glyph glyph-name="agrave" unicode="&#xe0;" horiz-adv-x="1095" 
d="M580 1126l-291 103q-86 33 -86 110q0 42 29 68q30 27 77 27q40 0 105 -48l213 -165zM639 137l-123 -106q-82 -51 -176 -51q-131 0 -213 76t-82 196q0 237 303 303l291 59v62q0 164 -176 164q-135 0 -309 -78l-29 29l76 196q167 57 336 57q190 0 300 -80q111 -81 111 -227
v-463q0 -86 60 -86q28 0 65 15v-166q-38 -27 -101 -42q-64 -15 -114 -15q-182 0 -219 157zM639 475l-184 -57q-84 -24 -84 -107q0 -49 32 -75q33 -27 82 -27q87 0 154 72v194z" />
    <glyph glyph-name="aacute" unicode="&#xe1;" horiz-adv-x="1095" 
d="M442 1221l213 165q65 48 105 48q47 0 77 -27q29 -26 29 -68q0 -77 -86 -110l-291 -103zM639 137l-123 -106q-82 -51 -176 -51q-131 0 -213 76t-82 196q0 237 303 303l291 59v62q0 164 -176 164q-135 0 -309 -78l-29 29l76 196q167 57 336 57q190 0 300 -80
q111 -81 111 -227v-463q0 -86 60 -86q28 0 65 15v-166q-38 -27 -101 -42q-64 -15 -114 -15q-182 0 -219 157zM639 475l-184 -57q-84 -24 -84 -107q0 -49 32 -75q33 -27 82 -27q87 0 154 72v194z" />
    <glyph glyph-name="acircumflex" unicode="&#xe2;" horiz-adv-x="1095" 
d="M229 1126l246 363h129l244 -363h-158l-149 160l-154 -160h-158zM639 137l-123 -106q-82 -51 -176 -51q-131 0 -213 76t-82 196q0 237 303 303l291 59v62q0 164 -176 164q-135 0 -309 -78l-29 29l76 196q167 57 336 57q190 0 300 -80q111 -81 111 -227v-463q0 -86 60 -86
q28 0 65 15v-166q-38 -27 -101 -42q-64 -15 -114 -15q-182 0 -219 157zM639 475l-184 -57q-84 -24 -84 -107q0 -49 32 -75q33 -27 82 -27q87 0 154 72v194z" />
    <glyph glyph-name="atilde" unicode="&#xe3;" horiz-adv-x="1095" 
d="M317 1126h-143q4 129 65 212q60 83 154 83q69 0 167 -49t130 -49q66 0 82 82h133q-11 -291 -186 -291q-62 0 -176 50t-144 50q-33 0 -52 -18t-30 -70zM639 137l-123 -106q-82 -51 -176 -51q-131 0 -213 76t-82 196q0 237 303 303l291 59v62q0 164 -176 164
q-135 0 -309 -78l-29 29l76 196q167 57 336 57q190 0 300 -80q111 -81 111 -227v-463q0 -86 60 -86q28 0 65 15v-166q-38 -27 -101 -42q-64 -15 -114 -15q-182 0 -219 157zM639 475l-184 -57q-84 -24 -84 -107q0 -49 32 -75q33 -27 82 -27q87 0 154 72v194z" />
    <glyph glyph-name="adieresis" unicode="&#xe4;" horiz-adv-x="1095" 
d="M188 1292q0 62 43 99q42 36 109 36t107 -36q42 -37 42 -99t-42 -100q-41 -37 -107 -37t-109 37t-43 100zM588 1292q0 62 42 99q40 36 107 36t109 -36q43 -37 43 -99q0 -63 -43 -100t-109 -37t-107 37q-42 38 -42 100zM639 137l-123 -106q-82 -51 -176 -51q-131 0 -213 76
t-82 196q0 237 303 303l291 59v62q0 164 -176 164q-135 0 -309 -78l-29 29l76 196q167 57 336 57q190 0 300 -80q111 -81 111 -227v-463q0 -86 60 -86q28 0 65 15v-166q-38 -27 -101 -42q-64 -15 -114 -15q-182 0 -219 157zM639 475l-184 -57q-84 -24 -84 -107q0 -49 32 -75
q33 -27 82 -27q87 0 154 72v194z" />
    <glyph glyph-name="aring" unicode="&#xe5;" horiz-adv-x="1095" 
d="M356 1274q0 76 51 127q49 49 132 49t133 -49q51 -49 51 -127q0 -80 -51 -127q-52 -47 -133 -47q-79 0 -131 47t-52 127zM457 1274q0 -38 21 -59t61 -21q39 0 61 21q23 21 23 59q0 36 -23 59t-61 23q-82 0 -82 -82zM639 137l-123 -106q-82 -51 -176 -51q-131 0 -213 76
t-82 196q0 237 303 303l291 59v62q0 164 -176 164q-135 0 -309 -78l-29 29l76 196q167 57 336 57q190 0 300 -80q111 -81 111 -227v-463q0 -86 60 -86q28 0 65 15v-166q-38 -27 -101 -42q-64 -15 -114 -15q-182 0 -219 157zM639 475l-184 -57q-84 -24 -84 -107q0 -49 32 -75
q33 -27 82 -27q87 0 154 72v194z" />
    <glyph glyph-name="ae" unicode="&#xe6;" horiz-adv-x="1646" 
d="M1589 666q0 -96 -33 -220h-610q15 -126 86 -185q72 -60 180 -60q77 0 167 25t147 59v-224q-141 -81 -381 -81q-305 0 -430 219l-195 -168q-82 -51 -192 -51q-132 0 -208 76q-77 77 -77 196q0 237 295 303l305 59v62q0 164 -174 164q-137 0 -311 -78l-29 29l76 196
q169 57 336 57q194 0 295 -83q122 83 307 83q197 0 321 -87q125 -87 125 -291zM946 592l342 16q8 53 8 78q0 85 -43 119q-44 35 -100 35q-183 0 -207 -248zM481 209q91 0 191 92q-23 74 -29 172l-192 -55q-91 -24 -91 -107q0 -48 36 -75t85 -27z" />
    <glyph glyph-name="ccedilla" unicode="&#xe7;" horiz-adv-x="972" 
d="M381 512q0 -311 248 -311q135 0 274 84v-224q-129 -71 -299 -79v-43q95 0 151 -43t56 -121q0 -79 -53 -132t-154 -53q-104 0 -174 35v94q62 -22 102 -22q107 0 107 80q0 84 -141 84v121q-211 21 -322 162q-113 143 -113 368q0 241 134 387q133 145 385 145q182 0 340 -67
l-56 -186l-28 -27q-127 59 -232 59q-112 0 -169 -86q-56 -84 -56 -225z" />
    <glyph glyph-name="egrave" unicode="&#xe8;" horiz-adv-x="1085" 
d="M633 1126l-291 103q-86 33 -86 110q0 41 30 68t76 27q40 0 105 -48l213 -165zM1028 666q0 -84 -33 -220h-610q15 -126 86 -185q72 -60 180 -60q77 0 167 25t147 59v-224q-143 -81 -381 -81q-253 0 -386 145q-135 147 -135 387q0 241 134 387q133 145 385 145
q92 0 168 -18q74 -17 140 -59q62 -39 101 -118q37 -75 37 -183zM385 592l340 16q10 39 10 78q0 85 -43 119q-44 35 -100 35q-184 0 -207 -248z" />
    <glyph glyph-name="eacute" unicode="&#xe9;" horiz-adv-x="1085" 
d="M543 1126l-47 95l213 165q65 48 104 48q47 0 77 -27t30 -68q0 -77 -86 -110zM1028 666q0 -84 -33 -220h-610q15 -126 86 -185q72 -60 180 -60q77 0 167 25t147 59v-224q-143 -81 -381 -81q-253 0 -386 145q-135 147 -135 387q0 241 134 387q133 145 385 145q92 0 168 -18
q74 -17 140 -59q62 -39 101 -118q37 -75 37 -183zM385 592l340 16q10 39 10 78q0 85 -43 119q-44 35 -100 35q-184 0 -207 -248z" />
    <glyph glyph-name="ecircumflex" unicode="&#xea;" horiz-adv-x="1085" 
d="M440 1126h-157l245 363h129l244 -363h-158l-149 160zM1028 666q0 -84 -33 -220h-610q15 -126 86 -185q72 -60 180 -60q77 0 167 25t147 59v-224q-143 -81 -381 -81q-253 0 -386 145q-135 147 -135 387q0 241 134 387q133 145 385 145q92 0 168 -18q74 -17 140 -59
q62 -39 101 -118q37 -75 37 -183zM385 592l340 16q10 39 10 78q0 85 -43 119q-44 35 -100 35q-184 0 -207 -248z" />
    <glyph glyph-name="edieresis" unicode="&#xeb;" horiz-adv-x="1085" 
d="M393 1155q-65 0 -108 37t-43 100q0 62 43 99q42 36 108 36q68 0 108 -36q42 -37 42 -99t-42 -100q-41 -37 -108 -37zM791 1155q-67 0 -108 37q-42 38 -42 100t42 99q40 36 108 36q66 0 108 -36q43 -37 43 -99q0 -63 -43 -100t-108 -37zM1028 666q0 -84 -33 -220h-610
q15 -126 86 -185q72 -60 180 -60q77 0 167 25t147 59v-224q-143 -81 -381 -81q-253 0 -386 145q-135 147 -135 387q0 241 134 387q133 145 385 145q92 0 168 -18q74 -17 140 -59q62 -39 101 -118q37 -75 37 -183zM385 592l340 16q10 39 10 78q0 85 -43 119q-44 35 -100 35
q-184 0 -207 -248z" />
    <glyph glyph-name="igrave" unicode="&#xec;" horiz-adv-x="534" 
d="M307 1126l-291 103q-86 33 -86 110q0 41 30 68t77 27q39 0 104 -48l213 -165zM422 1024v-1024h-309v1024h309z" />
    <glyph glyph-name="iacute" unicode="&#xed;" horiz-adv-x="534" 
d="M170 1221l213 165q65 48 104 48q47 0 77 -27t30 -68q0 -77 -86 -110l-291 -103zM422 1024v-1024h-309v1024h309z" />
    <glyph glyph-name="icircumflex" unicode="&#xee;" horiz-adv-x="534" 
d="M-43 1126l246 363h129l243 -363h-157l-150 160l-153 -160h-158zM422 1024v-1024h-309v1024h309z" />
    <glyph glyph-name="idieresis" unicode="&#xef;" horiz-adv-x="534" 
d="M-84 1292q0 62 43 99q42 36 109 36t107 -36q42 -37 42 -99t-42 -100q-41 -37 -107 -37t-109 37t-43 100zM315 1292q0 62 42 99q40 36 108 36q66 0 108 -36q43 -37 43 -99q0 -63 -43 -100t-108 -37q-67 0 -108 37q-42 38 -42 100zM422 1024v-1024h-309v1024h309z" />
    <glyph glyph-name="eth" unicode="&#xf0;" horiz-adv-x="1148" 
d="M920 1262l-125 -54q284 -263 284 -641q0 -279 -127 -433t-391 -154q-242 0 -367 140q-126 141 -126 369q0 223 121 348q121 126 341 126q69 0 142 -19q-42 86 -111 164l-170 -72l-57 131l121 52q-101 90 -240 174h295q79 -34 158 -84l196 84zM561 184q117 0 159 82
t42 301q0 105 -21 187q-74 20 -139 20q-217 0 -217 -285q0 -305 176 -305z" />
    <glyph glyph-name="ntilde" unicode="&#xf1;" 
d="M342 1126h-143q5 130 64 212q60 83 155 83q69 0 167 -49t130 -49q66 0 82 82h133q-10 -291 -187 -291q-60 0 -175 50t-144 50q-32 0 -52 -18q-19 -18 -30 -70zM422 868h4l98 117q106 59 215 59q131 0 212 -78q83 -80 83 -225v-741h-309v680q0 125 -115 125
q-80 0 -188 -66v-739h-309v1024h299z" />
    <glyph glyph-name="ograve" unicode="&#xf2;" horiz-adv-x="1136" 
d="M608 1126l-291 103q-86 33 -86 110q0 41 30 68t77 27q39 0 104 -48l213 -165zM567 -20q-243 0 -373 141q-131 142 -131 391t131 391q130 141 373 141q247 0 375 -140q129 -141 129 -392t-129 -392q-128 -140 -375 -140zM567 840q-104 0 -145 -83q-41 -84 -41 -245
t41 -245q41 -83 145 -83q105 0 146 83q41 84 41 245t-41 245q-41 83 -146 83z" />
    <glyph glyph-name="oacute" unicode="&#xf3;" horiz-adv-x="1136" 
d="M471 1221l213 165q65 48 104 48q47 0 77 -27t30 -68q0 -77 -86 -110l-291 -103zM567 -20q-243 0 -373 141q-131 142 -131 391t131 391q130 141 373 141q247 0 375 -140q129 -141 129 -392t-129 -392q-128 -140 -375 -140zM567 840q-104 0 -145 -83q-41 -84 -41 -245
t41 -245q41 -83 145 -83q105 0 146 83q41 84 41 245t-41 245q-41 83 -146 83z" />
    <glyph glyph-name="ocircumflex" unicode="&#xf4;" horiz-adv-x="1136" 
d="M258 1126l246 363h129l244 -363h-158l-150 160l-153 -160h-158zM567 -20q-243 0 -373 141q-131 142 -131 391t131 391q130 141 373 141q247 0 375 -140q129 -141 129 -392t-129 -392q-128 -140 -375 -140zM567 840q-104 0 -145 -83q-41 -84 -41 -245t41 -245
q41 -83 145 -83q105 0 146 83q41 84 41 245t-41 245q-41 83 -146 83z" />
    <glyph glyph-name="otilde" unicode="&#xf5;" horiz-adv-x="1136" 
d="M344 1126h-143q5 130 64 212q60 83 155 83q69 0 167 -49t130 -49q66 0 82 82h133q-10 -291 -187 -291q-60 0 -175 50t-144 50q-32 0 -52 -18q-19 -18 -30 -70zM567 -20q-243 0 -373 141q-131 142 -131 391t131 391q130 141 373 141q247 0 375 -140q129 -141 129 -392
t-129 -392q-128 -140 -375 -140zM567 840q-104 0 -145 -83q-41 -84 -41 -245t41 -245q41 -83 145 -83q105 0 146 83q41 84 41 245t-41 245q-41 83 -146 83z" />
    <glyph glyph-name="odieresis" unicode="&#xf6;" horiz-adv-x="1136" 
d="M217 1292q0 62 43 99q42 36 109 36t107 -36q42 -37 42 -99t-42 -100q-41 -37 -107 -37t-109 37t-43 100zM616 1292q0 62 42 99q40 36 108 36q66 0 108 -36q44 -38 44 -99q0 -62 -44 -100q-43 -37 -108 -37q-67 0 -108 37q-42 38 -42 100zM567 -20q-243 0 -373 141
q-131 142 -131 391t131 391q130 141 373 141q247 0 375 -140q129 -141 129 -392t-129 -392q-128 -140 -375 -140zM567 840q-104 0 -145 -83q-41 -84 -41 -245t41 -245q41 -83 145 -83q105 0 146 83q41 84 41 245t-41 245q-41 83 -146 83z" />
    <glyph glyph-name="divide" unicode="&#xf7;" horiz-adv-x="907" 
d="M317 905q0 59 40 99t98 40q57 0 97 -40t40 -99q0 -58 -40 -98q-41 -41 -97 -41q-57 0 -98 41q-40 40 -40 98zM82 451v184h743v-184h-743zM317 180q0 59 40 99t98 40q57 0 97 -40t40 -99q0 -58 -40 -98q-41 -41 -97 -41q-57 0 -98 41q-40 40 -40 98z" />
    <glyph glyph-name="oslash" unicode="&#xf8;" horiz-adv-x="1136" 
d="M989 1085l-88 -141q172 -141 172 -432q0 -251 -130 -391q-131 -141 -374 -141q-135 0 -241 47l-56 -88h-139l94 149q-164 140 -164 424q0 250 131 392q130 140 375 140q131 0 230 -40l51 81h139zM381 512q0 -90 12 -158l283 453q-44 33 -107 33q-107 0 -147 -82
q-41 -84 -41 -246zM569 184q105 0 146 83q41 84 41 245q0 109 -17 174l-286 -459q43 -43 116 -43z" />
    <glyph glyph-name="ugrave" unicode="&#xf9;" 
d="M606 1126l-291 103q-86 33 -86 110q0 41 30 68t77 27q39 0 104 -48l213 -165zM717 156h-4l-99 -117q-106 -59 -215 -59q-131 0 -212 78q-83 80 -83 225v741h310v-680q0 -125 114 -125q81 0 189 66v739h309v-1024h-299z" />
    <glyph glyph-name="uacute" unicode="&#xfa;" 
d="M469 1221l213 165q65 48 104 48q47 0 77 -27t30 -68q0 -77 -86 -110l-291 -103zM717 156h-4l-99 -117q-106 -59 -215 -59q-131 0 -212 78q-83 80 -83 225v741h310v-680q0 -125 114 -125q81 0 189 66v739h309v-1024h-299z" />
    <glyph glyph-name="ucircumflex" unicode="&#xfb;" 
d="M256 1126l246 363h129l243 -363h-157l-150 160l-153 -160h-158zM717 156h-4l-99 -117q-106 -59 -215 -59q-131 0 -212 78q-83 80 -83 225v741h310v-680q0 -125 114 -125q81 0 189 66v739h309v-1024h-299z" />
    <glyph glyph-name="udieresis" unicode="&#xfc;" 
d="M215 1292q0 62 43 99q42 36 109 36t107 -36q42 -37 42 -99t-42 -100q-41 -37 -107 -37t-109 37t-43 100zM614 1292q0 62 42 99q40 36 108 36q66 0 108 -36q43 -37 43 -99q0 -63 -43 -100t-108 -37q-67 0 -108 37q-42 38 -42 100zM717 156h-4l-99 -117q-106 -59 -215 -59
q-131 0 -212 78q-83 80 -83 225v741h310v-680q0 -125 114 -125q81 0 189 66v739h309v-1024h-299z" />
    <glyph glyph-name="yacute" unicode="&#xfd;" horiz-adv-x="1069" 
d="M438 1221l213 165q65 48 105 48q47 0 77 -27q29 -26 29 -68q0 -77 -86 -110l-291 -103zM35 967v57h307l201 -723h4l190 723h299v-57l-215 -674q-135 -425 -372 -744h-340v58q158 178 247 352z" />
    <glyph glyph-name="thorn" unicode="&#xfe;" horiz-adv-x="1157" 
d="M721 1044q170 0 269 -144q100 -145 100 -388q0 -245 -117 -389q-116 -143 -311 -143q-130 0 -240 61v-492h-309v1844l221 82h88v-588l123 106q83 51 176 51zM575 182q197 0 197 330q0 311 -197 311q-82 0 -153 -65v-541q81 -35 153 -35z" />
    <glyph glyph-name="ydieresis" unicode="&#xff;" horiz-adv-x="1069" 
d="M184 1292q0 62 43 99q42 36 109 36t107 -36q42 -37 42 -99t-42 -100q-41 -37 -107 -37t-109 37t-43 100zM584 1292q0 62 42 99q40 36 107 36t109 -36q43 -37 43 -99q0 -63 -43 -100t-109 -37t-107 37q-42 38 -42 100zM35 967v57h307l201 -723h4l190 723h299v-57
l-215 -674q-135 -425 -372 -744h-340v58q158 178 247 352z" />
    <glyph glyph-name="Amacron" unicode="&#x100;" horiz-adv-x="1261" 
d="M940 1520h-625v168h625v-168zM1233 57v-57h-324l-84 291h-407l-84 -291h-309v57l405 1346h410zM748 565l-56 189q-33 127 -69 295h-2q-24 -119 -70 -295l-53 -189h250z" />
    <glyph glyph-name="amacron" unicode="&#x101;" horiz-adv-x="1095" 
d="M227 1151v168h625v-168h-625zM639 137l-123 -106q-82 -51 -176 -51q-131 0 -213 76t-82 196q0 237 303 303l291 59v62q0 164 -176 164q-135 0 -309 -78l-29 29l76 196q167 57 336 57q190 0 300 -80q111 -81 111 -227v-463q0 -86 60 -86q28 0 65 15v-166q-38 -27 -101 -42
q-64 -15 -114 -15q-182 0 -219 157zM639 475l-184 -57q-84 -24 -84 -107q0 -49 32 -75q33 -27 82 -27q87 0 154 72v194z" />
    <glyph glyph-name="Abreve" unicode="&#x102;" horiz-adv-x="1261" 
d="M629 1495q-126 0 -186 95t-60 231h119q23 -160 127 -160t127 160h118q0 -136 -60 -231t-185 -95zM1233 57v-57h-324l-84 291h-407l-84 -291h-309v57l405 1346h410zM748 565l-56 189q-33 127 -69 295h-2q-24 -119 -70 -295l-53 -189h250z" />
    <glyph glyph-name="abreve" unicode="&#x103;" horiz-adv-x="1095" 
d="M541 1126q-125 0 -186 96q-60 95 -60 230h119q23 -160 127 -160t127 160h118q0 -136 -60 -230q-61 -96 -185 -96zM639 137l-123 -106q-82 -51 -176 -51q-131 0 -213 76t-82 196q0 237 303 303l291 59v62q0 164 -176 164q-135 0 -309 -78l-29 29l76 196q167 57 336 57
q190 0 300 -80q111 -81 111 -227v-463q0 -86 60 -86q28 0 65 15v-166q-38 -27 -101 -42q-64 -15 -114 -15q-182 0 -219 157zM639 475l-184 -57q-84 -24 -84 -107q0 -49 32 -75q33 -27 82 -27q87 0 154 72v194z" />
    <glyph glyph-name="Aogonek" unicode="&#x104;" horiz-adv-x="1261" 
d="M1157 -289q42 0 80 23v-94q-68 -50 -166 -50q-96 0 -149 48q-52 47 -52 114q0 149 189 248h-150l-84 291h-407l-84 -291h-309v57l405 1346h410l393 -1346v-57h-96q-88 -79 -88 -182q0 -48 28 -77q29 -30 80 -30zM748 565l-56 189q-33 127 -69 295h-2q-24 -119 -70 -295
l-53 -189h250z" />
    <glyph glyph-name="aogonek" unicode="&#x105;" horiz-adv-x="1095" 
d="M1073 203v-166q-53 -36 -149 -51q-74 -77 -74 -168q0 -46 29 -77q29 -30 79 -30q42 0 80 23v-94q-68 -50 -166 -50q-96 0 -149 48q-51 46 -51 114q0 136 153 230q-152 11 -186 155l-123 -106q-82 -51 -176 -51q-131 0 -213 76t-82 196q0 237 303 303l291 59v62
q0 164 -176 164q-135 0 -309 -78l-29 29l76 196q167 57 336 57q190 0 300 -80q111 -81 111 -227v-463q0 -86 60 -86q28 0 65 15zM639 475l-184 -57q-84 -24 -84 -107q0 -49 32 -75q33 -27 82 -27q87 0 154 72v194z" />
    <glyph glyph-name="Cacute" unicode="&#x106;" horiz-adv-x="1202" 
d="M594 1589l213 166q64 47 104 47q48 0 77 -26q30 -27 30 -68q0 -78 -86 -111l-291 -102zM74 696q0 358 149 537q150 180 477 180q214 0 424 -100v-275q-220 113 -424 113q-88 0 -146 -33t-88 -97q-30 -65 -42 -141q-12 -77 -12 -184q0 -106 12 -183t42 -141q30 -66 88 -98
q57 -32 146 -32q237 0 445 123l-21 -285q-210 -100 -424 -100q-327 0 -477 180q-149 179 -149 536z" />
    <glyph glyph-name="cacute" unicode="&#x107;" horiz-adv-x="972" 
d="M449 1221l213 165q65 48 104 48q47 0 77 -27q29 -26 29 -68q0 -77 -86 -110l-290 -103zM606 823q-112 0 -169 -86q-56 -84 -56 -225q0 -311 248 -311q135 0 274 84v-224q-143 -81 -344 -81q-237 0 -366 145q-130 147 -130 387q0 241 134 387q133 145 385 145
q182 0 340 -67l-56 -186l-28 -27q-127 59 -232 59z" />
    <glyph glyph-name="Cdotaccent" unicode="&#x10a;" horiz-adv-x="1202" 
d="M524 1675q0 63 45 107q44 43 121 43q74 0 120 -43t46 -107q0 -63 -46 -105t-120 -42q-76 0 -121 42t-45 105zM74 696q0 358 149 537q150 180 477 180q214 0 424 -100v-275q-220 113 -424 113q-88 0 -146 -33t-88 -97q-30 -65 -42 -141q-12 -77 -12 -184q0 -106 12 -183
t42 -141q30 -66 88 -98q57 -32 146 -32q237 0 445 123l-21 -285q-210 -100 -424 -100q-327 0 -477 180q-149 179 -149 536z" />
    <glyph glyph-name="cdotaccent" unicode="&#x10b;" horiz-adv-x="972" 
d="M379 1307q0 63 45 106q44 43 121 43q74 0 120 -43t46 -106q0 -64 -46 -106q-47 -42 -120 -42q-76 0 -121 42t-45 106zM606 823q-112 0 -169 -86q-56 -84 -56 -225q0 -311 248 -311q135 0 274 84v-224q-143 -81 -344 -81q-237 0 -366 145q-130 147 -130 387q0 241 134 387
q133 145 385 145q182 0 340 -67l-56 -186l-28 -27q-127 59 -232 59z" />
    <glyph glyph-name="Ccaron" unicode="&#x10c;" horiz-adv-x="1202" 
d="M692 1698l150 160h157l-243 -363h-129l-246 363h158zM74 696q0 358 149 537q150 180 477 180q214 0 424 -100v-275q-220 113 -424 113q-88 0 -146 -33t-88 -97q-30 -65 -42 -141q-12 -77 -12 -184q0 -106 12 -183t42 -141q30 -66 88 -98q57 -32 146 -32q237 0 445 123
l-21 -285q-210 -100 -424 -100q-327 0 -477 180q-149 179 -149 536z" />
    <glyph glyph-name="ccaron" unicode="&#x10d;" horiz-adv-x="972" 
d="M545 1329l149 160h158l-244 -363h-129l-246 363h158zM606 823q-112 0 -169 -86q-56 -84 -56 -225q0 -311 248 -311q135 0 274 84v-224q-143 -81 -344 -81q-237 0 -366 145q-130 147 -130 387q0 241 134 387q133 145 385 145q182 0 340 -67l-56 -186l-28 -27
q-127 59 -232 59z" />
    <glyph glyph-name="Dcaron" unicode="&#x10e;" horiz-adv-x="1351" 
d="M641 1698l150 160h157l-243 -363h-130l-245 363h157zM131 1393h537q324 0 466 -168q142 -167 142 -518q0 -354 -143 -530q-144 -177 -465 -177h-537v1393zM459 272h209q153 0 212 94q58 92 58 341q0 243 -57 328t-213 85h-209v-848z" />
    <glyph glyph-name="dcaron" unicode="&#x10f;" horiz-adv-x="1275" 
d="M1241 1491q73 0 114 -50q40 -49 40 -120q0 -130 -162 -358h-129l108 247q-41 0 -78 37q-38 38 -38 103q0 59 41 100t104 41zM956 1475h88v-1475h-299l-10 137l-123 -106q-82 -51 -176 -51q-170 0 -269 144t-99 388q0 246 116 389t312 143q127 0 239 -61v410zM582 201
q88 0 153 65v539q-68 37 -153 37q-197 0 -197 -330q0 -311 197 -311z" />
    <glyph glyph-name="Dcroat" unicode="&#x110;" horiz-adv-x="1361" 
d="M139 1393h537q326 0 468 -168q142 -167 142 -518q0 -354 -143 -530q-144 -177 -467 -177h-537v578h-110v237h110v578zM467 272h209q152 0 213 94q59 91 59 341q0 243 -58 328t-214 85h-209v-305h266v-237h-266v-306z" />
    <glyph glyph-name="dcroat" unicode="&#x111;" horiz-adv-x="1157" 
d="M1147 1151h-103v-1151h-299l-10 137l-123 -106q-82 -51 -176 -51q-170 0 -269 144t-99 388q0 246 116 389t312 143q127 0 239 -61v168h-231v168h231v74l221 82h88v-156h103v-168zM582 201q88 0 153 65v539q-68 37 -153 37q-197 0 -197 -330q0 -311 197 -311z" />
    <glyph glyph-name="Emacron" unicode="&#x112;" horiz-adv-x="1157" 
d="M287 1520v168h624v-168h-624zM459 1120v-268h524v-272h-524v-308h633l-21 -272h-940v1393h944v-273h-616z" />
    <glyph glyph-name="emacron" unicode="&#x113;" horiz-adv-x="1085" 
d="M905 1151h-624v168h624v-168zM1028 666q0 -84 -33 -220h-610q15 -126 86 -185q72 -60 180 -60q77 0 167 25t147 59v-224q-143 -81 -381 -81q-253 0 -386 145q-135 147 -135 387q0 241 134 387q133 145 385 145q92 0 168 -18q74 -17 140 -59q62 -39 101 -118
q37 -75 37 -183zM385 592l340 16q10 39 10 78q0 85 -43 119q-44 35 -100 35q-184 0 -207 -248z" />
    <glyph glyph-name="Edotaccent" unicode="&#x116;" horiz-adv-x="1157" 
d="M434 1675q0 63 45 107q44 43 121 43q74 0 120 -43t46 -107q0 -63 -46 -105t-120 -42q-76 0 -121 42t-45 105zM459 1120v-268h524v-272h-524v-308h633l-21 -272h-940v1393h944v-273h-616z" />
    <glyph glyph-name="edotaccent" unicode="&#x117;" horiz-adv-x="1085" 
d="M594 1159q-76 0 -121 42t-45 106q0 63 45 106q44 43 121 43q74 0 120 -43t46 -106q0 -64 -46 -106t-120 -42zM1028 666q0 -84 -33 -220h-610q15 -126 86 -185q72 -60 180 -60q77 0 167 25t147 59v-224q-143 -81 -381 -81q-253 0 -386 145q-135 147 -135 387
q0 241 134 387q133 145 385 145q92 0 168 -18q74 -17 140 -59q62 -39 101 -118q37 -75 37 -183zM385 592l340 16q10 39 10 78q0 85 -43 119q-44 35 -100 35q-184 0 -207 -248z" />
    <glyph glyph-name="Eogonek" unicode="&#x118;" horiz-adv-x="1157" 
d="M1094 -289q42 0 80 23v-94q-68 -50 -166 -50q-97 0 -150 48q-51 46 -51 114q0 150 188 248h-864v1393h944v-273h-616v-268h524v-272h-524v-308h633l-21 -272h2q-88 -79 -88 -182q0 -46 29 -77q28 -30 80 -30z" />
    <glyph glyph-name="eogonek" unicode="&#x119;" horiz-adv-x="1085" 
d="M987 -227q43 0 80 22v-94q-67 -49 -166 -49q-97 0 -149 47t-52 115q0 105 97 188q-104 -22 -213 -22q-253 0 -386 145q-135 147 -135 387q0 241 134 387q133 145 385 145q92 0 168 -18q74 -17 140 -59q62 -39 101 -118q37 -75 37 -183q0 -84 -33 -220h-610
q15 -126 86 -185q72 -60 180 -60q77 0 167 25t147 59v-224h2q-88 -79 -88 -182q0 -48 28 -77t80 -29zM592 840q-184 0 -207 -248l340 16q10 39 10 78q0 85 -43 119q-44 35 -100 35z" />
    <glyph glyph-name="Ecaron" unicode="&#x11a;" horiz-adv-x="1157" 
d="M600 1698l150 160h157l-243 -363h-129l-246 363h157zM459 1120v-268h524v-272h-524v-308h633l-21 -272h-940v1393h944v-273h-616z" />
    <glyph glyph-name="ecaron" unicode="&#x11b;" horiz-adv-x="1085" 
d="M528 1126l-245 363h157l154 -160l149 160h158l-244 -363h-129zM1028 666q0 -84 -33 -220h-610q15 -126 86 -185q72 -60 180 -60q77 0 167 25t147 59v-224q-143 -81 -381 -81q-253 0 -386 145q-135 147 -135 387q0 241 134 387q133 145 385 145q92 0 168 -18
q74 -17 140 -59q62 -39 101 -118q37 -75 37 -183zM385 592l340 16q10 39 10 78q0 85 -43 119q-44 35 -100 35q-184 0 -207 -248z" />
    <glyph glyph-name="Gbreve" unicode="&#x11e;" horiz-adv-x="1226" 
d="M692 1495q-125 0 -185 95q-61 96 -61 231h119q23 -160 127 -160t127 160h119q0 -136 -60 -231t-186 -95zM700 1151q-88 0 -146 -33t-88 -97q-30 -65 -42 -141q-12 -77 -12 -184q0 -106 12 -183t42 -141q30 -66 88 -98q57 -32 146 -32q50 0 97 6v250h-158v272h485v-690
q-210 -100 -424 -100q-327 0 -477 180q-149 179 -149 536q0 358 149 537q150 180 477 180q214 0 424 -100v-275q-220 113 -424 113z" />
    <glyph glyph-name="gbreve" unicode="&#x11f;" horiz-adv-x="1089" 
d="M498 1126q-125 0 -186 96q-60 95 -60 230h119q23 -160 127 -160t127 160h118q0 -136 -60 -230q-61 -96 -185 -96zM387 227l383 -39q137 -12 217 -86t80 -206q0 -160 -129 -264q-128 -103 -432 -103q-249 0 -369 65q-121 66 -121 168q0 109 115 177l127 -35l-10 -56
q0 -73 60 -103t188 -30q268 0 268 121q0 42 -25 61q-22 17 -82 23l-362 35q-95 7 -142 57t-47 115q0 132 173 233q-207 84 -207 332q0 164 114 258q113 94 330 94q102 0 178 -18l346 18v-170h-122q43 -73 43 -182q0 -183 -113 -278t-330 -95q-26 0 -84 5zM514 850
q-75 0 -113 -45q-36 -43 -36 -109q0 -182 159 -182q148 0 148 174q0 76 -40 119t-118 43z" />
    <glyph glyph-name="Gdotaccent" unicode="&#x120;" horiz-adv-x="1226" 
d="M694 1528q-76 0 -121 42t-45 105t45 107q44 43 121 43q74 0 120 -43t46 -107q0 -63 -46 -105t-120 -42zM700 1151q-88 0 -146 -33t-88 -97q-30 -65 -42 -141q-12 -77 -12 -184q0 -106 12 -183t42 -141q30 -66 88 -98q57 -32 146 -32q50 0 97 6v250h-158v272h485v-690
q-210 -100 -424 -100q-327 0 -477 180q-149 179 -149 536q0 358 149 537q150 180 477 180q214 0 424 -100v-275q-220 113 -424 113z" />
    <glyph glyph-name="gdotaccent" unicode="&#x121;" horiz-adv-x="1089" 
d="M498 1159q-76 0 -121 42t-45 106q0 63 45 106q44 43 121 43q73 0 119 -43q47 -44 47 -106q0 -64 -47 -106t-119 -42zM387 227l383 -39q137 -12 217 -86t80 -206q0 -160 -129 -264q-128 -103 -432 -103q-249 0 -369 65q-121 66 -121 168q0 109 115 177l127 -35l-10 -56
q0 -73 60 -103t188 -30q268 0 268 121q0 42 -25 61q-22 17 -82 23l-362 35q-95 7 -142 57t-47 115q0 132 173 233q-207 84 -207 332q0 164 114 258q113 94 330 94q102 0 178 -18l346 18v-170h-122q43 -73 43 -182q0 -183 -113 -278t-330 -95q-26 0 -84 5zM514 850
q-75 0 -113 -45q-36 -43 -36 -109q0 -182 159 -182q148 0 148 174q0 76 -40 119t-118 43z" />
    <glyph glyph-name="Gcommaaccent" unicode="&#x122;" horiz-adv-x="1226" 
d="M700 1151q-88 0 -146 -33t-88 -97q-30 -65 -42 -141q-12 -77 -12 -184q0 -106 12 -183t42 -141q30 -66 88 -98q57 -32 146 -32q50 0 97 6v250h-158v272h485v-690q-210 -100 -424 -100q-327 0 -477 180q-149 179 -149 536q0 358 149 537q150 180 477 180q214 0 424 -100
v-275q-220 113 -424 113zM686 -82q73 0 114 -50q40 -49 40 -120q0 -130 -162 -358h-129l108 248q-41 0 -78 37q-38 38 -38 102q0 59 42 100q43 41 103 41z" />
    <glyph glyph-name="gcommaaccent" unicode="&#x123;" horiz-adv-x="1089" 
d="M514 1130q-72 0 -114 51q-40 49 -40 119q0 131 162 359h131l-110 -248q41 0 79 -38q37 -37 37 -101q0 -60 -41 -101t-104 -41zM387 227l383 -39q137 -12 217 -86t80 -206q0 -160 -129 -264q-128 -103 -432 -103q-249 0 -369 65q-121 66 -121 168q0 109 115 177l127 -35
l-10 -56q0 -73 60 -103t188 -30q268 0 268 121q0 42 -25 61q-22 17 -82 23l-362 35q-95 7 -142 57t-47 115q0 132 173 233q-207 84 -207 332q0 164 114 258q113 94 330 94q102 0 178 -18l346 18v-170h-122q43 -73 43 -182q0 -183 -113 -278t-330 -95q-26 0 -84 5zM514 850
q-75 0 -113 -45q-36 -43 -36 -109q0 -182 159 -182q148 0 148 174q0 76 -40 119t-118 43z" />
    <glyph glyph-name="Hbar" unicode="&#x126;" horiz-adv-x="1361" 
d="M1333 997h-110v-997h-328v580h-428v-580h-328v997h-110v240h110v156h328v-156h428v156h328v-156h110v-240zM895 997h-428v-145h428v145z" />
    <glyph glyph-name="hbar" unicode="&#x127;" 
d="M739 1044q131 0 212 -78q83 -80 83 -225v-741h-309v680q0 125 -115 125q-80 0 -188 -66v-739h-309v1151h-103v168h103v74l221 82h88v-156h231v-168h-231v-283h4l98 117q106 59 215 59z" />
    <glyph glyph-name="Imacron" unicode="&#x12a;" horiz-adv-x="589" 
d="M-16 1520v168h624v-168h-624zM459 1393v-1393h-328v1393h328z" />
    <glyph glyph-name="imacron" unicode="&#x12b;" horiz-adv-x="534" 
d="M-45 1151v168h625v-168h-625zM422 1024v-1024h-309v1024h309z" />
    <glyph glyph-name="Iogonek" unicode="&#x12e;" horiz-adv-x="589" 
d="M410 -289q41 0 79 23v-94q-68 -50 -165 -50t-150 48q-51 46 -51 114q0 150 188 248h-180v1393h328v-1393h-70q-88 -79 -88 -182q0 -46 29 -77q28 -30 80 -30z" />
    <glyph glyph-name="iogonek" unicode="&#x12f;" horiz-adv-x="534" 
d="M268 1159q-76 0 -121 42t-45 106q0 63 45 106q44 43 121 43q74 0 120 -43t46 -106q0 -64 -46 -106t-120 -42zM113 1024h309v-1024h-107q-88 -79 -88 -182q0 -46 29 -77q28 -30 80 -30q42 0 80 23v-94q-68 -50 -166 -50q-97 0 -150 48q-51 46 -51 114q0 149 189 248h-125
v1024z" />
    <glyph glyph-name="Idotaccent" unicode="&#x130;" horiz-adv-x="589" 
d="M129 1675q0 63 45 107q44 43 121 43q74 0 120 -43t46 -107q0 -63 -46 -105q-47 -42 -120 -42q-76 0 -121 42t-45 105zM459 1393v-1393h-328v1393h328z" />
    <glyph glyph-name="dotlessi" unicode="&#x131;" horiz-adv-x="534" 
d="M422 1024v-1024h-309v1024h309z" />
    <glyph glyph-name="IJ" unicode="&#x132;" horiz-adv-x="1185" 
d="M459 1393v-1393h-328v1393h328zM1057 1393v-1284q0 -78 -16 -147q-14 -62 -56 -133q-40 -69 -127 -119q-88 -51 -213 -79l-98 250q115 44 149 95q33 50 33 133v1284h328z" />
    <glyph glyph-name="ij" unicode="&#x133;" horiz-adv-x="1069" 
d="M102 1307q0 63 45 106q44 43 121 43q74 0 120 -43t46 -106q0 -64 -46 -106t-120 -42q-76 0 -121 42t-45 106zM637 1307q0 63 45 106q44 43 121 43q74 0 120 -43t46 -106q0 -64 -46 -106q-47 -42 -120 -42q-76 0 -121 42t-45 106zM422 1024v-1024h-309v1024h309zM956 1024
v-991q0 -163 -72 -281q-72 -119 -261 -203l-125 183q96 64 122 118q27 56 27 183v991h309z" />
    <glyph glyph-name="Kcommaaccent" unicode="&#x136;" horiz-adv-x="1310" 
d="M459 1393v-1393h-328v1393h328zM942 1393h334v-58l-404 -620l414 -658v-57h-352l-414 666v73zM543 -610l108 248q-42 0 -79 37t-37 102q0 59 42 100q43 41 103 41q73 0 114 -50q40 -49 40 -120q0 -130 -162 -358h-129z" />
    <glyph glyph-name="kcommaaccent" unicode="&#x137;" horiz-adv-x="1150" 
d="M334 1475h88v-1475h-309v1393zM813 0l-350 532l346 492h281v-57l-297 -408l337 -502v-57h-317zM420 -610l108 248q-41 0 -78 37q-38 38 -38 102q0 59 42 100q43 41 103 41q73 0 114 -50q40 -49 40 -120q0 -130 -162 -358h-129z" />
    <glyph glyph-name="Lacute" unicode="&#x139;" horiz-adv-x="1103" 
d="M156 1589l213 166q64 47 104 47q48 0 77 -26q30 -27 30 -68q0 -78 -86 -111l-291 -102zM1071 272l-20 -272h-920v1393h328v-1121h612z" />
    <glyph glyph-name="lacute" unicode="&#x13a;" horiz-adv-x="575" 
d="M180 1671l213 166q64 47 105 47q47 0 76 -26q30 -27 30 -68q0 -78 -86 -111l-291 -102zM330 1475h88v-1201q0 -86 59 -86q29 0 66 15v-187q-71 -36 -197 -36q-101 0 -169 43t-68 139v1231z" />
    <glyph glyph-name="Lcommaaccent" unicode="&#x13b;" horiz-adv-x="1103" 
d="M1071 272l-20 -272h-920v1393h328v-1121h612zM406 -610l108 248q-42 0 -79 37q-38 38 -38 102q0 59 42 100q43 41 104 41q72 0 113 -50q40 -49 40 -120q0 -131 -161 -358h-129z" />
    <glyph glyph-name="lcommaaccent" unicode="&#x13c;" horiz-adv-x="575" 
d="M330 1475h88v-1201q0 -86 59 -86q29 0 66 15v-187q-71 -36 -197 -36q-101 0 -169 43t-68 139v1231zM193 -610l108 248q-42 0 -79 37q-38 38 -38 102q0 59 42 100q43 41 104 41q72 0 113 -50q40 -49 40 -120q0 -131 -161 -358h-129z" />
    <glyph glyph-name="Lcaron" unicode="&#x13d;" horiz-adv-x="1103" 
d="M631 881l108 247q-41 0 -79 38q-37 37 -37 102q0 60 42 100q43 41 103 41q76 0 115 -50q39 -49 39 -120q0 -130 -162 -358h-129zM1071 272l-20 -272h-920v1393h328v-1121h612z" />
    <glyph glyph-name="lcaron" unicode="&#x13e;" horiz-adv-x="649" 
d="M475 963l111 247q-42 0 -80 37q-39 37 -39 103q0 60 42 100q43 41 105 41q73 0 114 -50q40 -49 40 -120q0 -130 -162 -358h-131zM330 1475h88v-1201q0 -86 59 -86q29 0 66 15v-187q-71 -36 -197 -36q-101 0 -169 43t-68 139v1231z" />
    <glyph glyph-name="Ldot" unicode="&#x13f;" horiz-adv-x="1103" 
d="M1071 272l-20 -272h-920v1393h328v-1121h612zM625 778q0 58 40 98q39 39 95 39q58 0 97 -39q40 -40 40 -98q0 -57 -40 -96q-41 -39 -97 -39q-54 0 -95 39q-40 39 -40 96z" />
    <glyph glyph-name="ldot" unicode="&#x140;" horiz-adv-x="782" 
d="M330 1475h88v-1201q0 -86 59 -86q29 0 66 15v-187q-71 -36 -197 -36q-101 0 -169 43t-68 139v1231zM510 707q0 57 40 96t97 39t97 -39t40 -96q0 -58 -40 -98t-97 -40t-97 40t-40 98z" />
    <glyph glyph-name="Lslash" unicode="&#x141;" horiz-adv-x="1114" 
d="M1081 272l-20 -272h-922v530l-110 -32v245l110 35v615h328v-514l246 75v-247l-246 -76v-359h614z" />
    <glyph glyph-name="lslash" unicode="&#x142;" horiz-adv-x="598" 
d="M496 188q30 0 65 15v-187q-71 -36 -196 -36q-101 0 -169 43q-69 43 -69 139v352l-98 -76v213l98 76v666l221 82h88v-510l123 94v-213l-123 -94v-478q0 -86 60 -86z" />
    <glyph glyph-name="Nacute" unicode="&#x143;" horiz-adv-x="1343" 
d="M565 1589l213 166q64 47 105 47q47 0 76 -26q30 -27 30 -68q0 -78 -86 -111l-291 -102zM459 1393l452 -801h11q-19 201 -19 438v363h309v-1393h-327l-453 801h-10q18 -190 18 -439v-362h-309v1393h328z" />
    <glyph glyph-name="nacute" unicode="&#x144;" 
d="M469 1221l213 165q65 48 104 48q47 0 77 -27t30 -68q0 -77 -86 -110l-291 -103zM422 868h4l98 117q106 59 215 59q131 0 212 -78q83 -80 83 -225v-741h-309v680q0 125 -115 125q-80 0 -188 -66v-739h-309v1024h299z" />
    <glyph glyph-name="Ncommaaccent" unicode="&#x145;" horiz-adv-x="1343" 
d="M459 1393l452 -801h11q-19 201 -19 438v363h309v-1393h-327l-453 801h-10q18 -190 18 -439v-362h-309v1393h328zM518 -610l109 248q-42 0 -79 37q-38 38 -38 102q0 59 42 100q43 41 103 41q73 0 114 -50q40 -49 40 -120q0 -130 -162 -358h-129z" />
    <glyph glyph-name="ncommaaccent" unicode="&#x146;" 
d="M422 868h4l98 117q106 59 215 59q131 0 212 -78q83 -80 83 -225v-741h-309v680q0 125 -115 125q-80 0 -188 -66v-739h-309v1024h299zM422 -610l108 248q-41 0 -78 37q-38 38 -38 102q0 59 42 100q43 41 103 41q73 0 114 -50q40 -49 40 -120q0 -130 -162 -358h-129z" />
    <glyph glyph-name="Ncaron" unicode="&#x147;" horiz-adv-x="1343" 
d="M664 1698l149 160h158l-244 -363h-129l-246 363h158zM459 1393l452 -801h11q-19 201 -19 438v363h309v-1393h-327l-453 801h-10q18 -190 18 -439v-362h-309v1393h328z" />
    <glyph glyph-name="ncaron" unicode="&#x148;" 
d="M567 1329l150 160h157l-243 -363h-129l-246 363h158zM422 868h4l98 117q106 59 215 59q131 0 212 -78q83 -80 83 -225v-741h-309v680q0 125 -115 125q-80 0 -188 -66v-739h-309v1024h299z" />
    <glyph glyph-name="Eng" unicode="&#x14a;" horiz-adv-x="1343" 
d="M1212 1393v-1399q-5 -84 -21 -138q-18 -61 -61 -123q-45 -66 -124 -110q-85 -48 -203 -74l-68 187q119 44 153 94t34 133v37l-490 801h-10q18 -190 18 -439v-362h-309v1393h328l452 -764h11q-19 201 -19 436v328h309z" />
    <glyph glyph-name="eng" unicode="&#x14b;" 
d="M426 868l98 117q106 59 215 59q131 0 212 -78q83 -80 83 -225v-708q0 -163 -72 -281q-72 -119 -262 -203l-127 183q95 63 123 118q29 56 29 183v647q0 125 -115 125q-80 0 -188 -66v-739h-309v1024h299l10 -156h4z" />
    <glyph glyph-name="Omacron" unicode="&#x14c;" horiz-adv-x="1363" 
d="M371 1520v168h624v-168h-624zM682 -20q-321 0 -464 185q-144 186 -144 542q0 353 143 529q144 177 465 177t465 -177q143 -176 143 -529q0 -355 -144 -541t-464 -186zM682 1151q-152 0 -211 -98q-59 -97 -59 -346q0 -253 60 -359t210 -106t210 106t60 359q0 251 -59 347
q-60 97 -211 97z" />
    <glyph glyph-name="omacron" unicode="&#x14d;" horiz-adv-x="1136" 
d="M256 1151v168h625v-168h-625zM567 -20q-243 0 -373 141q-131 142 -131 391t131 391q130 141 373 141q247 0 375 -140q129 -141 129 -392t-129 -392q-128 -140 -375 -140zM567 840q-104 0 -145 -83q-41 -84 -41 -245t41 -245q41 -83 145 -83q105 0 146 83q41 84 41 245
t-41 245q-41 83 -146 83z" />
    <glyph glyph-name="Ohungarumlaut" unicode="&#x150;" horiz-adv-x="1363" 
d="M410 1569l225 237q33 33 76 33q44 0 70 -28t26 -64q0 -58 -68 -96l-270 -156zM795 1569l225 237q30 33 76 33q44 0 70 -28t26 -64q0 -61 -70 -96l-268 -156zM682 -20q-321 0 -464 185q-144 186 -144 542q0 353 143 529q144 177 465 177t465 -177q143 -176 143 -529
q0 -355 -144 -541t-464 -186zM682 1151q-152 0 -211 -98q-59 -97 -59 -346q0 -253 60 -359t210 -106t210 106t60 359q0 251 -59 347q-60 97 -211 97z" />
    <glyph glyph-name="ohungarumlaut" unicode="&#x151;" horiz-adv-x="1136" 
d="M293 1200l225 238q32 32 76 32q46 0 71 -27q25 -26 25 -65q0 -59 -67 -96l-271 -156zM678 1200l225 238q29 32 76 32q45 0 71 -27q25 -26 25 -65q0 -62 -69 -96l-269 -156zM567 -20q-243 0 -373 141q-131 142 -131 391t131 391q130 141 373 141q247 0 375 -140
q129 -141 129 -392t-129 -392q-128 -140 -375 -140zM567 840q-104 0 -145 -83q-41 -84 -41 -245t41 -245q41 -83 145 -83q105 0 146 83q41 84 41 245t-41 245q-41 83 -146 83z" />
    <glyph glyph-name="OE" unicode="&#x152;" horiz-adv-x="1978" 
d="M1915 272l-21 -272h-876v84q-126 -104 -336 -104q-321 0 -464 185q-144 186 -144 542q0 353 143 529q144 177 465 177q214 0 336 -98v78h878v-273h-616v-268h524v-272h-524v-308h635zM682 242q150 0 210 106t60 359q0 251 -59 347q-60 97 -211 97q-152 0 -211 -98
q-59 -97 -59 -346q0 -253 60 -359t210 -106z" />
    <glyph glyph-name="oe" unicode="&#x153;" horiz-adv-x="1757" 
d="M1638 285v-224q-143 -81 -383 -81q-220 0 -346 120q-120 -120 -340 -120q-245 0 -375 140q-131 142 -131 392t131 392q130 140 375 140q216 0 340 -118q124 118 346 118q92 0 167 -18q74 -18 141 -59q64 -39 101 -118q36 -77 36 -183q0 -87 -31 -220h-610
q15 -122 87 -184q71 -61 179 -61q77 0 167 25q88 25 146 59zM569 184q105 0 146 83q41 84 41 245t-41 245q-41 83 -146 83q-107 0 -147 -82q-41 -84 -41 -246t41 -246q40 -82 147 -82zM1059 592l340 16q10 39 10 78q0 85 -43 119q-44 35 -100 35q-186 0 -207 -248z" />
    <glyph glyph-name="Racute" unicode="&#x154;" horiz-adv-x="1267" 
d="M555 1495l-47 94l213 166q64 47 104 47q48 0 77 -26q30 -27 30 -68q0 -78 -86 -111zM1219 57v-57h-345l-163 403q-22 55 -57 79q-34 24 -101 24h-94v-506h-328v1393h485q543 0 543 -443q0 -285 -217 -385v-12q98 -39 160 -197zM459 780h157q116 0 160 40q45 40 45 130
t-45 130q-44 40 -160 40h-157v-340z" />
    <glyph glyph-name="racute" unicode="&#x155;" horiz-adv-x="841" 
d="M373 1221l213 165q65 48 104 48q47 0 77 -27t30 -68q0 -77 -86 -110l-291 -103zM422 827h4l98 158q78 59 178 59q51 0 129 -18l-96 -270q-52 14 -104 14q-118 0 -209 -76v-694h-309v1024h299z" />
    <glyph glyph-name="Rcommaaccent" unicode="&#x156;" horiz-adv-x="1267" 
d="M1219 57v-57h-345l-163 403q-22 55 -57 79q-34 24 -101 24h-94v-506h-328v1393h485q543 0 543 -443q0 -285 -217 -385v-12q98 -39 160 -197zM459 780h157q116 0 160 40q45 40 45 130t-45 130q-44 40 -160 40h-157v-340zM631 -82q72 0 113 -50q40 -49 40 -120
q0 -131 -161 -358h-129l108 248q-42 0 -79 37q-38 38 -38 102q0 59 42 100q43 41 104 41z" />
    <glyph glyph-name="rcommaaccent" unicode="&#x157;" horiz-adv-x="841" 
d="M422 827h4l98 158q78 59 178 59q51 0 129 -18l-96 -270q-52 14 -104 14q-118 0 -209 -76v-694h-309v1024h299zM125 -610l108 248q-41 0 -78 37q-38 38 -38 102q0 59 42 100q43 41 103 41q73 0 114 -50q40 -49 40 -120q0 -130 -162 -358h-129z" />
    <glyph glyph-name="Rcaron" unicode="&#x158;" horiz-adv-x="1267" 
d="M541 1495l-246 363h158l153 -160l150 160h157l-243 -363h-129zM1219 57v-57h-345l-163 403q-22 55 -57 79q-34 24 -101 24h-94v-506h-328v1393h485q543 0 543 -443q0 -285 -217 -385v-12q98 -39 160 -197zM459 780h157q116 0 160 40q45 40 45 130t-45 130q-44 40 -160 40
h-157v-340z" />
    <glyph glyph-name="rcaron" unicode="&#x159;" horiz-adv-x="841" 
d="M471 1329l150 160h157l-243 -363h-129l-246 363h157zM422 827h4l98 158q78 59 178 59q51 0 129 -18l-96 -270q-52 14 -104 14q-118 0 -209 -76v-694h-309v1024h299z" />
    <glyph glyph-name="Sacute" unicode="&#x15a;" horiz-adv-x="1110" 
d="M459 1589l213 166q64 47 104 47q48 0 77 -26q30 -27 30 -68q0 -78 -86 -111l-291 -102zM88 1016q0 188 134 293q132 104 333 104q247 0 453 -98v-277q-226 113 -426 113q-79 0 -118 -31q-38 -30 -38 -76q0 -51 63 -95q65 -45 154 -85q80 -36 181 -94q91 -52 155 -148
q63 -95 63 -223q0 -195 -138 -307q-137 -112 -367 -112q-258 0 -459 100v282q267 -120 448 -120q179 0 179 123q0 50 -47 94q-45 42 -113 71q-70 29 -149 72q-82 44 -148 91q-68 48 -114 132q-46 83 -46 191z" />
    <glyph glyph-name="sacute" unicode="&#x15b;" horiz-adv-x="905" 
d="M367 1221l213 165q65 48 104 48q47 0 77 -27t30 -68q0 -77 -86 -110l-291 -103zM489 823q-104 0 -104 -69q0 -36 48 -64q46 -27 117 -55q64 -25 138 -62q71 -36 118 -103q48 -69 48 -161q0 -149 -110 -239t-287 -90q-191 0 -363 71l-28 234q185 -84 356 -84q115 0 115 75
q0 36 -48 67q-47 30 -114 57q-55 22 -136 66q-70 38 -116 108q-47 71 -47 165q0 153 115 229t282 76q182 0 340 -67l-55 -186l-29 -27q-127 59 -240 59z" />
    <glyph glyph-name="Scedilla" unicode="&#x15e;" horiz-adv-x="1110" 
d="M1042 399q0 -180 -117 -290q-118 -110 -319 -127v-43q95 0 151 -43t56 -121q0 -79 -53 -132t-154 -53q-104 0 -174 35v94q62 -22 103 -22q106 0 106 80q0 84 -141 84v119q-240 11 -422 100v282q267 -120 448 -120q179 0 179 123q0 50 -47 94q-45 42 -113 71
q-70 29 -149 72q-82 44 -148 91q-68 48 -114 132q-46 83 -46 191q0 188 134 293q132 104 333 104q247 0 453 -98v-277q-226 113 -426 113q-79 0 -118 -31q-38 -30 -38 -76q0 -51 63 -95q65 -45 154 -85q80 -36 181 -94q91 -52 155 -148q63 -95 63 -223z" />
    <glyph glyph-name="scedilla" unicode="&#x15f;" horiz-adv-x="905" 
d="M854 309q0 -141 -97 -229q-96 -87 -259 -98v-43q94 0 150 -43q57 -44 57 -121q0 -78 -54 -132q-53 -53 -153 -53q-104 0 -174 35v94q62 -22 102 -22q106 0 106 80q0 84 -141 84v121q-150 11 -297 69l-28 234q185 -84 356 -84q115 0 115 75q0 36 -48 67q-47 30 -114 57
q-55 22 -136 66q-70 38 -116 108q-47 71 -47 165q0 153 115 229t282 76q182 0 340 -67l-55 -186l-29 -27q-127 59 -240 59q-104 0 -104 -69q0 -36 48 -64q46 -27 117 -55q64 -25 138 -62q71 -36 118 -103q48 -69 48 -161z" />
    <glyph glyph-name="Scaron" unicode="&#x160;" horiz-adv-x="1110" 
d="M557 1698l150 160h157l-243 -363h-129l-246 363h157zM88 1016q0 188 134 293q132 104 333 104q247 0 453 -98v-277q-226 113 -426 113q-79 0 -118 -31q-38 -30 -38 -76q0 -51 63 -95q65 -45 154 -85q80 -36 181 -94q91 -52 155 -148q63 -95 63 -223q0 -195 -138 -307
q-137 -112 -367 -112q-258 0 -459 100v282q267 -120 448 -120q179 0 179 123q0 50 -47 94q-45 42 -113 71q-70 29 -149 72q-82 44 -148 91q-68 48 -114 132q-46 83 -46 191z" />
    <glyph glyph-name="scaron" unicode="&#x161;" horiz-adv-x="905" 
d="M465 1329l149 160h158l-244 -363h-129l-245 363h157zM489 823q-104 0 -104 -69q0 -36 48 -64q46 -27 117 -55q64 -25 138 -62q71 -36 118 -103q48 -69 48 -161q0 -149 -110 -239t-287 -90q-191 0 -363 71l-28 234q185 -84 356 -84q115 0 115 75q0 36 -48 67
q-47 30 -114 57q-55 22 -136 66q-70 38 -116 108q-47 71 -47 165q0 153 115 229t282 76q182 0 340 -67l-55 -186l-29 -27q-127 59 -240 59z" />
    <glyph glyph-name="Tcedilla" unicode="&#x162;" horiz-adv-x="1101" 
d="M608 0v-61q95 0 151 -43t56 -121q0 -79 -53 -132t-154 -53q-104 0 -174 35v94q62 -22 103 -22q106 0 106 80q0 84 -141 84v139h-115v1120h-336v273h1002v-273h-338v-1120h-107z" />
    <glyph glyph-name="tcedilla" unicode="&#x163;" horiz-adv-x="743" 
d="M500 -18v-43q94 0 150 -43q57 -44 57 -121q0 -78 -54 -132q-53 -53 -153 -53q-104 0 -174 35v94q62 -22 102 -22q107 0 107 80q0 84 -142 84v123q-126 12 -186 79t-60 207v535h-98v125l98 94l205 238h105v-238h233v-219h-233v-490q0 -55 27 -76q28 -22 85 -22
q66 0 123 23v-222q-69 -28 -192 -36z" />
    <glyph glyph-name="Tcaron" unicode="&#x164;" horiz-adv-x="1101" 
d="M553 1698l149 160h158l-244 -363h-129l-245 363h157zM387 0v1120h-336v273h1002v-273h-338v-1120h-328z" />
    <glyph glyph-name="tcaron" unicode="&#x165;" horiz-adv-x="743" 
d="M504 1102l108 248q-40 0 -78 38t-38 101q0 59 42 100q43 41 103 41q76 0 115 -50t39 -120q0 -130 -162 -358h-129zM49 805v125l98 94l205 238h105v-238h233v-219h-233v-490q0 -55 27 -76q28 -22 85 -22q66 0 123 23v-222q-96 -38 -223 -38q-169 0 -245 66q-77 66 -77 224
v535h-98z" />
    <glyph glyph-name="Tbar" unicode="&#x166;" horiz-adv-x="1114" 
d="M721 1120v-352h194v-240h-194v-528h-328v528h-194v240h194v352h-338v273h1002v-273h-336z" />
    <glyph glyph-name="tbar" unicode="&#x167;" horiz-adv-x="751" 
d="M573 217q67 0 125 23v-222q-94 -38 -225 -38q-168 0 -245 66q-76 66 -76 224v166h-99v166h99v203h-99v125l99 94l204 238h107v-238h231v-219h-231v-203h231v-166h-231v-121q0 -98 110 -98z" />
    <glyph glyph-name="Umacron" unicode="&#x16a;" horiz-adv-x="1329" 
d="M338 1520v168h625v-168h-625zM664 -20q-244 0 -394 117q-151 118 -151 376v920h327v-920q0 -103 57 -166t161 -63q103 0 160 64t57 165v920h327v-920q0 -258 -149 -376q-148 -117 -395 -117z" />
    <glyph glyph-name="umacron" unicode="&#x16b;" 
d="M254 1151v168h625v-168h-625zM717 156h-4l-99 -117q-106 -59 -215 -59q-131 0 -212 78q-83 80 -83 225v741h310v-680q0 -125 114 -125q81 0 189 66v739h309v-1024h-299z" />
    <glyph glyph-name="Uring" unicode="&#x16e;" horiz-adv-x="1329" 
d="M467 1642q0 77 50 127t132 50q81 0 133 -50t52 -127q0 -79 -52 -126q-53 -48 -133 -48q-78 0 -131 48q-51 46 -51 126zM567 1642q0 -36 22 -58q21 -21 60 -21t62 21q22 21 22 58q0 38 -22 60t-62 22q-82 0 -82 -82zM664 -20q-244 0 -394 117q-151 118 -151 376v920h327
v-920q0 -103 57 -166t161 -63q103 0 160 64t57 165v920h327v-920q0 -258 -149 -376q-148 -117 -395 -117z" />
    <glyph glyph-name="uring" unicode="&#x16f;" 
d="M383 1274q0 77 50 127q49 49 132 49t133 -49q52 -50 52 -127q0 -80 -52 -127t-133 -47q-79 0 -131 47q-51 47 -51 127zM483 1274q0 -37 22 -59q21 -21 60 -21t62 21q22 21 22 59q0 37 -22 59q-23 23 -62 23q-82 0 -82 -82zM717 156h-4l-99 -117q-106 -59 -215 -59
q-131 0 -212 78q-83 80 -83 225v741h310v-680q0 -125 114 -125q81 0 189 66v739h309v-1024h-299z" />
    <glyph glyph-name="Uhungarumlaut" unicode="&#x170;" horiz-adv-x="1329" 
d="M375 1569l225 237q33 33 76 33q44 0 70 -28t26 -64q0 -59 -67 -96l-271 -156zM760 1569l225 237q30 33 76 33q45 0 71 -28q25 -26 25 -64q0 -61 -70 -96l-268 -156zM664 -20q-244 0 -394 117q-151 118 -151 376v920h327v-920q0 -103 57 -166t161 -63q103 0 160 64t57 165
v920h327v-920q0 -258 -149 -376q-148 -117 -395 -117z" />
    <glyph glyph-name="uhungarumlaut" unicode="&#x171;" 
d="M291 1200l225 238q32 32 76 32q46 0 71 -27q25 -26 25 -65q0 -59 -67 -96l-271 -156zM676 1200l225 238q29 32 76 32q46 0 71 -27q25 -26 25 -65q0 -62 -69 -96l-269 -156zM717 156h-4l-99 -117q-106 -59 -215 -59q-131 0 -212 78q-83 80 -83 225v741h310v-680
q0 -125 114 -125q81 0 189 66v739h309v-1024h-299z" />
    <glyph glyph-name="Uogonek" unicode="&#x172;" horiz-adv-x="1329" 
d="M1208 1393v-920q0 -240 -132 -359q-130 -117 -353 -132q-70 -78 -70 -164q0 -46 29 -77q28 -30 80 -30q42 0 80 23v-94q-68 -50 -166 -50q-97 0 -150 48q-51 46 -51 114q0 133 154 228q-229 7 -370 126q-140 118 -140 367v920h327v-920q0 -103 57 -166t161 -63
q103 0 160 64t57 165v920h327z" />
    <glyph glyph-name="uogonek" unicode="&#x173;" 
d="M963 -289q41 0 79 23v-94q-68 -50 -165 -50t-150 48q-51 46 -51 114q0 150 188 248h-137l-10 156h-4l-99 -117q-106 -59 -215 -59q-131 0 -212 78q-83 80 -83 225v741h310v-680q0 -125 114 -125q81 0 189 66v739h309v-1024h-84q-88 -79 -88 -182q0 -46 29 -77
q29 -30 80 -30z" />
    <glyph glyph-name="Wcircumflex" unicode="&#x174;" horiz-adv-x="1910" 
d="M829 1495h-157l246 363h129l243 -363h-157l-150 160zM1876 1393v-58l-342 -1345h-426l-154 688l-161 -688h-424l-326 1345v58h328l161 -754q30 -143 56 -297h4q5 32 61 295l168 756h301l154 -754q42 -204 55 -297h4q20 113 62 295l174 756h305z" />
    <glyph glyph-name="wcircumflex" unicode="&#x175;" horiz-adv-x="1646" 
d="M682 1126h-158l246 363h129l244 -363h-158l-149 160zM1616 1024v-57l-283 -977h-397l-115 569l-143 -569h-397l-230 977v57h307l144 -721h4l166 721h332l135 -721h4l174 721h299z" />
    <glyph glyph-name="Ycircumflex" unicode="&#x176;" horiz-adv-x="1202" 
d="M455 1495h-158l246 363h129l243 -363h-157l-150 160zM1188 1335l-426 -893v-442h-328v444l-414 891v58h330l168 -394q65 -156 92 -229h4q37 117 86 229l172 394h316v-58z" />
    <glyph glyph-name="ycircumflex" unicode="&#x177;" horiz-adv-x="1069" 
d="M225 1126l246 363h129l244 -363h-158l-149 160l-154 -160h-158zM35 967v57h307l201 -723h4l190 723h299v-57l-215 -674q-135 -425 -372 -744h-340v58q158 178 247 352z" />
    <glyph glyph-name="Ydieresis" unicode="&#x178;" horiz-adv-x="1202" 
d="M408 1524q-66 0 -109 37t-43 100q0 61 43 98t109 37t107 -37q42 -38 42 -98q0 -63 -42 -100q-41 -37 -107 -37zM805 1524q-67 0 -108 37q-42 37 -42 100q0 61 42 98q41 37 108 37q65 0 108 -37t43 -98q0 -63 -43 -100t-108 -37zM1188 1335l-426 -893v-442h-328v444
l-414 891v58h330l168 -394q65 -156 92 -229h4q37 117 86 229l172 394h316v-58z" />
    <glyph glyph-name="Zacute" unicode="&#x179;" horiz-adv-x="1103" 
d="M455 1589l213 166q64 47 104 47q48 0 77 -26q30 -27 30 -68q0 -78 -86 -111l-291 -102zM1049 272l-21 -272h-973v238l574 882h-535v273h922v-238l-565 -883h598z" />
    <glyph glyph-name="zacute" unicode="&#x17a;" horiz-adv-x="952" 
d="M379 1221l213 165q65 48 104 48q47 0 77 -27t30 -68q0 -77 -86 -110l-291 -103zM438 219h461l-39 -219h-799v184l447 621h-447l66 219h752v-184z" />
    <glyph glyph-name="Zdotaccent" unicode="&#x17b;" horiz-adv-x="1103" 
d="M385 1675q0 63 45 107q44 43 121 43q74 0 120 -43t46 -107q0 -63 -46 -105q-47 -42 -120 -42q-76 0 -121 42t-45 105zM1049 272l-21 -272h-973v238l574 882h-535v273h922v-238l-565 -883h598z" />
    <glyph glyph-name="zdotaccent" unicode="&#x17c;" horiz-adv-x="952" 
d="M311 1307q0 63 45 106q44 43 121 43q74 0 120 -43t46 -106q0 -64 -46 -106q-47 -42 -120 -42q-76 0 -121 42t-45 106zM438 219h461l-39 -219h-799v184l447 621h-447l66 219h752v-184z" />
    <glyph glyph-name="Zcaron" unicode="&#x17d;" horiz-adv-x="1103" 
d="M553 1698l149 160h158l-244 -363h-129l-245 363h157zM1049 272l-21 -272h-973v238l574 882h-535v273h922v-238l-565 -883h598z" />
    <glyph glyph-name="zcaron" unicode="&#x17e;" horiz-adv-x="952" 
d="M477 1329l150 160h157l-243 -363h-129l-246 363h158zM438 219h461l-39 -219h-799v184l447 621h-447l66 219h752v-184z" />
    <glyph glyph-name="florin" unicode="&#x192;" horiz-adv-x="1048" 
d="M379 860l33 227q18 131 68 216q49 83 137 124q89 42 180 55q88 13 233 13l-35 -233l-37 -19q-62 14 -114 14q-118 0 -133 -129l-39 -268h270l-27 -184h-270l-90 -637q-18 -130 -68 -215t-136 -125q-87 -40 -179 -54q-95 -14 -233 -14l32 234l39 18q59 -14 113 -14
q119 0 135 129l96 678h-280l28 184h277z" />
    <glyph glyph-name="Scommaaccent" unicode="&#x218;" horiz-adv-x="1110" 
d="M88 1016q0 188 134 293q132 104 333 104q247 0 453 -98v-277q-226 113 -426 113q-79 0 -118 -31q-38 -30 -38 -76q0 -51 63 -95q65 -45 154 -85q80 -36 181 -94q91 -52 155 -148q63 -95 63 -223q0 -195 -138 -307q-137 -112 -367 -112q-258 0 -459 100v282
q267 -120 448 -120q179 0 179 123q0 50 -47 94q-45 42 -113 71q-70 29 -149 72q-82 44 -148 91q-68 48 -114 132q-46 83 -46 191zM412 -610l108 248q-42 0 -79 37q-38 38 -38 102q0 59 42 100q43 41 104 41q73 0 114 -50q39 -48 39 -120q0 -131 -161 -358h-129z" />
    <glyph glyph-name="scommaaccent" unicode="&#x219;" horiz-adv-x="905" 
d="M489 823q-104 0 -104 -69q0 -36 48 -64q46 -27 117 -55q64 -25 138 -62q71 -36 118 -103q48 -69 48 -161q0 -149 -110 -239t-287 -90q-191 0 -363 71l-28 234q185 -84 356 -84q115 0 115 75q0 36 -48 67q-47 30 -114 57q-55 22 -136 66q-70 38 -116 108q-47 71 -47 165
q0 153 115 229t282 76q182 0 340 -67l-55 -186l-29 -27q-127 59 -240 59zM303 -610l109 248q-42 0 -79 37q-38 38 -38 102q0 59 42 100q43 41 103 41q73 0 114 -50q40 -49 40 -120q0 -130 -162 -358h-129z" />
    <glyph glyph-name="uni021A" unicode="&#x21a;" horiz-adv-x="1101" 
d="M387 0v1120h-336v273h1002v-273h-338v-1120h-328zM414 -610l108 248q-42 0 -79 37t-37 102q0 60 41 100q43 41 104 41q73 0 114 -50q40 -49 40 -120q0 -130 -162 -358h-129z" />
    <glyph glyph-name="uni021B" unicode="&#x21b;" horiz-adv-x="743" 
d="M49 805v125l98 94l205 238h105v-238h233v-219h-233v-490q0 -55 27 -76q28 -22 85 -22q66 0 123 23v-222q-96 -38 -223 -38q-169 0 -245 66q-77 66 -77 224v535h-98zM305 -610l109 248q-42 0 -79 37q-38 38 -38 102q0 59 42 100q43 41 103 41q73 0 114 -50q40 -49 40 -120
q0 -130 -162 -358h-129z" />
    <glyph glyph-name="dotlessj" unicode="&#x237;" horiz-adv-x="534" 
d="M422 1024v-991q0 -161 -73 -281q-72 -119 -261 -203l-125 183q96 64 122 118q28 58 28 183v991h309z" />
    <glyph glyph-name="circumflex" unicode="&#x2c6;" horiz-adv-x="944" 
d="M162 1126l246 363h129l243 -363h-157l-150 160l-154 -160h-157z" />
    <glyph glyph-name="ring" unicode="&#x2da;" horiz-adv-x="753" 
d="M193 1274q0 77 50 127q49 49 132 49t133 -49q51 -49 51 -127q0 -80 -51 -127q-52 -47 -133 -47q-79 0 -131 47q-51 47 -51 127zM293 1274q0 -38 21 -59t61 -21q39 0 61 21q23 21 23 59q0 36 -23 59t-61 23q-82 0 -82 -82z" />
    <glyph glyph-name="tilde" unicode="&#x2dc;" horiz-adv-x="1097" 
d="M326 1126h-144q4 129 65 212q60 83 154 83q69 0 167 -49t130 -49q66 0 82 82h133q-11 -291 -186 -291q-60 0 -175 50t-144 50q-34 0 -53 -18q-18 -17 -29 -70z" />
    <glyph glyph-name="Wgrave" unicode="&#x1e80;" horiz-adv-x="1910" 
d="M1022 1495l-291 102q-86 33 -86 111q0 41 30 68q29 26 77 26q40 0 104 -47l213 -166zM1876 1393v-58l-342 -1345h-426l-154 688l-161 -688h-424l-326 1345v58h328l161 -754q30 -143 56 -297h4q5 32 61 295l168 756h301l154 -754q42 -204 55 -297h4q20 113 62 295l174 756
h305z" />
    <glyph glyph-name="wgrave" unicode="&#x1e81;" horiz-adv-x="1646" 
d="M874 1126l-290 103q-86 33 -86 110q0 42 29 68q30 27 77 27q40 0 105 -48l213 -165zM1616 1024v-57l-283 -977h-397l-115 569l-143 -569h-397l-230 977v57h307l144 -721h4l166 721h332l135 -721h4l174 721h299z" />
    <glyph glyph-name="Wacute" unicode="&#x1e82;" horiz-adv-x="1910" 
d="M932 1495l-47 94l213 166q64 47 104 47q48 0 77 -26q30 -27 30 -68q0 -78 -86 -111zM1876 1393v-58l-342 -1345h-426l-154 688l-161 -688h-424l-326 1345v58h328l161 -754q30 -143 56 -297h4q5 32 61 295l168 756h301l154 -754q42 -204 55 -297h4q20 113 62 295l174 756
h305z" />
    <glyph glyph-name="wacute" unicode="&#x1e83;" horiz-adv-x="1646" 
d="M784 1126l-47 95l213 165q65 48 105 48q47 0 77 -27q29 -26 29 -68q0 -77 -86 -110zM1616 1024v-57l-283 -977h-397l-115 569l-143 -569h-397l-230 977v57h307l144 -721h4l166 721h332l135 -721h4l174 721h299z" />
    <glyph glyph-name="Wdieresis" unicode="&#x1e84;" horiz-adv-x="1910" 
d="M782 1524q-65 0 -108 37t-43 100q0 61 43 98t108 37q67 0 108 -37q42 -38 42 -98q0 -63 -42 -100q-41 -37 -108 -37zM1180 1524q-67 0 -108 37q-42 37 -42 100q0 61 42 98q41 37 108 37q65 0 108 -37t43 -98q0 -63 -43 -100t-108 -37zM1876 1393v-58l-342 -1345h-426
l-154 688l-161 -688h-424l-326 1345v58h328l161 -754q30 -143 56 -297h4q5 32 61 295l168 756h301l154 -754q42 -204 55 -297h4q20 113 62 295l174 756h305z" />
    <glyph glyph-name="wdieresis" unicode="&#x1e85;" horiz-adv-x="1646" 
d="M635 1155q-66 0 -109 37t-43 100q0 62 43 99q42 36 109 36t107 -36q42 -37 42 -99t-42 -100q-41 -37 -107 -37zM1032 1155q-66 0 -107 37q-42 37 -42 100q0 62 42 99q40 36 107 36t109 -36q43 -37 43 -99q0 -63 -43 -100t-109 -37zM1616 1024v-57l-283 -977h-397
l-115 569l-143 -569h-397l-230 977v57h307l144 -721h4l166 721h332l135 -721h4l174 721h299z" />
    <glyph glyph-name="Ygrave" unicode="&#x1ef2;" horiz-adv-x="1202" 
d="M647 1495l-291 102q-86 33 -86 111q0 41 30 68q29 26 77 26q40 0 104 -47l213 -166zM1188 1335l-426 -893v-442h-328v444l-414 891v58h330l168 -394q65 -156 92 -229h4q37 117 86 229l172 394h316v-58z" />
    <glyph glyph-name="ygrave" unicode="&#x1ef3;" horiz-adv-x="1069" 
d="M573 1126l-290 103q-86 33 -86 110q0 42 29 68q30 27 77 27q40 0 105 -48l213 -165zM35 967v57h307l201 -723h4l190 723h299v-57l-215 -674q-135 -425 -372 -744h-340v58q158 178 247 352z" />
    <glyph glyph-name="figuredash" unicode="&#x2012;" horiz-adv-x="1124" 
d="M111 485v187h903v-187h-903z" />
    <glyph glyph-name="endash" unicode="&#x2013;" horiz-adv-x="1333" 
d="M111 485v187h1112v-187h-1112z" />
    <glyph glyph-name="emdash" unicode="&#x2014;" horiz-adv-x="1742" 
d="M111 485v187h1521v-187h-1521z" />
    <glyph glyph-name="quoteleft" unicode="&#x2018;" horiz-adv-x="462" 
d="M369 1389l-111 -248q41 0 79 -38t38 -102q0 -59 -41 -100t-105 -41q-72 0 -113 50q-40 49 -40 120q0 131 162 359h131z" />
    <glyph glyph-name="quoteright" unicode="&#x2019;" horiz-adv-x="464" 
d="M104 881l109 247q-41 0 -79 38t-38 102q0 60 42 100q43 41 104 41q75 0 114 -50q39 -49 39 -120q0 -130 -162 -358h-129z" />
    <glyph glyph-name="quotesinglbase" unicode="&#x201a;" horiz-adv-x="479" 
d="M98 -268l109 248q-43 0 -79 36q-38 38 -38 103q0 59 41 100t105 41q72 0 113 -50q40 -49 40 -120q0 -130 -162 -358h-129z" />
    <glyph glyph-name="quotedblleft" unicode="&#x201c;" horiz-adv-x="864" 
d="M369 1389l-111 -248q41 0 79 -38t38 -102q0 -59 -41 -100t-105 -41q-72 0 -113 50q-40 49 -40 120q0 131 162 359h131zM768 1389l-109 -248q41 0 79 -38t38 -102q0 -59 -42 -100q-43 -41 -103 -41q-73 0 -114 50q-40 49 -40 120q0 131 162 359h129z" />
    <glyph glyph-name="quotedblright" unicode="&#x201d;" horiz-adv-x="866" 
d="M104 881l109 247q-41 0 -79 38t-38 102q0 60 42 100q43 41 104 41q75 0 114 -50q39 -49 39 -120q0 -130 -162 -358h-129zM506 881l108 247q-41 0 -78 37q-38 38 -38 103q0 59 41 100t104 41q73 0 114 -50q40 -49 40 -120q0 -130 -162 -358h-129z" />
    <glyph glyph-name="quotedblbase" unicode="&#x201e;" horiz-adv-x="878" 
d="M98 -268l109 248q-43 0 -79 36q-38 38 -38 103q0 59 41 100t105 41q72 0 113 -50q40 -49 40 -120q0 -130 -162 -358h-129zM498 -268l108 248q-42 0 -79 37q-38 38 -38 102q0 59 42 100q43 41 104 41q76 0 115 -50q38 -48 38 -120q0 -131 -161 -358h-129z" />
    <glyph glyph-name="dagger" unicode="&#x2020;" horiz-adv-x="1150" 
d="M643 766l66 -766h-258l65 766l-453 -66v269l449 -51l-61 475h258l-62 -475l443 51v-269z" />
    <glyph glyph-name="daggerdbl" unicode="&#x2021;" horiz-adv-x="1193" 
d="M664 971l65 -234l-65 -233l446 65v-268l-442 51l61 -475h-258l61 475l-448 -51v268l453 -65l-66 233l66 234l-453 -66v269l448 -52l-61 475h258l-61 -475l442 52v-269z" />
    <glyph glyph-name="bullet" unicode="&#x2022;" horiz-adv-x="667" 
d="M133 475q0 87 58 145t143 58q84 0 142 -58q59 -59 59 -145t-59 -143q-60 -58 -142 -58q-83 0 -143 58q-58 57 -58 143z" />
    <glyph glyph-name="onedotenleader" unicode="&#x2024;" horiz-adv-x="450" 
d="M88 119q0 58 40 98q41 41 97 41q57 0 98 -41q39 -39 39 -98q0 -60 -39 -99q-40 -40 -98 -40q-57 0 -97 40t-40 99z" />
    <glyph glyph-name="ellipsis" unicode="&#x2026;" horiz-adv-x="1253" 
d="M88 119q0 58 40 98q41 41 97 41q57 0 98 -41q39 -39 39 -98q0 -60 -39 -99q-40 -40 -98 -40q-57 0 -97 40t-40 99zM489 119q0 58 40 98q41 41 98 41q56 0 97 -41q40 -40 40 -98q0 -59 -40 -99t-97 -40q-58 0 -98 40t-40 99zM891 119q0 58 40 98q41 41 97 41t97 -41
q40 -40 40 -98q0 -59 -40 -99t-97 -40t-97 40t-40 99z" />
    <glyph glyph-name="perthousand" unicode="&#x2030;" horiz-adv-x="2224" 
d="M340 649q-152 0 -216 99q-65 100 -65 284t65 278q64 93 216 93q151 0 217 -93t66 -278t-66 -284t-217 -99zM1108 1393h254l-502 -666l-125 41zM340 1272q-66 0 -90 -53q-25 -56 -25 -187q0 -132 25 -193q24 -59 90 -59t90 58q25 59 25 194q0 132 -25 187q-24 53 -90 53z
M1198 -10q-152 0 -216 98t-64 285q0 185 64 277q64 93 216 93t216 -93q65 -94 65 -277q0 -185 -65 -285q-64 -98 -216 -98zM1886 -10q-152 0 -216 98t-64 285q0 185 64 277q64 93 216 93t216 -93q65 -94 65 -277q0 -185 -65 -285q-64 -98 -216 -98zM422 0h-254l514 686
l125 -41zM1198 612q-66 0 -90 -53q-25 -55 -25 -186q0 -133 25 -194q24 -58 90 -58t90 57q25 59 25 195q0 131 -25 186q-24 53 -90 53zM1886 612q-66 0 -90 -53t-24 -186q0 -138 24 -195t90 -57t90 58q25 61 25 194q0 131 -25 186q-24 53 -90 53z" />
    <glyph glyph-name="guilsinglleft" unicode="&#x2039;" horiz-adv-x="681" 
d="M602 285l-125 -131l-397 335v127l397 336l125 -131l-256 -268z" />
    <glyph glyph-name="guilsinglright" unicode="&#x203a;" horiz-adv-x="681" 
d="M80 821l125 131l397 -336v-127l-397 -335l-125 131l256 268z" />
    <glyph glyph-name="exclamdbl" unicode="&#x203c;" horiz-adv-x="985" 
d="M109 1393h333l-75 -1016h-183zM543 1393h331l-75 -1016h-183zM143 119q0 58 40 98q41 41 98 41q55 0 96 -41t41 -98q0 -58 -41 -99q-40 -40 -96 -40q-58 0 -98 40t-40 99zM575 119q0 58 40 98q41 41 98 41q56 0 97 -41q40 -40 40 -98q0 -59 -40 -99t-97 -40q-58 0 -98 40
t-40 99z" />
    <glyph glyph-name="fraction" unicode="&#x2044;" horiz-adv-x="391" 
d="M522 1393h254l-485 -666l-125 41zM-131 0h-254l498 686l125 -41z" />
    <glyph glyph-name="colonsign" unicode="&#x20a1;" horiz-adv-x="1230" 
d="M707 242q235 0 444 123l-21 -285q-210 -100 -423 -100q-328 0 -478 180q-149 179 -149 536q0 358 149 537q150 180 478 180q213 0 423 -100v-275q-77 41 -139 62l-383 -846q44 -12 99 -12zM711 1151h-4q-169 0 -229 -116q-60 -115 -60 -339q0 -112 10 -172zM522 303
l375 825q-59 14 -82 15l-346 -768q25 -48 53 -72z" />
    <glyph glyph-name="uni20A8" unicode="&#x20a8;" horiz-adv-x="1107" 
d="M1028 1231h-194q60 -78 77 -203h117v-162h-119q-24 -215 -211 -299v-14q100 -39 162 -197l117 -299v-57h-344l-164 403q-22 55 -57 79t-101 24h-221v274h283q159 0 192 86h-475v162h477q-30 92 -194 92h-283v273h938v-162z" />
    <glyph glyph-name="Euro" unicode="&#x20ac;" horiz-adv-x="1351" 
d="M823 242q237 0 445 123l-21 -285q-210 -100 -424 -100q-513 0 -604 466h-149v187h129l-2 63q0 40 2 70h-129v184h149q94 463 604 463q214 0 424 -100v-275q-220 113 -424 113q-205 0 -262 -201h383v-184h-407l-2 -70q0 -35 2 -63h407v-187h-385q55 -204 264 -204z" />
    <glyph glyph-name="uni2113" unicode="&#x2113;" horiz-adv-x="786" 
d="M207 545v497q0 207 74 310q77 102 182 102q81 0 127 -55q47 -56 47 -148q0 -106 -57 -229q-51 -125 -234 -360v-345q0 -149 41 -217q40 -59 111 -59q64 0 116 59q60 60 99 211h32q-38 -173 -124 -260q-65 -71 -162 -71q-78 0 -142 50q-63 49 -90 134q-20 69 -20 219v106
l-150 -170l-22 23zM346 1112v-395q244 319 244 495q0 85 -34 134t-87 49q-52 0 -90 -58q-33 -61 -33 -225z" />
    <glyph glyph-name="trademark" unicode="&#x2122;" horiz-adv-x="1619" 
d="M293 606v633h-191v154h566v-154h-191v-633h-184zM1323 606v205q0 133 8 248h-2l-149 -453h-119l-150 453h-8q15 -108 15 -248v-205h-173v787h246l94 -303q36 -131 39 -140h9q5 54 30 140l94 303h246v-787h-180z" />
    <glyph glyph-name="minus" unicode="&#x2212;" horiz-adv-x="915" 
d="M106 451v184h703v-184h-703z" />
    <glyph glyph-name="zero.dnom" horiz-adv-x="794" 
d="M397 -12q-184 0 -263 110t-79 326q0 214 79 318q80 106 263 106t262 -106q78 -105 78 -318q0 -215 -78 -326q-77 -110 -262 -110zM397 690q-79 0 -109 -57t-30 -209q0 -153 30 -216t109 -63q81 0 109 63q29 64 29 216q0 151 -29 209q-28 57 -109 57z" />
    <glyph glyph-name="one.dnom" horiz-adv-x="462" 
d="M158 0v672h-123v139l198 31h121v-842h-196z" />
    <glyph glyph-name="two.dnom" horiz-adv-x="706" 
d="M649 164l-12 -164h-584v164q181 110 285 205q100 91 100 184q0 137 -143 137q-102 0 -223 -67v165q118 60 262 60q309 0 309 -283q0 -59 -25 -118q-22 -53 -56 -93q-27 -32 -87 -76q-58 -42 -92 -60q-68 -35 -98 -50v-4h364z" />
    <glyph glyph-name="three.dnom" horiz-adv-x="720" 
d="M471 438v-6q92 -17 143 -66q52 -50 52 -124q0 -125 -92 -190q-91 -64 -242 -64q-156 0 -277 59v170q119 -72 248 -72q162 0 162 105q0 102 -193 102h-100v144h100q183 0 183 102q0 50 -44 71t-102 21q-106 0 -235 -65v163q113 60 266 60q135 0 223 -55t88 -162
q0 -155 -180 -193z" />
    <glyph glyph-name="four.dnom" horiz-adv-x="763" 
d="M715 143h-97v-143h-196v143h-387v174l403 525h180v-535h97v-164zM422 307v238l-191 -238h191z" />
    <glyph glyph-name="five.dnom" horiz-adv-x="694" 
d="M240 672v-127q49 10 92 10q134 0 225 -67q90 -66 90 -207t-87 -218q-85 -75 -230 -75q-158 0 -275 59v170q125 -72 228 -72q161 0 161 123q0 127 -180 127q-81 0 -178 -26v467h530v-164h-376z" />
    <glyph glyph-name="six.dnom" horiz-adv-x="745" 
d="M408 553q136 0 212 -74q74 -73 74 -198q0 -128 -85 -210q-86 -83 -232 -83q-322 0 -322 393q0 467 363 467q138 0 239 -60v-165q-98 67 -211 67q-74 0 -115 -39t-57 -123q77 25 134 25zM383 145q109 0 109 136q0 70 -30 105q-30 34 -100 34q-55 0 -98 -14v-44
q0 -107 26 -162t93 -55z" />
    <glyph glyph-name="seven.dnom" horiz-adv-x="665" 
d="M383 0h-238q0 174 85 348q86 177 239 324h-432v164h602v-142q-123 -150 -190 -335q-66 -183 -66 -359z" />
    <glyph glyph-name="eight.dnom" horiz-adv-x="761" 
d="M563 438q146 -72 146 -196q0 -115 -94 -185q-93 -69 -238 -69q-162 0 -244 61t-82 162q0 131 131 199q-114 76 -114 192q0 110 87 178q88 68 230 68q152 0 231 -61q78 -60 78 -148q0 -133 -131 -201zM401 694q-50 0 -76 -22q-28 -23 -28 -60q0 -41 37 -66q45 -30 110 -57
q56 53 56 121q0 37 -27 61q-26 23 -72 23zM365 141q54 0 84 24t30 64q0 48 -106 93q-3 1 -11.5 4.5t-24.5 9.5l-32 12q-51 -57 -51 -119q0 -38 31 -63t80 -25z" />
    <glyph glyph-name="nine.dnom" horiz-adv-x="745" 
d="M369 848q321 0 321 -393q0 -467 -362 -467q-141 0 -240 59v166q100 -68 211 -68q75 0 116 39q39 38 56 123q-73 -24 -133 -24q-138 0 -212 73q-75 74 -75 199q0 128 85 210q86 83 233 83zM383 416q55 0 98 14v43q0 110 -25 163q-26 54 -94 54q-108 0 -108 -135
q0 -71 30 -105t99 -34z" />
    <glyph glyph-name="zero.numr" horiz-adv-x="794" 
d="M397 545q-184 0 -263 110t-79 326q0 214 79 318q80 106 263 106t262 -106q78 -105 78 -318q0 -215 -78 -326q-77 -110 -262 -110zM397 1247q-79 0 -109 -57t-30 -209q0 -153 30 -216t109 -63q81 0 109 63q29 64 29 216q0 151 -29 209q-28 57 -109 57z" />
    <glyph glyph-name="one.numr" horiz-adv-x="462" 
d="M158 557v672h-123v139l198 31h121v-842h-196z" />
    <glyph glyph-name="two.numr" horiz-adv-x="706" 
d="M649 721l-12 -164h-584v164q181 110 285 205q100 91 100 184q0 137 -143 137q-102 0 -223 -67v166q117 59 262 59q309 0 309 -283q0 -58 -25 -117q-23 -55 -56 -94q-27 -32 -87 -76q-58 -42 -92 -60q-68 -35 -98 -50v-4h364z" />
    <glyph glyph-name="three.numr" horiz-adv-x="720" 
d="M471 995v-6q92 -17 143 -66q52 -50 52 -124q0 -125 -92 -190q-91 -64 -242 -64q-156 0 -277 59v170q119 -72 248 -72q162 0 162 105q0 102 -193 102h-100v144h100q183 0 183 102q0 50 -44 71q-43 21 -102 21q-106 0 -235 -65v164q111 59 266 59q135 0 223 -55t88 -162
q0 -156 -180 -193z" />
    <glyph glyph-name="four.numr" horiz-adv-x="763" 
d="M715 700h-97v-143h-196v143h-387v174l403 525h180v-535h97v-164zM422 864v238l-191 -238h191z" />
    <glyph glyph-name="five.numr" horiz-adv-x="694" 
d="M240 1229v-127q49 10 92 10q135 0 225 -66t90 -208q0 -140 -87 -217q-86 -76 -230 -76q-158 0 -275 59v170q125 -72 228 -72q161 0 161 123q0 127 -180 127q-81 0 -178 -26v467h530v-164h-376z" />
    <glyph glyph-name="six.numr" horiz-adv-x="745" 
d="M408 1110q136 0 212 -74q74 -73 74 -198q0 -128 -85 -210q-86 -83 -232 -83q-322 0 -322 393q0 467 363 467q140 0 239 -59v-166q-98 67 -211 67q-74 0 -115 -39t-57 -123q77 25 134 25zM383 702q109 0 109 136q0 70 -30 105q-30 34 -100 34q-55 0 -98 -14v-43
q0 -108 26 -163t93 -55z" />
    <glyph glyph-name="seven.numr" horiz-adv-x="665" 
d="M383 557h-238q0 174 85 348q86 177 239 324h-432v164h602v-142q-123 -150 -190 -335q-66 -183 -66 -359z" />
    <glyph glyph-name="eight.numr" horiz-adv-x="761" 
d="M563 995q146 -72 146 -196q0 -115 -94 -185q-93 -69 -238 -69q-162 0 -244 61t-82 162q0 131 131 199q-114 77 -114 192q0 111 87 178q88 68 230 68q153 0 231 -60t78 -149q0 -133 -131 -201zM401 1251q-50 0 -76 -22q-28 -23 -28 -60q0 -41 37 -66q41 -28 110 -56
q56 53 56 120q0 37 -27 61q-26 23 -72 23zM365 698q54 0 84 24t30 64q0 48 -104 91q-21 10 -51 20q-13 7 -19 8q-51 -57 -51 -119q0 -38 31 -63t80 -25z" />
    <glyph glyph-name="nine.numr" horiz-adv-x="745" 
d="M369 1405q321 0 321 -393q0 -467 -362 -467q-141 0 -240 59v166q100 -68 211 -68q75 0 116 39q39 38 56 123q-73 -24 -133 -24q-138 0 -212 73q-75 74 -75 199q0 128 85 210q86 83 233 83zM383 973q55 0 98 14v43q0 110 -25 163q-26 54 -94 54q-108 0 -108 -135
q0 -70 30 -105q30 -34 99 -34z" />
    </font>
</defs>
</svg>
