<?xml version="1.0" standalone="no"?>
<!DOCTYPE svg PUBLIC "-//W3C//DTD SVG 1.1//EN" "http://www.w3.org/Graphics/SVG/1.1/DTD/svg11.dtd" >
<svg xmlns="http://www.w3.org/2000/svg" xmlns:xlink="http://www.w3.org/1999/xlink" version="1.1">
<metadata>
Created by FontForge 20170731 at Mon Jun 27 16:03:33 2022
 By Aleksey,,,
Copyright (c) 2013 by Dino dos Santos. All rights reserved.
</metadata>
<defs>
<font id="BreveSansText-Black" horiz-adv-x="1159" >
  <font-face 
    font-family="BreveSansText-Black"
    font-weight="400"
    font-stretch="normal"
    units-per-em="2048"
    panose-1="0 0 10 0 0 0 0 0 0 0"
    ascent="1638"
    descent="-410"
    x-height="1024"
    cap-height="1393"
    bbox="-399 -643 2208 1896"
    underline-thickness="102"
    underline-position="-204"
    unicode-range="U+0020-2212"
  />
<missing-glyph horiz-adv-x="1146" 
d="M135 0v1024h877v-1024h-877zM969 999h-789l395 -469zM559 510l-401 483v-960zM592 510l397 -473v952zM965 25l-390 467l-391 -467h781z" />
    <glyph glyph-name="fi" unicode="fi" horiz-adv-x="1292" 
d="M150 1024v61q0 110 31 185q30 74 82 119q49 43 135 67q88 25 166 32q76 7 200 7v-260l-41 -21q-69 15 -117 15q-108 0 -108 -117v-88h225v-246h-225v-778h-348v778h-103v144zM831 1311q0 69 52 116q53 48 133 48t133 -48q51 -47 51 -116q0 -71 -50 -118q-49 -46 -134 -46
t-134 46q-51 48 -51 118zM1190 1024v-1024h-348v1024h348z" />
    <glyph glyph-name="fl" unicode="fl" horiz-adv-x="1337" 
d="M150 1024v61q0 110 31 185q30 74 82 119q49 43 135 67q88 25 166 32q76 7 200 7v-260l-41 -21q-69 15 -117 15q-108 0 -108 -117v-88h225v-246h-225v-778h-348v778h-103v144zM1083 1475h103v-1178q0 -86 57 -86q31 0 66 14v-205q-81 -40 -215 -40q-107 0 -182 42
q-74 41 -74 142v1229z" />
    <glyph glyph-name=".notdef" horiz-adv-x="1146" 
d="M135 0v1024h877v-1024h-877zM969 999h-789l395 -469zM559 510l-401 483v-960zM592 510l397 -473v952zM965 25l-390 467l-391 -467h781z" />
    <glyph glyph-name=".null" horiz-adv-x="0" 
 />
    <glyph glyph-name="nonmarkingreturn" horiz-adv-x="681" 
 />
    <glyph glyph-name="space" unicode=" " horiz-adv-x="417" 
 />
    <glyph glyph-name="exclam" unicode="!" horiz-adv-x="571" 
d="M100 1393h369l-82 -1004h-205zM141 129q0 62 43 105q45 45 105 45t105 -45q44 -44 44 -105t-44 -105t-105 -44t-105 44q-43 43 -43 105z" />
    <glyph glyph-name="quotedbl" unicode="&#x22;" horiz-adv-x="884" 
d="M74 1393h327l-61 -471h-205zM483 1393h328l-61 -471h-205z" />
    <glyph glyph-name="numbersign" unicode="#" horiz-adv-x="1089" 
d="M811 604v-123h195v-205h-195v-194h-205v194h-123v-194h-204v194h-195v205h195v123h-195v205h195v195h204v-195h123v195h205v-195h195v-205h-195zM606 604h-123v-123h123v123z" />
    <glyph glyph-name="dollar" unicode="$" horiz-adv-x="1136" 
d="M1073 410q0 -196 -129 -308q-128 -111 -354 -122l-8 -82h-144l8 86q-202 17 -366 98v317q232 -101 393 -118l25 251q-78 37 -80 38q-35 19 -77 42q-48 27 -80 53q-23 19 -64 60q-40 40 -58 77q-20 43 -34 90q-15 52 -15 112q0 196 138 303q137 106 343 106h9l8 82h143
l-8 -90q151 -15 319 -94v-307q-183 85 -348 106l-20 -229q53 -24 110 -55q53 -29 105 -66q62 -44 96 -88q36 -46 62 -114q26 -66 26 -148zM469 1034q0 -43 68 -84l14 162q-82 -18 -82 -78zM635 459l-17 -174q76 18 76 84q0 52 -59 90z" />
    <glyph glyph-name="percent" unicode="%" horiz-adv-x="1564" 
d="M342 649q-156 0 -222 97q-67 99 -67 286q0 186 67 279q66 92 222 92t222 -92q67 -93 67 -279q0 -187 -67 -286q-66 -97 -222 -97zM1116 1393h287l-520 -666l-144 41zM342 1255q-60 0 -81 -48t-21 -175q0 -130 21 -182q21 -53 81 -53t81 53q21 52 21 182q0 127 -21 175
t-81 48zM1223 -10q-157 0 -223 97t-66 286q0 187 66 278q66 92 223 92q156 0 222 -92q66 -91 66 -278q0 -189 -66 -286t-222 -97zM440 0h-286l532 686l143 -41zM1223 596q-60 0 -81 -48q-22 -50 -22 -175q0 -128 22 -183q21 -53 81 -53t81 53q21 52 21 183q0 127 -21 175
t-81 48z" />
    <glyph glyph-name="ampersand" unicode="&#x26;" horiz-adv-x="1423" 
d="M1397 61v-61h-389l-58 59q-162 -79 -350 -79q-250 0 -392 109t-142 288q0 232 225 395q-82 134 -82 252q0 185 127 287t364 102q231 0 338 -91q109 -92 109 -220q0 -72 -33 -135q-34 -65 -86 -93h-252q58 84 58 148q0 48 -34 76t-100 28q-70 0 -106 -32q-37 -33 -37 -82
q0 -59 40 -112q44 -59 185 -204l203 -211q51 113 51 252h307q0 -271 -145 -471zM631 266q48 0 102 13l-205 206q-30 30 -75 80q-43 -49 -43 -119q0 -78 54 -129t167 -51z" />
    <glyph glyph-name="quotesingle" unicode="'" horiz-adv-x="475" 
d="M74 1393h327l-61 -471h-205z" />
    <glyph glyph-name="parenleft" unicode="(" horiz-adv-x="688" 
d="M63 696q0 283 114 505q114 221 327 355h164q-236 -332 -236 -860t236 -860h-164q-213 134 -327 355q-114 222 -114 505z" />
    <glyph glyph-name="parenright" unicode=")" horiz-adv-x="688" 
d="M625 696q0 -283 -114 -505q-114 -221 -327 -355h-164q236 332 236 860t-236 860h164q213 -134 327 -355q114 -222 114 -505z" />
    <glyph glyph-name="asterisk" unicode="*" horiz-adv-x="700" 
d="M143 1327q18 18 39 19q24 2 41 -13q7 -7 111 -178q-6 36 -18 83q-9 36 -19 82q-8 37 -8 42q0 20 19 35q18 14 42 14t41 -14q19 -16 19 -35q0 -5 -8 -42q-2 -7 -5 -23t-6 -30.5t-7 -29.5q-6 -24 -17 -80q11 16 40 66q23 38 45 73q22 34 25 37q17 15 39 14t39 -18t18 -39
q2 -24 -14 -41q-11 -11 -176 -112q49 9 82 17q47 12 81 21t42 9q21 0 36 -20t15 -42q0 -23 -15 -41t-36 -18q-10 0 -41 7q-11 3 -38 8.5t-43 8.5q-62 13 -81 17q8 -5 30.5 -18.5t36.5 -21.5q56 -34 71 -43q30 -18 36 -24q15 -16 13 -40q-1 -23 -17 -39q-18 -18 -40 -19
q-24 -2 -40 14q-5 4 -110 172q6 -31 18 -79q15 -59 20 -80q9 -40 9 -41q0 -21 -20 -36t-42 -15q-23 0 -41 15t-18 36q0 10 7 41q2 10 7.5 37t9.5 43q14 60 17 79q-16 -24 -40 -65q-34 -58 -43 -73q-18 -30 -24 -36q-15 -14 -40 -12q-22 1 -40 19q-17 17 -18 38q-2 24 14 41
q3 3 174 109q-49 -9 -83 -17q-11 -3 -28.5 -7.5t-29.5 -7.5t-22 -5q-35 -8 -41 -8q-20 0 -35 19q-15 20 -15 42q0 23 15 41q16 19 35 19q5 0 42 -8q11 -2 37.5 -8.5t43.5 -10.5q34 -8 81 -16q-170 102 -176 110q-15 16 -13 39q2 24 17 39z" />
    <glyph glyph-name="plus" unicode="+" horiz-adv-x="856" 
d="M786 440h-256v-256h-204v256h-256v205h256v256h204v-256h256v-205z" />
    <glyph glyph-name="comma" unicode="," horiz-adv-x="483" 
d="M86 -281l113 261q-41 0 -80 40q-39 41 -39 109q0 65 45 108q46 44 113 44q78 0 122 -55q43 -53 43 -128q0 -142 -174 -379h-143z" />
    <glyph glyph-name="hyphen" unicode="-" horiz-adv-x="925" 
d="M104 481v205h717v-205h-717z" />
    <glyph glyph-name="period" unicode="." horiz-adv-x="454" 
d="M78 129q0 61 44 105q45 45 105 45q61 0 106 -45q44 -44 44 -105t-44 -105t-106 -44q-61 0 -105 44t-44 105z" />
    <glyph glyph-name="slash" unicode="/" horiz-adv-x="643" 
d="M598 1434l-307 -1475h-246l307 1475h246z" />
    <glyph glyph-name="zero" unicode="0" horiz-adv-x="1310" 
d="M655 -20q-314 0 -448 182q-135 183 -135 545q0 357 134 532q133 174 449 174t450 -174q134 -175 134 -532q0 -361 -135 -544t-449 -183zM655 1116q-120 0 -162 -85t-42 -324q0 -245 43 -337q44 -94 161 -94q118 0 162 94q43 92 43 337q0 239 -42 324t-163 85z" />
    <glyph glyph-name="one" unicode="1" horiz-adv-x="765" 
d="M248 0v1085h-205v267l338 51h235v-1403h-368z" />
    <glyph glyph-name="two" unicode="2" horiz-adv-x="1167" 
d="M1092 307l-21 -307h-993v307q270 150 443 300q171 149 171 296q0 112 -59 162q-60 51 -156 51q-171 0 -379 -112v307q213 102 451 102q245 0 389 -117q143 -116 143 -364q0 -108 -41 -202q-41 -95 -97 -155q-55 -60 -142 -116q-84 -55 -149 -84q-86 -39 -144 -60v-8h584z
" />
    <glyph glyph-name="three" unicode="3" horiz-adv-x="1202" 
d="M809 733v-10q156 -30 240 -114q81 -81 81 -199q0 -215 -156 -323q-155 -107 -417 -107q-111 0 -247 27q-128 25 -234 75v317q195 -123 420 -123q256 0 256 150q0 82 -76 115q-74 32 -221 32h-183v267h183q286 0 286 143q0 41 -23 68q-24 29 -63 42q-40 14 -74 18
q-40 5 -75 5q-188 0 -400 -112v307q197 102 461 102q233 0 388 -93t155 -276q0 -245 -301 -311z" />
    <glyph glyph-name="four" unicode="4" horiz-adv-x="1284" 
d="M1225 225h-164v-225h-369v225h-645v328l666 850h348v-871h164v-307zM692 532v334l-276 -334h276z" />
    <glyph glyph-name="five" unicode="5" horiz-adv-x="1144" 
d="M408 1085v-163q64 14 149 14q228 0 378 -111t150 -344q0 -244 -146 -372q-147 -129 -394 -129q-267 0 -473 102v317q212 -123 379 -123q129 0 192 39q64 40 64 136t-67 140t-212 44q-123 0 -305 -43v801h911v-308h-626z" />
    <glyph glyph-name="six" unicode="6" horiz-adv-x="1222" 
d="M717 922q197 0 318 -120q122 -120 122 -331q0 -219 -146 -355t-397 -136q-542 0 -542 655q0 778 614 778q244 0 410 -102v-307q-161 112 -348 112q-122 0 -184 -55t-85 -189q108 50 238 50zM625 276q78 0 116 56q37 55 37 139q0 110 -43 157q-43 48 -141 48
q-72 0 -133 -21v-61q0 -163 35 -241q35 -77 129 -77z" />
    <glyph glyph-name="seven" unicode="7" horiz-adv-x="1112" 
d="M672 0h-451q0 286 138 567q137 279 405 518h-717v308h1034v-267q-206 -245 -308 -540q-101 -293 -101 -586z" />
    <glyph glyph-name="eight" unicode="8" horiz-adv-x="1259" 
d="M965 737q223 -123 223 -327q0 -193 -158 -312q-157 -118 -405 -118q-275 0 -414 103t-139 273q0 98 52 183q53 87 140 141q-172 123 -172 313q0 191 148 306q147 114 395 114q268 0 400 -102t132 -246q0 -220 -202 -328zM668 1126q-72 0 -108 -32q-38 -33 -38 -80
q0 -57 53 -95q56 -39 162 -83q72 82 72 170q0 49 -37 85q-36 35 -104 35zM602 266q73 0 114 34q42 34 42 95q0 59 -123 115q-11 4 -45.5 17.5t-54.5 21.5l-31 12q-60 -101 -60 -172q0 -55 43 -89t115 -34z" />
    <glyph glyph-name="nine" unicode="9" horiz-adv-x="1222" 
d="M608 1413q543 0 543 -655q0 -778 -614 -778q-243 0 -410 102v307q163 -113 348 -113q119 0 183 56q63 55 85 188q-105 -49 -237 -49q-198 0 -319 120t-121 331q0 219 146 355t396 136zM629 717q74 0 133 20v62q0 162 -35 240q-35 77 -129 77q-80 0 -117 -55t-37 -139
q0 -110 43 -157q43 -48 142 -48z" />
    <glyph glyph-name="colon" unicode=":" horiz-adv-x="507" 
d="M104 696q0 62 44 106t106 44q61 0 105 -44t44 -106q0 -61 -44 -105t-105 -44q-62 0 -106 44t-44 105zM104 129q0 61 44 105q45 45 106 45q60 0 105 -45q44 -44 44 -105t-44 -105t-105 -44q-62 0 -106 44t-44 105z" />
    <glyph glyph-name="semicolon" unicode=";" horiz-adv-x="526" 
d="M111 696q0 62 44 106t105 44q62 0 106 -44t44 -106q0 -61 -44 -105t-106 -44q-61 0 -105 44t-44 105zM109 -281l112 261q-41 0 -80 40q-39 41 -39 109q0 65 45 108q46 44 113 44q79 0 123 -55q43 -53 43 -128q0 -142 -174 -379h-143z" />
    <glyph glyph-name="less" unicode="&#x3c;" horiz-adv-x="892" 
d="M791 459v-203l-717 225v226l717 225v-203l-457 -135z" />
    <glyph glyph-name="equal" unicode="=" horiz-adv-x="913" 
d="M98 604v205h717v-205h-717zM98 276v205h717v-205h-717z" />
    <glyph glyph-name="greater" unicode="&#x3e;" horiz-adv-x="892" 
d="M102 729v203l717 -225v-226l-717 -225v203l457 135z" />
    <glyph glyph-name="question" unicode="?" horiz-adv-x="1079" 
d="M1026 993q0 -116 -34 -197q-35 -84 -82 -128q-48 -45 -122 -72q-71 -26 -134 -34q-56 -7 -136 -7l-14 -166h-205l-29 385q182 0 285 41q102 41 102 150q0 57 -45 104t-139 47q-170 0 -410 -112v307q215 102 472 102q221 0 356 -108t135 -312zM248 129q0 62 43 105
q45 45 104 45q61 0 106 -45q44 -44 44 -105t-44 -105t-106 -44q-60 0 -104 44q-43 43 -43 105z" />
    <glyph glyph-name="at" unicode="@" horiz-adv-x="1613" 
d="M1163 870q-73 -428 -73 -487q0 -107 81 -107q78 0 120 75t42 276q0 227 -141 332q-142 106 -358 106q-283 0 -424 -161q-142 -162 -142 -427q0 -549 602 -549q256 0 447 113v-164q-175 -123 -496 -123q-355 0 -557 200q-201 200 -201 540q0 308 209 532q208 223 564 223
q292 0 497 -163t205 -465q0 -221 -119 -370t-315 -149q-192 0 -225 136l-105 -103q-56 -33 -123 -33q-93 0 -152 78q-59 79 -59 215q0 262 89 395q89 132 307 132q150 0 327 -52zM852 348l53 389q-46 19 -80 19q-30 0 -56 -13q-24 -12 -45 -45t-33 -104q-11 -66 -11 -180
q0 -62 14 -87q16 -28 58 -28q33 0 100 49z" />
    <glyph glyph-name="A" unicode="A" horiz-adv-x="1284" 
d="M1264 61v-61h-365l-76 266h-385l-76 -266h-348v61l404 1342h456zM737 573l-37 134q-25 86 -67 297h-4q-38 -185 -68 -297l-37 -134h213z" />
    <glyph glyph-name="B" unicode="B" horiz-adv-x="1253" 
d="M961 727v-4q235 -94 235 -334q0 -183 -124 -286t-339 -103h-612v1393h575q211 0 331 -97q118 -96 118 -272q0 -103 -51 -179q-52 -78 -133 -118zM489 870h181q106 0 106 107q0 108 -106 108h-181v-215zM489 307h197q62 0 97 29q34 28 34 100q0 73 -33 100t-96 27h-199
v-256z" />
    <glyph glyph-name="C" unicode="C" horiz-adv-x="1216" 
d="M66 696q0 367 155 541q156 176 490 176q213 0 430 -102v-307q-224 112 -430 112q-83 0 -137 -30q-55 -30 -81 -89q-28 -62 -38 -130q-11 -74 -11 -171t11 -171q10 -68 38 -130q26 -59 81 -89q54 -30 137 -30q235 0 450 123l-20 -317q-217 -102 -430 -102q-334 0 -490 176
q-155 174 -155 540z" />
    <glyph glyph-name="D" unicode="D" horiz-adv-x="1366" 
d="M121 1393h553q333 0 479 -167q145 -166 145 -519q0 -358 -146 -532q-147 -175 -478 -175h-553v1393zM489 307h185q139 0 192 83q54 85 54 317q0 231 -53 305q-52 73 -193 73h-185v-778z" />
    <glyph glyph-name="E" unicode="E" horiz-adv-x="1171" 
d="M489 1085v-215h512v-307h-512v-256h625l-20 -307h-973v1393h973v-308h-605z" />
    <glyph glyph-name="F" unicode="F" horiz-adv-x="1153" 
d="M489 1085v-276h512v-307h-512v-502h-368v1393h973v-308h-605z" />
    <glyph glyph-name="G" unicode="G" horiz-adv-x="1236" 
d="M711 1116q-83 0 -137 -30q-55 -30 -81 -89q-28 -62 -38 -130q-11 -74 -11 -171t11 -171q10 -68 38 -130q26 -59 81 -89q54 -30 137 -30q19 0 61 3v202h-123v307h492v-706q-217 -102 -430 -102q-334 0 -490 176q-155 174 -155 540q0 367 155 541q156 176 490 176
q213 0 430 -102v-307q-224 112 -430 112z" />
    <glyph glyph-name="H" unicode="H" horiz-adv-x="1357" 
d="M489 1393v-523h379v523h369v-1393h-369v563h-379v-563h-368v1393h368z" />
    <glyph glyph-name="I" unicode="I" horiz-adv-x="610" 
d="M489 1393v-1393h-368v1393h368z" />
    <glyph glyph-name="J" unicode="J" horiz-adv-x="618" 
d="M498 1393v-1270q0 -81 -17 -149q-17 -67 -60 -137q-44 -71 -136 -124q-93 -54 -228 -82l-112 287q117 40 151 86q33 45 33 119v1270h369z" />
    <glyph glyph-name="K" unicode="K" horiz-adv-x="1357" 
d="M489 1393v-1393h-368v1393h368zM950 1393h379v-62l-377 -616l387 -654v-61h-399l-389 666v71z" />
    <glyph glyph-name="L" unicode="L" horiz-adv-x="1122" 
d="M1094 307l-21 -307h-952v1393h368v-1086h605z" />
    <glyph glyph-name="M" unicode="M" horiz-adv-x="1624" 
d="M1145 0v375q0 248 20 434h-10l-235 -604h-236l-235 604h-11q21 -195 21 -434v-375h-338v1393h491l121 -353q51 -150 80 -262h8q45 168 76 262l115 353h491v-1393h-358z" />
    <glyph glyph-name="N" unicode="N" horiz-adv-x="1357" 
d="M489 1393l410 -727h10q-20 186 -20 434v293h348v-1393h-369l-409 727h-10q20 -186 20 -434v-293h-348v1393h368z" />
    <glyph glyph-name="O" unicode="O" horiz-adv-x="1380" 
d="M690 -20q-330 0 -477 184t-147 543q0 357 146 531q147 175 478 175t478 -175q147 -176 147 -531q0 -357 -148 -543q-147 -184 -477 -184zM690 1116q-140 0 -192 -87q-54 -89 -54 -322q0 -236 55 -334q55 -97 191 -97q137 0 192 97q54 96 54 334q0 234 -53 322
q-53 87 -193 87z" />
    <glyph glyph-name="P" unicode="P" horiz-adv-x="1216" 
d="M121 1393h491q290 0 427 -116t137 -355q0 -241 -138 -362q-136 -120 -426 -120h-123v-440h-368v1393zM489 748h123q104 0 144 43q41 44 41 131q0 88 -41 126q-40 37 -144 37h-123v-337z" />
    <glyph glyph-name="Q" unicode="Q" horiz-adv-x="1380" 
d="M895 2q27 -83 98 -114t199 -31l-21 -246q-332 0 -480 88q-149 89 -189 299q-230 50 -333 227q-103 178 -103 482q0 357 146 531q147 175 478 175t478 -175q147 -176 147 -531q0 -603 -420 -705zM690 1116q-140 0 -192 -87q-54 -89 -54 -322q0 -236 55 -334
q55 -97 191 -97q137 0 192 97q54 96 54 334q0 234 -53 322q-53 87 -193 87z" />
    <glyph glyph-name="R" unicode="R" horiz-adv-x="1284" 
d="M1247 61v-61h-389l-172 412q-21 46 -45 58q-22 11 -80 11h-72v-481h-368v1393h491q290 0 427 -113t137 -344q0 -278 -197 -383v-16q98 -43 154 -185zM489 788h123q105 0 145 34t40 114t-41 115q-40 34 -144 34h-123v-297z" />
    <glyph glyph-name="S" unicode="S" horiz-adv-x="1126" 
d="M82 1004q0 196 138 303q137 106 343 106q253 0 471 -102v-307q-240 112 -440 112q-133 0 -133 -82q0 -42 62 -80q55 -34 151 -78q81 -37 177 -94q87 -52 151 -149q63 -96 63 -223q0 -203 -139 -317q-138 -113 -381 -113q-267 0 -473 102v317q280 -123 460 -123
q154 0 154 93q0 50 -62 91t-151 82q-96 44 -177 92q-89 53 -152 147q-62 93 -62 223z" />
    <glyph glyph-name="T" unicode="T" horiz-adv-x="1118" 
d="M375 0v1085h-328v308h1024v-308h-328v-1085h-368z" />
    <glyph glyph-name="U" unicode="U" horiz-adv-x="1345" 
d="M672 -20q-118 0 -214 25q-98 25 -177 81q-80 56 -126 154t-46 231v922h368v-922q0 -89 54 -142q55 -53 141 -53q85 0 140 53q54 53 54 142v922h369v-922q0 -258 -156 -375q-155 -116 -407 -116z" />
    <glyph glyph-name="V" unicode="V" horiz-adv-x="1296" 
d="M406 -10l-379 1341v62h370l193 -707q25 -86 67 -297h5q40 199 67 297l193 707h354v-62l-393 -1341h-477z" />
    <glyph glyph-name="W" unicode="W" horiz-adv-x="1957" 
d="M1931 1393v-62l-342 -1341h-477l-135 608l-146 -608h-477l-317 1341v62h371l141 -707q23 -108 53 -297h4q14 86 62 295l161 709h336l144 -707q37 -180 55 -297h4q24 145 59 295l160 709h344z" />
    <glyph glyph-name="X" unicode="X" horiz-adv-x="1232" 
d="M1225 61v-61h-400l-233 393l-197 -393h-379v61l371 678l-350 592v62h399l201 -340l168 340h379v-62l-342 -624z" />
    <glyph glyph-name="Y" unicode="Y" horiz-adv-x="1222" 
d="M1221 1331l-430 -903v-428h-369v442l-410 889v62h371l152 -369q74 -183 88 -225h4q32 105 82 225l157 369h355v-62z" />
    <glyph glyph-name="Z" unicode="Z" horiz-adv-x="1126" 
d="M1075 307l-20 -307h-1004v266l553 819h-512v308h952v-267l-542 -819h573z" />
    <glyph glyph-name="bracketleft" unicode="[" horiz-adv-x="745" 
d="M690 1556v-184h-184v-1352h184v-184h-553v1720h553z" />
    <glyph glyph-name="backslash" unicode="\" horiz-adv-x="643" 
d="M598 -41h-246l-307 1475h246z" />
    <glyph glyph-name="bracketright" unicode="]" horiz-adv-x="745" 
d="M55 -164v184h185v1352h-185v184h553v-1720h-553z" />
    <glyph glyph-name="asciicircum" unicode="^" horiz-adv-x="782" 
d="M74 1126l243 369h148l244 -369h-168l-150 154l-149 -154h-168z" />
    <glyph glyph-name="underscore" unicode="_" horiz-adv-x="1130" 
d="M104 -276v204h922v-204h-922z" />
    <glyph glyph-name="grave" unicode="`" horiz-adv-x="778" 
d="M561 1126l-293 101q-94 33 -94 119q0 42 32 71t81 29q44 0 114 -53l209 -168z" />
    <glyph glyph-name="a" unicode="a" horiz-adv-x="1120" 
d="M631 139l-123 -108q-82 -51 -174 -51q-137 0 -216 78q-81 80 -81 198q0 76 30 134q29 57 79 92q49 34 96 53q43 17 94 28l295 62v41q0 66 -39 109q-39 44 -125 44q-84 0 -150 -18q-57 -16 -167 -64l-31 31l82 215q171 61 348 61q197 0 313 -82q117 -83 117 -235v-430
q0 -86 57 -86q31 0 66 14v-184q-44 -29 -114 -45q-68 -16 -122 -16q-96 0 -154 34t-81 125zM631 471l-154 -51q-34 -11 -54 -31q-17 -17 -17 -61q0 -45 29 -68q30 -24 71 -24q68 0 125 57v178z" />
    <glyph glyph-name="b" unicode="b" horiz-adv-x="1173" 
d="M748 1044q171 0 269 -143q99 -144 99 -389q0 -248 -130 -390t-361 -142q-184 0 -320 79l-80 -69h-123v1403l246 82h103v-590l122 108q83 51 175 51zM573 184q104 0 144 82q41 84 41 246q0 287 -174 287q-82 0 -133 -51v-543q67 -21 122 -21z" />
    <glyph glyph-name="c" unicode="c" horiz-adv-x="976" 
d="M618 799q-102 0 -153 -79q-51 -80 -51 -208q0 -287 233 -287q134 0 268 82v-246q-138 -81 -348 -81q-246 0 -379 146t-133 386t136 386t397 146q188 0 348 -71l-62 -205l-30 -31q-129 62 -226 62z" />
    <glyph glyph-name="d" unicode="d" horiz-adv-x="1175" 
d="M1073 1475v-1475h-338l-10 139l-123 -108q-82 -51 -174 -51q-171 0 -269 143q-100 145 -100 389q0 245 118 388q119 144 312 144q135 0 236 -55v404l246 82h102zM592 225q82 0 133 51v517q-55 26 -133 26q-174 0 -174 -307q0 -287 174 -287z" />
    <glyph glyph-name="e" unicode="e" horiz-adv-x="1095" 
d="M1049 666q0 -89 -35 -226h-594q17 -108 83 -161q68 -54 165 -54q72 0 166 25q91 24 143 57v-246q-138 -81 -389 -81q-261 0 -397 146t-136 386t136 386t397 146q206 0 333 -88q128 -89 128 -290zM418 596l293 18q10 39 10 78q0 64 -36 95q-37 32 -87 32q-156 0 -180 -223
z" />
    <glyph glyph-name="f" unicode="f" horiz-adv-x="739" 
d="M150 1024v61q0 110 31 185q30 74 82 119q49 43 135 67q88 25 166 32q76 7 200 7v-260l-41 -21q-69 15 -117 15q-108 0 -108 -117v-88h225v-246h-225v-778h-348v778h-103v144z" />
    <glyph glyph-name="g" unicode="g" horiz-adv-x="1110" 
d="M408 244l385 -39q132 -12 215 -87q82 -75 82 -210q0 -379 -582 -379q-250 0 -377 64t-127 165q0 111 119 168l143 -37l-8 -36q0 -65 57 -92t179 -27q258 0 258 102q0 23 -13 39t-29 20q-17 4 -53 9l-366 35q-103 11 -152 61t-49 123q0 139 180 246q-204 79 -204 327
q0 167 117 257q118 91 343 91q108 0 191 -18l352 18v-184h-115q33 -72 33 -164q0 -368 -461 -368q-35 0 -82 4zM524 829q-67 0 -99 -41t-32 -92q0 -153 139 -153q127 0 127 153q0 64 -33 98q-34 35 -102 35z" />
    <glyph glyph-name="h" unicode="h" 
d="M455 860l98 123q106 61 215 61q130 0 213 -79q84 -80 84 -228v-737h-348v666q0 112 -103 112q-62 0 -163 -57v-721h-349v1393l246 82h103v-615h4z" />
    <glyph glyph-name="i" unicode="i" horiz-adv-x="552" 
d="M92 1311q0 69 51 116q53 48 133 48q81 0 134 -48q51 -47 51 -116q0 -71 -50 -118q-49 -46 -135 -46q-85 0 -134 46q-50 47 -50 118zM451 1024v-1024h-349v1024h349z" />
    <glyph glyph-name="j" unicode="j" horiz-adv-x="552" 
d="M92 1311q0 69 51 116q53 48 133 48q81 0 134 -48q51 -47 51 -116q0 -71 -50 -118q-49 -46 -135 -46q-85 0 -134 46q-50 47 -50 118zM451 1024v-983q0 -162 -77 -284q-77 -123 -272 -208l-143 205q89 62 117 115q26 49 26 172v983h349z" />
    <glyph glyph-name="k" unicode="k" horiz-adv-x="1191" 
d="M348 1475h103v-1475h-349v1393zM819 0l-327 532l327 492h318v-61l-277 -400l318 -502v-61h-359z" />
    <glyph glyph-name="l" unicode="l" horiz-adv-x="598" 
d="M344 1475h102v-1178q0 -86 58 -86q30 0 65 14v-205q-81 -40 -215 -40q-106 0 -181 42t-75 142v1229z" />
    <glyph glyph-name="m" unicode="m" horiz-adv-x="1753" 
d="M1047 844l100 139q106 61 215 61q130 0 213 -79q84 -80 84 -228v-737h-348v666q0 112 -103 112q-15 0 -22 -1q-14 -2 -20 -3q-7 -1 -20 -6l-18 -6t-18 -9l-16 -10q-4 -1 -20 -11q-18 -10 -19 -11v-721h-348v666q0 112 -103 112q-15 0 -22 -1q-14 -2 -20 -3q-7 -1 -20 -6
l-18 -6t-18 -9q-15 -9 -17 -10q-1 -1 -19 -11q-17 -10 -19 -11v-721h-349v1024h338l11 -164h4l98 123q106 61 215 61q102 0 176 -51q74 -52 98 -149h5z" />
    <glyph glyph-name="n" unicode="n" 
d="M451 860h4l98 123q106 61 215 61q130 0 213 -79q84 -80 84 -228v-737h-348v666q0 112 -103 112q-62 0 -163 -57v-721h-349v1024h338z" />
    <glyph glyph-name="o" unicode="o" horiz-adv-x="1155" 
d="M578 -20q-250 0 -387 141q-136 140 -136 391t136 391q137 141 387 141t386 -141q136 -140 136 -391t-136 -391q-136 -141 -386 -141zM578 819q-94 0 -129 -78q-35 -79 -35 -229t35 -229q35 -78 129 -78t129 78q34 77 34 229t-34 229q-35 78 -129 78z" />
    <glyph glyph-name="p" unicode="p" horiz-adv-x="1175" 
d="M748 1044q171 0 269 -143q99 -144 99 -389t-118 -388q-118 -144 -312 -144q-122 0 -235 55v-486h-349v1475h338l11 -139l122 108q83 51 175 51zM584 205q174 0 174 307q0 287 -174 287q-82 0 -133 -51v-519q69 -24 133 -24z" />
    <glyph glyph-name="q" unicode="q" horiz-adv-x="1173" 
d="M1071 1034v-1485h-348v590l-123 -108q-82 -51 -174 -51q-171 0 -269 143q-100 145 -100 389q0 248 130 390t362 142q187 0 325 -83l95 73h102zM590 225q82 0 133 51v543q-67 21 -123 21q-103 0 -143 -82q-41 -84 -41 -246q0 -287 174 -287z" />
    <glyph glyph-name="r" unicode="r" horiz-adv-x="878" 
d="M451 819h4l98 164q88 61 182 61q62 0 135 -20l-104 -301q-56 14 -111 14q-105 0 -204 -57v-680h-349v1024h338z" />
    <glyph glyph-name="s" unicode="s" horiz-adv-x="909" 
d="M498 799q-82 0 -82 -51q0 -30 46 -54q52 -27 112 -50q76 -29 134 -61q65 -36 112 -105q46 -68 46 -161q0 -154 -112 -245q-113 -92 -297 -92q-187 0 -369 71l-31 256q191 -82 359 -82q92 0 92 56q0 29 -45 54q-47 27 -110 53q-53 22 -130 66q-64 37 -110 108
q-45 70 -45 165q0 159 119 238t290 79q188 0 348 -71l-61 -205l-31 -31q-129 62 -235 62z" />
    <glyph glyph-name="t" unicode="t" horiz-adv-x="774" 
d="M49 778v144l92 102l226 246h122v-246h236v-246h-236v-436q0 -96 113 -96q70 0 123 20v-246q-99 -40 -242 -40q-181 0 -261 70q-81 71 -81 239v489h-92z" />
    <glyph glyph-name="u" unicode="u" 
d="M709 164h-4l-99 -123q-106 -61 -215 -61q-130 0 -213 79q-84 79 -84 228v737h348v-666q0 -112 103 -112q63 0 164 57v721h348v-1024h-338z" />
    <glyph glyph-name="v" unicode="v" horiz-adv-x="1103" 
d="M772 -10h-448l-291 973v61h348l182 -686h4l172 686h338v-61z" />
    <glyph glyph-name="w" unicode="w" horiz-adv-x="1683" 
d="M1661 1024v-61l-275 -973h-448l-100 510l-127 -510h-449l-219 973v61h348l121 -686h4l152 686h379l120 -686h4l152 686h338z" />
    <glyph glyph-name="x" unicode="x" horiz-adv-x="1081" 
d="M1061 61v-61h-361l-172 254l-174 -254h-338v61l328 463l-297 439v61h356l156 -227l154 227h327v-61l-303 -428z" />
    <glyph glyph-name="y" unicode="y" horiz-adv-x="1095" 
d="M27 963v61h348l182 -686h4l172 686h338v-61l-205 -646q-140 -446 -379 -768h-389v62q162 182 246 348z" />
    <glyph glyph-name="z" unicode="z" horiz-adv-x="964" 
d="M485 246h430l-41 -246h-819v205l420 573h-420l72 246h768v-205z" />
    <glyph glyph-name="braceleft" unicode="{" horiz-adv-x="698" 
d="M346 698v-4q207 -27 207 -182q0 -70 -31 -172q-30 -99 -30 -156q0 -69 30 -116q31 -48 101 -48v-184q-265 0 -373 61q-107 60 -107 205q0 80 31 198t31 151q0 84 -31 109q-30 24 -115 24v225q85 0 115 24q31 25 31 109q0 33 -31 151t-31 197q0 146 107 206q106 60 373 60
v-184q-71 0 -101 -47t-30 -117q0 -56 30 -155q31 -102 31 -172q0 -79 -51 -122q-52 -45 -156 -61z" />
    <glyph glyph-name="bar" unicode="|" horiz-adv-x="518" 
d="M377 1434v-1475h-236v1475h236z" />
    <glyph glyph-name="braceright" unicode="}" horiz-adv-x="700" 
d="M354 694v4q-102 16 -155 61q-52 44 -52 122q0 70 31 172t31 155q0 69 -31 117q-30 47 -100 47v184q266 0 373 -60q106 -60 106 -206q0 -79 -31 -197q-30 -114 -30 -151q0 -85 30 -109t115 -24v-225q-85 0 -115 -24t-30 -109q0 -37 30 -151q31 -118 31 -198
q0 -145 -106 -205q-108 -61 -373 -61v184q69 0 100 48t31 116q0 54 -31 156t-31 172q0 155 207 182z" />
    <glyph glyph-name="asciitilde" unicode="~" horiz-adv-x="923" 
d="M242 1126h-154q2 131 65 220q63 88 160 88q71 0 175 -52q102 -51 133 -51q69 0 81 82h144q-10 -307 -195 -307q-63 0 -179 51t-148 51q-22 0 -33 -4q-13 -5 -27 -23t-22 -55z" />
    <glyph glyph-name="exclamdown" unicode="&#xa1;" horiz-adv-x="540" 
d="M127 895q0 62 43 105q44 44 104 44q62 0 106 -44t44 -105t-44 -105q-45 -45 -106 -45q-59 0 -104 45q-43 43 -43 105zM373 635l82 -1004h-369l82 1004h205z" />
    <glyph glyph-name="cent" unicode="&#xa2;" horiz-adv-x="1236" 
d="M1167 399l-20 -317q-164 -78 -313 -96v-88h-164v82q-310 12 -454 188t-144 528q0 354 144 529q144 176 454 188v82h164v-88q149 -18 313 -96v-307q-171 86 -313 104v-823q169 21 333 114zM451 696q0 -88 8 -158q8 -68 31 -125q23 -56 68 -92q43 -34 112 -42v835
q-69 -8 -112 -42q-45 -36 -68 -92q-23 -57 -31 -125q-8 -70 -8 -159z" />
    <glyph glyph-name="sterling" unicode="&#xa3;" horiz-adv-x="1142" 
d="M1073 307l-20 -307h-953v276q205 67 205 256q0 17 -2 31h-203v205h76q-86 109 -86 236q0 196 138 303q137 106 343 106q253 0 471 -102v-307q-240 112 -419 112q-134 0 -134 -102q0 -46 22 -85q20 -36 69 -88q43 -46 63 -73h338v-205h-276q-11 -169 -123 -246v-10h491z
" />
    <glyph glyph-name="currency" unicode="&#xa4;" horiz-adv-x="1357" 
d="M831 276q237 0 451 123l-20 -317q-218 -102 -431 -102q-269 0 -419 110q-152 111 -201 340h-148v205h125l-2 61q0 34 2 62h-125v205h148q49 229 201 340q150 110 419 110q213 0 431 -102v-307q-224 112 -431 112q-177 0 -233 -153h367v-205h-400v-62v-61h400v-205h-367
q56 -154 233 -154z" />
    <glyph glyph-name="yen" unicode="&#xa5;" horiz-adv-x="1308" 
d="M1260 1331l-367 -768h244v-205h-308v-358h-368v358h-307v205h252l-355 768v62h371l151 -369q81 -201 89 -225h4q32 105 82 225l157 369h355v-62z" />
    <glyph glyph-name="brokenbar" unicode="&#xa6;" horiz-adv-x="518" 
d="M377 1434v-656h-236v656h236zM377 614v-655h-236v655h236z" />
    <glyph glyph-name="section" unicode="&#xa7;" horiz-adv-x="1122" 
d="M80 1290q0 211 137 321q136 109 344 109q253 0 471 -102v-307q-240 112 -440 112q-133 0 -133 -102q0 -51 93 -117t204 -123q108 -55 203 -146q94 -89 94 -181q0 -82 -46 -128t-137 -87q-58 69 -164 141q-108 74 -210 135q-101 61 -200 131q-95 67 -157 157
q-59 86 -59 187zM1042 104q0 -210 -137 -320t-344 -110q-251 0 -471 103v307q243 -113 440 -113q134 0 134 103q0 49 -94 116q-96 68 -203 123q-108 55 -204 147q-93 89 -93 181q0 82 46 128q47 47 136 87q57 -68 165 -141t210 -135q94 -57 199 -131q95 -67 157 -157
q59 -86 59 -188z" />
    <glyph glyph-name="dieresis" unicode="&#xa8;" horiz-adv-x="1024" 
d="M143 1294q0 67 47 108q46 40 119 40t119 -40q47 -41 47 -108q0 -66 -47 -107q-46 -40 -119 -40t-119 40q-47 41 -47 107zM549 1294q0 67 47 108q46 40 119 40t119 -40q47 -41 47 -108q0 -66 -47 -107q-46 -40 -119 -40t-119 40q-47 41 -47 107z" />
    <glyph glyph-name="copyright" unicode="&#xa9;" horiz-adv-x="1560" 
d="M780 -20q-298 0 -507 209q-210 210 -210 507t210 507t507 210t507 -210t210 -507t-210 -507q-209 -209 -507 -209zM780 104q243 0 418 175q174 174 174 417q0 244 -174 418t-418 174q-246 0 -419 -174q-173 -175 -173 -418q0 -242 173 -417t419 -175zM444 696
q0 206 88 304q89 100 277 100q119 0 244 -58v-172q-124 62 -244 62q-87 0 -117 -60t-30 -176t30 -176q30 -59 117 -59q143 0 256 67l-12 -178q-123 -57 -244 -57q-189 0 -277 99q-88 98 -88 304z" />
    <glyph glyph-name="ordfeminine" unicode="&#xaa;" horiz-adv-x="806" 
d="M444 811l-82 -74q-51 -32 -114 -32q-91 0 -142 52q-51 53 -51 132q0 161 193 205l196 41v26q0 103 -108 103q-91 0 -211 -56l-21 21l54 143q112 41 233 41q129 0 201 -54t72 -157v-287q0 -57 38 -57q22 0 43 10v-123q-59 -40 -143 -40q-134 0 -158 106zM444 1032
l-108 -35q-47 -15 -47 -61q0 -29 19 -45q20 -17 46 -17q51 0 90 39v119zM59 489v119h697v-119h-697z" />
    <glyph glyph-name="guillemotleft" unicode="&#xab;" horiz-adv-x="1200" 
d="M616 297l-133 -143l-409 327v144l409 327l133 -143l-245 -256zM1128 297l-133 -143l-409 327v144l409 327l133 -143l-245 -256z" />
    <glyph glyph-name="logicalnot" unicode="&#xac;" horiz-adv-x="991" 
d="M682 190v261h-584v204h789v-465h-205z" />
    <glyph glyph-name="softhyphen" unicode="&#xad;" horiz-adv-x="925" 
d="M104 481v205h717v-205h-717z" />
    <glyph glyph-name="registered" unicode="&#xae;" horiz-adv-x="1560" 
d="M780 1413q297 0 507 -210t210 -507t-210 -507q-209 -209 -507 -209t-507 209q-210 210 -210 507t210 507t507 210zM780 104q243 0 418 175q174 174 174 417q0 244 -174 418t-418 174q-246 0 -419 -174q-173 -175 -173 -418q0 -242 173 -417t419 -175zM977 616v-12
q55 -22 88 -102l63 -164v-35h-219l-96 234q-10 26 -26 32q-15 6 -46 6h-41v-272h-206v787h276q163 0 241 -64q76 -63 76 -197q0 -157 -110 -213zM700 748h70q60 0 82 18t22 63q0 48 -22 67t-82 19h-70v-167z" />
    <glyph glyph-name="macron" unicode="&#xaf;" horiz-adv-x="962" 
d="M164 1147v184h635v-184h-635z" />
    <glyph glyph-name="degree" unicode="&#xb0;" horiz-adv-x="632" 
d="M63 1161q0 110 74 181t178 71t180 -71q74 -70 74 -181t-74 -182q-75 -72 -180 -72q-104 0 -178 72t-74 182zM215 1161q0 -40 26 -71t74 -31q51 0 77 31t26 71t-26 71q-25 30 -77 30q-49 0 -74 -30q-26 -31 -26 -71z" />
    <glyph glyph-name="plusminus" unicode="&#xb1;" horiz-adv-x="905" 
d="M811 727v-205h-256v-215h-205v215h-256v205h256v215h205v-215h256zM94 236h717v-205h-717v205z" />
    <glyph glyph-name="twosuperior" unicode="&#xb2;" horiz-adv-x="716" 
d="M662 946l-13 -184h-596v184q369 206 369 359q0 127 -129 127q-99 0 -227 -68v184q126 62 270 62q146 0 233 -70q86 -69 86 -219q0 -81 -32 -144q-33 -65 -94 -109q-66 -48 -107 -69q-50 -26 -111 -49v-4h351z" />
    <glyph glyph-name="threesuperior" unicode="&#xb3;" horiz-adv-x="735" 
d="M492 1202v-6q91 -17 143 -69q49 -49 49 -119q0 -130 -94 -194t-250 -64q-167 0 -289 61v190q118 -73 252 -73q154 0 154 90q0 88 -178 88h-109v160h109q172 0 172 86q0 80 -142 80q-109 0 -239 -68v184q118 62 276 62q139 0 233 -56q93 -56 93 -165q0 -148 -180 -187z
" />
    <glyph glyph-name="acute" unicode="&#xb4;" horiz-adv-x="778" 
d="M164 1225l209 168q70 53 114 53q49 0 81 -29t32 -71q0 -86 -94 -119l-293 -101z" />
    <glyph glyph-name="paragraph" unicode="&#xb6;" horiz-adv-x="1286" 
d="M760 0v1044h-144v-573h-81q-229 0 -356 122q-126 121 -126 347q0 224 125 338q126 115 357 115h593v-1393h-368z" />
    <glyph glyph-name="periodcentered" unicode="&#xb7;" horiz-adv-x="475" 
d="M88 580q0 61 44 105t106 44q61 0 105 -44t44 -105q0 -62 -44 -106t-105 -44q-62 0 -106 44t-44 106z" />
    <glyph glyph-name="cedilla" unicode="&#xb8;" horiz-adv-x="763" 
d="M389 0v-61q99 0 155 -43t56 -119q0 -77 -53 -132t-158 -55q-107 0 -184 37v103q58 -23 102 -23q105 0 105 72q0 35 -36 56q-38 22 -100 22v143h113z" />
    <glyph glyph-name="onesuperior" unicode="&#xb9;" horiz-adv-x="479" 
d="M156 762v651h-123v160l203 31h141v-842h-221z" />
    <glyph glyph-name="ordmasculine" unicode="&#xba;" horiz-adv-x="792" 
d="M391 705q-166 0 -250 93t-84 261t84 261t250 93t250 -93t84 -261t-84 -261t-250 -93zM391 1264q-61 0 -85 -53q-23 -50 -23 -152q0 -103 23 -153q24 -52 85 -52t85 52t24 153q0 99 -24 152t-85 53zM49 489v119h696v-119h-696z" />
    <glyph glyph-name="guillemotright" unicode="&#xbb;" horiz-adv-x="1200" 
d="M72 809l133 143l409 -327v-144l-409 -327l-133 143l245 256zM584 809l133 143l409 -327v-144l-409 -327l-133 143l245 256z" />
    <glyph glyph-name="onequarter" unicode="&#xbc;" horiz-adv-x="1832" 
d="M174 557v651h-123v160l203 31h141v-842h-221zM1434 1393l-500 -666l-143 41l356 625h287zM1778 135h-99v-135h-221v135h-387v197l399 510h209v-523h99v-184zM737 686l144 -41l-369 -645h-287zM1458 319v201l-166 -201h166z" />
    <glyph glyph-name="onehalf" unicode="&#xbd;" horiz-adv-x="1873" 
d="M174 557v651h-123v160l203 31h141v-842h-221zM1434 1393l-500 -666l-143 41l356 625h287zM1810 184l-12 -184h-596v184q369 206 369 359q0 127 -129 127q-100 0 -228 -68v184q126 62 271 62q146 0 233 -70q86 -69 86 -219q0 -81 -32 -144q-33 -65 -94 -109t-107 -68
q-57 -29 -111 -50v-4h350zM737 686l144 -41l-369 -645h-287z" />
    <glyph glyph-name="threequarters" unicode="&#xbe;" horiz-adv-x="2091" 
d="M702 803q0 -130 -94 -194t-250 -64q-166 0 -288 61v191q119 -74 252 -74q153 0 153 90q0 88 -178 88h-109v160h109q172 0 172 86q0 80 -141 80q-110 0 -240 -68v184q118 62 277 62q140 0 232 -55q93 -56 93 -166q0 -148 -180 -187v-6q93 -18 143 -68q49 -49 49 -120z
M1692 1393l-500 -666l-143 41l356 625h287zM2036 135h-99v-135h-221v135h-387v197l400 510h208v-523h99v-184zM995 686l144 -41l-369 -645h-287zM1716 319v201l-166 -201h166z" />
    <glyph glyph-name="questiondown" unicode="&#xbf;" horiz-adv-x="1069" 
d="M827 895q0 -62 -43 -105q-45 -45 -104 -45q-61 0 -106 45q-44 44 -44 105t44 105t106 44q60 0 104 -44q43 -43 43 -105zM49 31q0 116 34 197q35 84 82 128q48 45 122 72q71 26 134 34q56 7 136 7l14 166h205l29 -385q-182 0 -285 -41q-102 -40 -102 -150q0 -57 45 -104
t139 -47q170 0 410 112v-307q-218 -102 -482 -102q-209 0 -345 109t-136 311z" />
    <glyph glyph-name="Agrave" unicode="&#xc0;" horiz-adv-x="1284" 
d="M682 1495l-293 100q-94 33 -94 119q0 43 32 72t81 29q43 0 114 -54l209 -168zM1264 61v-61h-365l-76 266h-385l-76 -266h-348v61l404 1342h456zM737 573l-37 134q-25 86 -67 297h-4q-38 -185 -68 -297l-37 -134h213z" />
    <glyph glyph-name="Aacute" unicode="&#xc1;" horiz-adv-x="1284" 
d="M584 1495l-49 98l208 168q71 54 115 54q49 0 81 -29t32 -72q0 -86 -94 -119zM1264 61v-61h-365l-76 266h-385l-76 -266h-348v61l404 1342h456zM737 573l-37 134q-25 86 -67 297h-4q-38 -185 -68 -297l-37 -134h213z" />
    <glyph glyph-name="Acircumflex" unicode="&#xc2;" horiz-adv-x="1284" 
d="M489 1495h-167l243 369h148l243 -369h-168l-149 154zM1264 61v-61h-365l-76 266h-385l-76 -266h-348v61l404 1342h456zM737 573l-37 134q-25 86 -67 297h-4q-38 -185 -68 -297l-37 -134h213z" />
    <glyph glyph-name="Atilde" unicode="&#xc3;" horiz-adv-x="1284" 
d="M496 1577q-22 0 -33 -4q-12 -5 -27 -24q-14 -19 -22 -54h-154q1 130 65 219q63 88 160 88q73 0 175 -51t133 -51q69 0 81 82h144q-10 -307 -195 -307q-63 0 -179 51q-115 51 -148 51zM1264 61v-61h-365l-76 266h-385l-76 -266h-348v61l404 1342h456zM737 573l-37 134
q-25 86 -67 297h-4q-38 -185 -68 -297l-37 -134h213z" />
    <glyph glyph-name="Adieresis" unicode="&#xc4;" horiz-adv-x="1284" 
d="M436 1516q-74 0 -119 39q-47 41 -47 108q0 66 47 107q46 40 119 40t119 -40q47 -41 47 -107q0 -67 -47 -108q-45 -39 -119 -39zM842 1516q-74 0 -119 39q-47 41 -47 108q0 66 47 107q46 40 119 40t119 -40q47 -41 47 -107q0 -67 -47 -108q-45 -39 -119 -39zM1264 61v-61
h-365l-76 266h-385l-76 -266h-348v61l404 1342h456zM737 573l-37 134q-25 86 -67 297h-4q-38 -185 -68 -297l-37 -134h213z" />
    <glyph glyph-name="Aring" unicode="&#xc5;" horiz-adv-x="1284" 
d="M639 1464q-84 0 -136 49t-52 129q0 82 52 131q53 50 136 50t135 -51q53 -51 53 -130q0 -80 -52 -129t-136 -49zM639 1720q-37 0 -58 -21q-22 -22 -22 -57q0 -32 22 -54q21 -21 58 -21t58 21q22 22 22 54q0 35 -22 57q-21 21 -58 21zM1264 61v-61h-365l-76 266h-385
l-76 -266h-348v61l404 1342h456zM737 573l-37 134q-25 86 -67 297h-4q-38 -185 -68 -297l-37 -134h213z" />
    <glyph glyph-name="AE" unicode="&#xc6;" horiz-adv-x="1775" 
d="M1718 307l-20 -307h-912v266h-321l-109 -266h-368v61l587 1332h1123v-308h-543v-215h451v-307h-451v-256h563zM786 573v512h-14q-61 -216 -94 -297l-88 -215h196z" />
    <glyph glyph-name="Ccedilla" unicode="&#xc7;" horiz-adv-x="1216" 
d="M1161 399l-20 -317q-198 -91 -385 -102v-41q98 0 154 -43q57 -44 57 -119q0 -76 -54 -132q-53 -55 -157 -55q-110 0 -185 37v103q57 -23 103 -23q104 0 104 72q0 35 -36 56q-38 22 -99 22v125q-299 16 -438 192q-139 175 -139 522q0 367 155 541q156 176 490 176
q213 0 430 -102v-307q-224 112 -430 112q-83 0 -137 -30q-55 -30 -81 -89q-28 -62 -38 -130q-11 -74 -11 -171t11 -171q10 -68 38 -130q26 -59 81 -89q54 -30 137 -30q235 0 450 123z" />
    <glyph glyph-name="Egrave" unicode="&#xc8;" horiz-adv-x="1171" 
d="M645 1495l-293 100q-94 33 -94 119q0 43 32 72t81 29q43 0 114 -54l209 -168zM489 1085v-215h512v-307h-512v-256h625l-20 -307h-973v1393h973v-308h-605z" />
    <glyph glyph-name="Eacute" unicode="&#xc9;" horiz-adv-x="1171" 
d="M498 1593l209 168q71 54 114 54q49 0 81 -29t32 -72q0 -86 -94 -119l-293 -100zM489 1085v-215h512v-307h-512v-256h625l-20 -307h-973v1393h973v-308h-605z" />
    <glyph glyph-name="Ecircumflex" unicode="&#xca;" horiz-adv-x="1171" 
d="M285 1495l243 369h148l244 -369h-168l-150 154l-149 -154h-168zM489 1085v-215h512v-307h-512v-256h625l-20 -307h-973v1393h973v-308h-605z" />
    <glyph glyph-name="Edieresis" unicode="&#xcb;" horiz-adv-x="1171" 
d="M233 1663q0 65 48 107q46 40 118 40q73 0 119 -40q47 -41 47 -107q0 -67 -47 -108q-45 -39 -119 -39q-73 0 -118 39q-48 42 -48 108zM639 1663q0 66 47 107q46 40 119 40t119 -40q47 -41 47 -107q0 -67 -47 -108q-45 -39 -119 -39t-119 39q-47 41 -47 108zM489 1085v-215
h512v-307h-512v-256h625l-20 -307h-973v1393h973v-308h-605z" />
    <glyph glyph-name="Igrave" unicode="&#xcc;" horiz-adv-x="610" 
d="M348 1495l-293 100q-94 33 -94 119q0 43 32 72t81 29q43 0 114 -54l209 -168zM489 1393v-1393h-368v1393h368z" />
    <glyph glyph-name="Iacute" unicode="&#xcd;" horiz-adv-x="610" 
d="M201 1593l209 168q71 54 114 54q49 0 81 -29t32 -72q0 -86 -94 -119l-293 -100zM489 1393v-1393h-368v1393h368z" />
    <glyph glyph-name="Icircumflex" unicode="&#xce;" horiz-adv-x="610" 
d="M-12 1495l243 369h148l244 -369h-168l-150 154l-149 -154h-168zM489 1393v-1393h-368v1393h368z" />
    <glyph glyph-name="Idieresis" unicode="&#xcf;" horiz-adv-x="610" 
d="M-63 1663q0 66 47 107q46 40 118 40q73 0 119 -40q47 -41 47 -107q0 -67 -47 -108q-45 -39 -119 -39q-73 0 -118 39q-47 41 -47 108zM342 1663q0 66 47 107q46 40 119 40t119 -40q47 -41 47 -107q0 -67 -47 -108q-45 -39 -119 -39t-119 39q-47 41 -47 108zM489 1393
v-1393h-368v1393h368z" />
    <glyph glyph-name="Eth" unicode="&#xd0;" horiz-adv-x="1376" 
d="M131 1393h553q333 0 479 -167t146 -519q0 -357 -147 -532t-478 -175h-553v563h-102v266h102v564zM500 307h184q140 0 193 83t53 317q0 232 -52 305t-194 73h-184v-256h245v-266h-245v-256z" />
    <glyph glyph-name="Ntilde" unicode="&#xd1;" horiz-adv-x="1357" 
d="M444 1495h-153q2 131 64 219q63 88 161 88q73 0 175 -51t132 -51q70 0 82 82h144q-10 -307 -195 -307q-64 0 -179 51t-149 51q-21 0 -32 -4q-12 -5 -27 -24q-16 -20 -23 -54zM489 1393l410 -727h10q-20 186 -20 434v293h348v-1393h-369l-409 727h-10q20 -186 20 -434
v-293h-348v1393h368z" />
    <glyph glyph-name="Ograve" unicode="&#xd2;" horiz-adv-x="1380" 
d="M733 1495l-293 100q-94 33 -94 119q0 43 32 72t81 29q43 0 114 -54l209 -168zM690 -20q-330 0 -477 184t-147 543q0 357 146 531q147 175 478 175t478 -175q147 -176 147 -531q0 -357 -148 -543q-147 -184 -477 -184zM690 1116q-140 0 -192 -87q-54 -89 -54 -322
q0 -236 55 -334q55 -97 191 -97q137 0 192 97q54 96 54 334q0 234 -53 322q-53 87 -193 87z" />
    <glyph glyph-name="Oacute" unicode="&#xd3;" horiz-adv-x="1380" 
d="M586 1593l209 168q71 54 114 54q49 0 81 -29t32 -72q0 -86 -94 -119l-293 -100zM690 -20q-330 0 -477 184t-147 543q0 357 146 531q147 175 478 175t478 -175q147 -176 147 -531q0 -357 -148 -543q-147 -184 -477 -184zM690 1116q-140 0 -192 -87q-54 -89 -54 -322
q0 -236 55 -334q55 -97 191 -97q137 0 192 97q54 96 54 334q0 234 -53 322q-53 87 -193 87z" />
    <glyph glyph-name="Ocircumflex" unicode="&#xd4;" horiz-adv-x="1380" 
d="M373 1495l243 369h148l244 -369h-168l-150 154l-149 -154h-168zM690 -20q-330 0 -477 184t-147 543q0 357 146 531q147 175 478 175t478 -175q147 -176 147 -531q0 -357 -148 -543q-147 -184 -477 -184zM690 1116q-140 0 -192 -87q-54 -89 -54 -322q0 -236 55 -334
q55 -97 191 -97q137 0 192 97q54 96 54 334q0 234 -53 322q-53 87 -193 87z" />
    <glyph glyph-name="Otilde" unicode="&#xd5;" horiz-adv-x="1380" 
d="M465 1495h-154q1 130 65 219q63 88 161 88q73 0 175 -51t132 -51q70 0 82 82h143q-10 -307 -195 -307q-64 0 -179 51q-116 51 -148 51q-22 0 -33 -4q-12 -5 -27 -24q-14 -19 -22 -54zM690 -20q-330 0 -477 184t-147 543q0 357 146 531q147 175 478 175t478 -175
q147 -176 147 -531q0 -357 -148 -543q-147 -184 -477 -184zM690 1116q-140 0 -192 -87q-54 -89 -54 -322q0 -236 55 -334q55 -97 191 -97q137 0 192 97q54 96 54 334q0 234 -53 322q-53 87 -193 87z" />
    <glyph glyph-name="Odieresis" unicode="&#xd6;" horiz-adv-x="1380" 
d="M322 1663q0 66 47 107q46 40 118 40q73 0 119 -40q47 -41 47 -107q0 -67 -47 -108q-45 -39 -119 -39q-73 0 -118 39q-47 41 -47 108zM727 1663q0 66 47 107q46 40 119 40t119 -40q47 -41 47 -107q0 -67 -47 -108q-45 -39 -119 -39t-119 39q-47 41 -47 108zM690 -20
q-330 0 -477 184t-147 543q0 357 146 531q147 175 478 175t478 -175q147 -176 147 -531q0 -357 -148 -543q-147 -184 -477 -184zM690 1116q-140 0 -192 -87q-54 -89 -54 -322q0 -236 55 -334q55 -97 191 -97q137 0 192 97q54 96 54 334q0 234 -53 322q-53 87 -193 87z" />
    <glyph glyph-name="multiply" unicode="&#xd7;" horiz-adv-x="913" 
d="M457 397l-240 -237l-143 143l237 240l-237 239l143 144l240 -238l239 238l144 -144l-238 -239l238 -240l-144 -143z" />
    <glyph glyph-name="Oslash" unicode="&#xd8;" horiz-adv-x="1380" 
d="M1161 1516l-92 -193q246 -156 246 -616q0 -357 -148 -543q-147 -184 -477 -184q-147 0 -244 32l-63 -135h-164l94 197q-247 163 -247 633q0 357 146 531q147 175 478 175q136 0 244 -31l63 134h164zM444 707q0 -189 33 -285l322 678q-38 16 -109 16q-140 0 -192 -87
q-54 -89 -54 -322zM690 276q137 0 192 97q54 96 54 334q0 183 -31 270l-323 -682q49 -19 108 -19z" />
    <glyph glyph-name="Ugrave" unicode="&#xd9;" horiz-adv-x="1345" 
d="M700 1495l-292 100q-95 33 -95 119q0 43 32 72t81 29q44 0 115 -54l209 -168zM672 -20q-118 0 -214 25q-98 25 -177 81q-80 56 -126 154t-46 231v922h368v-922q0 -89 54 -142q55 -53 141 -53q85 0 140 53q54 53 54 142v922h369v-922q0 -258 -156 -375
q-155 -116 -407 -116z" />
    <glyph glyph-name="Uacute" unicode="&#xda;" horiz-adv-x="1345" 
d="M553 1593l209 168q71 54 115 54q48 0 80 -29t32 -72q0 -86 -94 -119l-293 -100zM672 -20q-118 0 -214 25q-98 25 -177 81q-80 56 -126 154t-46 231v922h368v-922q0 -89 54 -142q55 -53 141 -53q85 0 140 53q54 53 54 142v922h369v-922q0 -258 -156 -375
q-155 -116 -407 -116z" />
    <glyph glyph-name="Ucircumflex" unicode="&#xdb;" horiz-adv-x="1345" 
d="M340 1495l244 369h147l244 -369h-168l-150 154l-149 -154h-168zM672 -20q-118 0 -214 25q-98 25 -177 81q-80 56 -126 154t-46 231v922h368v-922q0 -89 54 -142q55 -53 141 -53q85 0 140 53q54 53 54 142v922h369v-922q0 -258 -156 -375q-155 -116 -407 -116z" />
    <glyph glyph-name="Udieresis" unicode="&#xdc;" horiz-adv-x="1345" 
d="M289 1663q0 66 47 107q46 40 119 40q72 0 118 -40q48 -42 48 -107q0 -66 -48 -108q-45 -39 -118 -39q-74 0 -119 39q-47 41 -47 108zM694 1663q0 66 47 107q46 40 119 40t119 -40q47 -41 47 -107q0 -67 -47 -108q-45 -39 -119 -39t-119 39q-47 41 -47 108zM672 -20
q-118 0 -214 25q-98 25 -177 81q-80 56 -126 154t-46 231v922h368v-922q0 -89 54 -142q55 -53 141 -53q85 0 140 53q54 53 54 142v922h369v-922q0 -258 -156 -375q-155 -116 -407 -116z" />
    <glyph glyph-name="Yacute" unicode="&#xdd;" horiz-adv-x="1222" 
d="M561 1495l-49 98l209 168q71 54 115 54q48 0 80 -29t32 -72q0 -86 -94 -119zM1221 1331l-430 -903v-428h-369v442l-410 889v62h371l152 -369q74 -183 88 -225h4q32 105 82 225l157 369h355v-62z" />
    <glyph glyph-name="Thorn" unicode="&#xde;" horiz-adv-x="1214" 
d="M489 1178h123q290 0 427 -116t137 -355q0 -241 -138 -362q-136 -120 -426 -120h-123v-225h-368v1393h368v-215zM489 532h123q104 0 144 43q41 44 41 132t-41 126q-40 37 -144 37h-123v-338z" />
    <glyph glyph-name="germandbls" unicode="&#xdf;" horiz-adv-x="1269" 
d="M150 1024v41q0 95 31 169q31 73 82 123q50 49 119 80q70 32 137 45q66 13 143 13q119 0 217 -29q97 -29 159 -100q64 -73 64 -178q0 -76 -37 -141t-81 -103q-45 -39 -81 -79q-37 -41 -37 -74t39 -65t95 -64q58 -33 112 -76q55 -43 94 -115t39 -164q0 -147 -105 -237
t-282 -90q-153 0 -258 40l-31 256q123 -51 211 -51q107 0 107 82q0 47 -51 95q-50 47 -113 84q-62 36 -113 98t-51 135q0 77 82 214t82 193q0 43 -27 73t-75 30q-123 0 -123 -176v-1053h-348v778h-103v144z" />
    <glyph glyph-name="agrave" unicode="&#xe0;" horiz-adv-x="1120" 
d="M598 1126l-293 101q-94 33 -94 119q0 42 32 71t81 29q44 0 114 -53l209 -168zM631 139l-123 -108q-82 -51 -174 -51q-137 0 -216 78q-81 80 -81 198q0 76 30 134q29 57 79 92q49 34 96 53q43 17 94 28l295 62v41q0 66 -39 109q-39 44 -125 44q-84 0 -150 -18
q-57 -16 -167 -64l-31 31l82 215q171 61 348 61q197 0 313 -82q117 -83 117 -235v-430q0 -86 57 -86q31 0 66 14v-184q-44 -29 -114 -45q-68 -16 -122 -16q-96 0 -154 34t-81 125zM631 471l-154 -51q-34 -11 -54 -31q-17 -17 -17 -61q0 -45 29 -68q30 -24 71 -24
q68 0 125 57v178z" />
    <glyph glyph-name="aacute" unicode="&#xe1;" horiz-adv-x="1120" 
d="M451 1225l208 168q70 53 115 53q49 0 81 -29t32 -71q0 -86 -94 -119l-293 -101zM631 139l-123 -108q-82 -51 -174 -51q-137 0 -216 78q-81 80 -81 198q0 76 30 134q29 57 79 92q49 34 96 53q43 17 94 28l295 62v41q0 66 -39 109q-39 44 -125 44q-84 0 -150 -18
q-57 -16 -167 -64l-31 31l82 215q171 61 348 61q197 0 313 -82q117 -83 117 -235v-430q0 -86 57 -86q31 0 66 14v-184q-44 -29 -114 -45q-68 -16 -122 -16q-96 0 -154 34t-81 125zM631 471l-154 -51q-34 -11 -54 -31q-18 -18 -18 -61q0 -44 30 -68t71 -24q68 0 125 57v178z
" />
    <glyph glyph-name="acircumflex" unicode="&#xe2;" horiz-adv-x="1120" 
d="M238 1126l243 369h148l243 -369h-167l-150 154l-149 -154h-168zM631 139l-123 -108q-82 -51 -174 -51q-137 0 -216 78q-81 80 -81 198q0 76 30 134q29 57 79 92q49 34 96 53q43 17 94 28l295 62v41q0 66 -39 109q-39 44 -125 44q-84 0 -150 -18q-57 -16 -167 -64l-31 31
l82 215q171 61 348 61q197 0 313 -82q117 -83 117 -235v-430q0 -86 57 -86q31 0 66 14v-184q-44 -29 -114 -45q-68 -16 -122 -16q-96 0 -154 34t-81 125zM631 471l-154 -51q-34 -11 -54 -31q-17 -17 -17 -61q0 -45 29 -68q30 -24 71 -24q68 0 125 57v178z" />
    <glyph glyph-name="atilde" unicode="&#xe3;" horiz-adv-x="1120" 
d="M330 1126h-154q2 131 65 220q63 88 160 88q72 0 176 -52q102 -51 132 -51q70 0 82 82h143q-10 -307 -195 -307q-63 0 -179 51t-148 51q-22 0 -33 -4q-13 -5 -27 -23t-22 -55zM631 139l-123 -108q-82 -51 -174 -51q-137 0 -216 78q-81 80 -81 198q0 76 30 134q29 57 79 92
q49 34 96 53q43 17 94 28l295 62v41q0 66 -39 109q-39 44 -125 44q-84 0 -150 -18q-57 -16 -167 -64l-31 31l82 215q171 61 348 61q197 0 313 -82q117 -83 117 -235v-430q0 -86 57 -86q31 0 66 14v-184q-44 -29 -114 -45q-68 -16 -122 -16q-96 0 -154 34t-81 125zM631 471
l-154 -51q-34 -11 -54 -31q-17 -17 -17 -61q0 -45 29 -68q30 -24 71 -24q68 0 125 57v178z" />
    <glyph glyph-name="adieresis" unicode="&#xe4;" horiz-adv-x="1120" 
d="M186 1294q0 67 47 108q46 40 119 40t119 -40q47 -41 47 -108q0 -66 -47 -107q-46 -40 -119 -40t-119 40q-47 41 -47 107zM592 1294q0 67 47 108q46 40 119 40t119 -40q47 -41 47 -108q0 -66 -47 -107q-46 -40 -119 -40t-119 40q-47 41 -47 107zM631 139l-123 -108
q-82 -51 -174 -51q-137 0 -216 78q-81 80 -81 198q0 76 30 134q29 57 79 92q49 34 96 53q43 17 94 28l295 62v41q0 66 -39 109q-39 44 -125 44q-84 0 -150 -18q-57 -16 -167 -64l-31 31l82 215q171 61 348 61q197 0 313 -82q117 -83 117 -235v-430q0 -86 57 -86q31 0 66 14
v-184q-44 -29 -114 -45q-68 -16 -122 -16q-96 0 -154 34t-81 125zM631 471l-154 -51q-34 -11 -54 -31q-18 -18 -18 -61q0 -44 30 -68t71 -24q68 0 125 57v178z" />
    <glyph glyph-name="aring" unicode="&#xe5;" horiz-adv-x="1120" 
d="M367 1274q0 81 52 130q53 50 136 50t135 -51q53 -51 53 -129q0 -80 -52 -129t-136 -49t-136 49t-52 129zM475 1274q0 -32 22 -54t58 -22t58 22t22 54q0 34 -22 56t-58 22t-58 -22t-22 -56zM631 139l-123 -108q-82 -51 -174 -51q-137 0 -216 78q-81 80 -81 198
q0 76 30 134q29 57 79 92q49 34 96 53q43 17 94 28l295 62v41q0 66 -39 109q-39 44 -125 44q-84 0 -150 -18q-57 -16 -167 -64l-31 31l82 215q171 61 348 61q197 0 313 -82q117 -83 117 -235v-430q0 -86 57 -86q31 0 66 14v-184q-44 -29 -114 -45q-68 -16 -122 -16
q-96 0 -154 34t-81 125zM631 471l-154 -51q-34 -11 -54 -31q-17 -17 -17 -61q0 -45 29 -68q30 -24 71 -24q68 0 125 57v178z" />
    <glyph glyph-name="ae" unicode="&#xe6;" horiz-adv-x="1658" 
d="M1612 666q0 -89 -35 -226h-594q17 -108 83 -161q68 -54 165 -54q72 0 166 25q91 24 143 57v-246q-138 -81 -389 -81q-313 0 -440 219l-195 -168q-82 -51 -194 -51q-135 0 -210 78q-77 80 -77 198q0 77 28 134q27 56 76 92q47 35 91 53q40 17 94 28l315 62v41
q0 66 -39 109q-39 44 -125 44q-83 0 -149 -18q-60 -16 -168 -64l-31 31l82 215q171 61 348 61q189 0 293 -75q115 75 301 75q206 0 333 -88q128 -89 128 -290zM981 596l293 18q10 39 10 78q0 64 -36 95q-37 32 -87 32q-156 0 -180 -223zM504 236q80 0 162 75q-21 69 -27 160
l-164 -51q-82 -24 -82 -92q0 -44 34 -68t77 -24z" />
    <glyph glyph-name="ccedilla" unicode="&#xe7;" horiz-adv-x="976" 
d="M414 512q0 -287 233 -287q134 0 268 82v-246q-123 -69 -303 -81v-41q99 0 155 -43t56 -119q0 -77 -53 -132t-158 -55q-109 0 -184 37v103q57 -23 102 -23q105 0 105 72q0 35 -36 56q-38 22 -99 22v127q-218 21 -330 163q-115 145 -115 365q0 240 136 386t397 146
q188 0 348 -71l-62 -205l-30 -31q-129 62 -226 62q-102 0 -153 -79q-51 -80 -51 -208z" />
    <glyph glyph-name="egrave" unicode="&#xe8;" horiz-adv-x="1095" 
d="M641 1126l-293 101q-94 33 -94 119q0 42 32 71t81 29q44 0 114 -53l209 -168zM1049 666q0 -89 -35 -226h-594q17 -108 83 -161q68 -54 165 -54q72 0 166 25q91 24 143 57v-246q-138 -81 -389 -81q-261 0 -397 146t-136 386t136 386t397 146q206 0 333 -88
q128 -89 128 -290zM418 596l293 18q10 39 10 78q0 64 -36 95q-37 32 -87 32q-156 0 -180 -223z" />
    <glyph glyph-name="eacute" unicode="&#xe9;" horiz-adv-x="1095" 
d="M543 1126l-49 99l208 168q70 53 115 53q49 0 81 -29t32 -71q0 -86 -94 -119zM1049 666q0 -89 -35 -226h-594q17 -108 83 -161q68 -54 165 -54q72 0 166 25q91 24 143 57v-246q-138 -81 -389 -81q-261 0 -397 146t-136 386t136 386t397 146q206 0 333 -88
q128 -89 128 -290zM418 596l293 18q10 39 10 78q0 64 -36 95q-37 32 -87 32q-156 0 -180 -223z" />
    <glyph glyph-name="ecircumflex" unicode="&#xea;" horiz-adv-x="1095" 
d="M449 1126h-168l243 369h148l243 -369h-167l-150 154zM1049 666q0 -89 -35 -226h-594q17 -108 83 -161q68 -54 165 -54q72 0 166 25q91 24 143 57v-246q-138 -81 -389 -81q-261 0 -397 146t-136 386t136 386t397 146q206 0 333 -88q128 -89 128 -290zM418 596l293 18
q10 39 10 78q0 64 -36 95q-37 32 -87 32q-156 0 -180 -223z" />
    <glyph glyph-name="edieresis" unicode="&#xeb;" horiz-adv-x="1095" 
d="M395 1147q-73 0 -119 40q-47 41 -47 107q0 67 47 108q46 40 119 40t119 -40q47 -41 47 -108q0 -66 -47 -107q-46 -40 -119 -40zM801 1147q-73 0 -119 40q-47 41 -47 107q0 67 47 108q46 40 119 40t119 -40q47 -41 47 -108q0 -66 -47 -107q-46 -40 -119 -40zM1049 666
q0 -89 -35 -226h-594q17 -108 83 -161q68 -54 165 -54q72 0 166 25q91 24 143 57v-246q-138 -81 -389 -81q-261 0 -397 146t-136 386t136 386t397 146q206 0 333 -88q128 -89 128 -290zM418 596l293 18q10 39 10 78q0 64 -36 95q-37 32 -87 32q-156 0 -180 -223z" />
    <glyph glyph-name="igrave" unicode="&#xec;" horiz-adv-x="552" 
d="M319 1126l-292 101q-95 33 -95 119q0 42 32 71t81 29q45 0 115 -53l209 -168zM451 1024v-1024h-349v1024h349z" />
    <glyph glyph-name="iacute" unicode="&#xed;" horiz-adv-x="552" 
d="M172 1225l209 168q70 53 115 53q49 0 81 -29q31 -28 31 -71q0 -86 -94 -119l-293 -101zM451 1024v-1024h-349v1024h349z" />
    <glyph glyph-name="icircumflex" unicode="&#xee;" horiz-adv-x="552" 
d="M-41 1126l244 369h147l244 -369h-168l-150 154l-149 -154h-168zM451 1024v-1024h-349v1024h349z" />
    <glyph glyph-name="idieresis" unicode="&#xef;" horiz-adv-x="552" 
d="M-92 1294q0 67 47 108q46 40 119 40t119 -40q47 -41 47 -108q0 -66 -47 -107q-46 -40 -119 -40t-119 40q-47 41 -47 107zM313 1294q0 67 47 108q46 40 119 40t119 -40q47 -41 47 -108q0 -66 -47 -107q-46 -40 -119 -40t-119 40q-47 41 -47 107zM451 1024v-1024h-349v1024
h349z" />
    <glyph glyph-name="eth" unicode="&#xf0;" horiz-adv-x="1165" 
d="M920 1249l-103 -43q287 -266 287 -653q0 -278 -134 -426q-134 -147 -401 -147q-249 0 -379 138q-131 139 -131 374q0 225 128 348q127 123 343 123q64 0 121 -13q-35 69 -94 146l-149 -64l-62 144l96 41q-98 92 -231 176h309q75 -28 154 -78l184 78zM569 205
q103 0 140 68q36 66 36 280q0 108 -20 192q-72 13 -113 13q-194 0 -194 -266q0 -143 35 -216q34 -71 116 -71z" />
    <glyph glyph-name="ntilde" unicode="&#xf1;" 
d="M348 1126h-153q2 132 64 220q63 88 161 88q71 0 175 -52q102 -51 132 -51q70 0 82 82h143q-10 -307 -194 -307q-63 0 -179 51q-115 51 -149 51q-22 0 -33 -4q-12 -4 -26 -23q-15 -20 -23 -55zM451 860h4l98 123q106 61 215 61q130 0 213 -79q84 -80 84 -228v-737h-348
v666q0 112 -103 112q-62 0 -163 -57v-721h-349v1024h338z" />
    <glyph glyph-name="ograve" unicode="&#xf2;" horiz-adv-x="1155" 
d="M621 1126l-293 101q-95 33 -95 119q0 42 32 71t81 29q45 0 115 -53l209 -168zM578 -20q-250 0 -387 141q-136 140 -136 391t136 391q137 141 387 141t386 -141q136 -140 136 -391t-136 -391q-136 -141 -386 -141zM578 819q-94 0 -129 -78q-35 -79 -35 -229t35 -229
q35 -78 129 -78t129 78q34 77 34 229t-34 229q-35 78 -129 78z" />
    <glyph glyph-name="oacute" unicode="&#xf3;" horiz-adv-x="1155" 
d="M473 1225l209 168q70 53 115 53q49 0 81 -29q31 -28 31 -71q0 -86 -94 -119l-293 -101zM578 -20q-250 0 -387 141q-136 140 -136 391t136 391q137 141 387 141t386 -141q136 -140 136 -391t-136 -391q-136 -141 -386 -141zM578 819q-94 0 -129 -78q-35 -79 -35 -229
t35 -229q35 -78 129 -78t129 78q34 77 34 229t-34 229q-35 78 -129 78z" />
    <glyph glyph-name="ocircumflex" unicode="&#xf4;" horiz-adv-x="1155" 
d="M260 1126l244 369h147l244 -369h-168l-149 154l-150 -154h-168zM578 -20q-250 0 -387 141q-136 140 -136 391t136 391q137 141 387 141t386 -141q136 -140 136 -391t-136 -391q-136 -141 -386 -141zM578 819q-94 0 -129 -78q-35 -79 -35 -229t35 -229q35 -78 129 -78
t129 78q34 77 34 229t-34 229q-35 78 -129 78z" />
    <glyph glyph-name="otilde" unicode="&#xf5;" horiz-adv-x="1155" 
d="M352 1126h-153q2 132 64 220q63 88 161 88q71 0 175 -52q102 -51 132 -51q70 0 82 82h143q-10 -307 -194 -307q-63 0 -179 51q-115 51 -149 51q-22 0 -33 -4q-12 -4 -26 -23q-15 -20 -23 -55zM578 -20q-250 0 -387 141q-136 140 -136 391t136 391q137 141 387 141
t386 -141q136 -140 136 -391t-136 -391q-136 -141 -386 -141zM578 819q-94 0 -129 -78q-35 -79 -35 -229t35 -229q35 -78 129 -78t129 78q34 77 34 229t-34 229q-35 78 -129 78z" />
    <glyph glyph-name="odieresis" unicode="&#xf6;" horiz-adv-x="1155" 
d="M209 1294q0 67 47 108q46 40 119 40t119 -40q47 -41 47 -108q0 -66 -47 -107q-46 -40 -119 -40t-119 40q-47 41 -47 107zM614 1294q0 66 48 108q46 40 118 40q73 0 119 -40q47 -41 47 -108q0 -66 -47 -107q-46 -40 -119 -40q-72 0 -118 40q-48 42 -48 107zM578 -20
q-250 0 -387 141q-136 140 -136 391t136 391q137 141 387 141t386 -141q136 -140 136 -391t-136 -391q-136 -141 -386 -141zM578 819q-94 0 -129 -78q-35 -79 -35 -229t35 -229q35 -78 129 -78t129 78q34 77 34 229t-34 229q-35 78 -129 78z" />
    <glyph glyph-name="divide" unicode="&#xf7;" horiz-adv-x="892" 
d="M299 918q0 61 44 105t106 44q61 0 105 -44t44 -105q0 -62 -44 -106t-105 -44q-62 0 -106 44t-44 106zM68 440v205h757v-205h-757zM299 168q0 61 44 105t106 44q61 0 105 -44t44 -105q0 -62 -44 -106t-105 -44q-62 0 -106 44t-44 106z" />
    <glyph glyph-name="oslash" unicode="&#xf8;" horiz-adv-x="1155" 
d="M997 1085l-86 -137q189 -136 189 -436q0 -251 -136 -391q-136 -141 -386 -141q-136 0 -244 45l-53 -86h-144l92 147q-174 140 -174 426q0 251 136 391q137 141 387 141q133 0 227 -38l49 79h143zM414 512q0 -66 6 -121l250 400q-38 28 -92 28q-94 0 -129 -78
q-35 -79 -35 -229zM578 205q94 0 129 78q34 77 34 229q0 97 -10 147l-258 -413q38 -41 105 -41z" />
    <glyph glyph-name="ugrave" unicode="&#xf9;" 
d="M618 1126l-292 101q-95 33 -95 119q0 42 32 71t81 29q45 0 115 -53l209 -168zM709 164h-4l-99 -123q-106 -61 -215 -61q-130 0 -213 79q-84 79 -84 228v737h348v-666q0 -112 103 -112q63 0 164 57v721h348v-1024h-338z" />
    <glyph glyph-name="uacute" unicode="&#xfa;" 
d="M471 1225l209 168q70 53 115 53q49 0 81 -29q31 -28 31 -71q0 -86 -94 -119l-293 -101zM709 164h-4l-99 -123q-106 -61 -215 -61q-130 0 -213 79q-84 79 -84 228v737h348v-666q0 -112 103 -112q63 0 164 57v721h348v-1024h-338z" />
    <glyph glyph-name="ucircumflex" unicode="&#xfb;" 
d="M258 1126l244 369h147l244 -369h-168l-150 154l-149 -154h-168zM709 164h-4l-99 -123q-106 -61 -215 -61q-130 0 -213 79q-84 79 -84 228v737h348v-666q0 -112 103 -112q63 0 164 57v721h348v-1024h-338z" />
    <glyph glyph-name="udieresis" unicode="&#xfc;" 
d="M207 1294q0 67 47 108q46 40 119 40t119 -40q47 -41 47 -108q0 -66 -47 -107q-46 -40 -119 -40t-119 40q-47 41 -47 107zM612 1294q0 67 47 108q46 40 119 40t119 -40q47 -41 47 -108q0 -66 -47 -107q-46 -40 -119 -40t-119 40q-47 41 -47 107zM709 164h-4l-99 -123
q-106 -61 -215 -61q-130 0 -213 79q-84 79 -84 228v737h348v-666q0 -112 103 -112q63 0 164 57v721h348v-1024h-338z" />
    <glyph glyph-name="yacute" unicode="&#xfd;" horiz-adv-x="1095" 
d="M444 1225l209 168q70 53 115 53q49 0 81 -29t32 -71q0 -86 -95 -119l-292 -101zM27 963v61h348l182 -686h4l172 686h338v-61l-205 -646q-140 -446 -379 -768h-389v62q162 182 246 348z" />
    <glyph glyph-name="thorn" unicode="&#xfe;" horiz-adv-x="1175" 
d="M748 1044q171 0 269 -143q99 -144 99 -389t-118 -388q-118 -144 -312 -144q-122 0 -235 55v-486h-349v1844l246 82h103v-590l122 108q83 51 175 51zM584 205q174 0 174 307q0 287 -174 287q-82 0 -133 -51v-519q69 -24 133 -24z" />
    <glyph glyph-name="ydieresis" unicode="&#xff;" horiz-adv-x="1095" 
d="M180 1294q0 67 47 108q46 40 119 40t119 -40q47 -41 47 -108q0 -66 -47 -107q-46 -40 -119 -40t-119 40q-47 41 -47 107zM586 1294q0 67 47 108q46 40 119 40q72 0 118 -40q48 -42 48 -108q0 -65 -48 -107q-46 -40 -118 -40q-73 0 -119 40q-47 41 -47 107zM27 963v61h348
l182 -686h4l172 686h338v-61l-205 -646q-140 -446 -379 -768h-389v62q162 182 246 348z" />
    <glyph glyph-name="Amacron" unicode="&#x100;" horiz-adv-x="1284" 
d="M956 1516h-634v184h634v-184zM1264 61v-61h-365l-76 266h-385l-76 -266h-348v61l404 1342h456zM737 573l-37 134q-25 86 -67 297h-4q-38 -185 -68 -297l-37 -134h213z" />
    <glyph glyph-name="amacron" unicode="&#x101;" horiz-adv-x="1120" 
d="M238 1147v184h634v-184h-634zM631 139l-123 -108q-82 -51 -174 -51q-137 0 -216 78q-81 80 -81 198q0 76 30 134q29 57 79 92q49 34 96 53q43 17 94 28l295 62v41q0 66 -39 109q-39 44 -125 44q-84 0 -150 -18q-57 -16 -167 -64l-31 31l82 215q171 61 348 61
q197 0 313 -82q117 -83 117 -235v-430q0 -86 57 -86q31 0 66 14v-184q-44 -29 -114 -45q-68 -16 -122 -16q-96 0 -154 34t-81 125zM631 471l-154 -51q-34 -11 -54 -31q-17 -17 -17 -61q0 -45 29 -68q30 -24 71 -24q68 0 125 57v178z" />
    <glyph glyph-name="Abreve" unicode="&#x102;" horiz-adv-x="1284" 
d="M639 1495q-127 0 -186 98q-60 99 -60 230h123q24 -144 123 -144t123 144h123q0 -131 -60 -230q-59 -98 -186 -98zM1264 61v-61h-365l-76 266h-385l-76 -266h-348v61l404 1342h456zM737 573l-37 134q-25 86 -67 297h-4q-38 -185 -68 -297l-37 -134h213z" />
    <glyph glyph-name="abreve" unicode="&#x103;" horiz-adv-x="1120" 
d="M555 1126q-126 0 -186 99t-60 229h123q24 -143 123 -143t123 143h123q0 -130 -60 -229t-186 -99zM631 139l-123 -108q-82 -51 -174 -51q-137 0 -216 78q-81 80 -81 198q0 76 30 134q29 57 79 92q49 34 96 53q43 17 94 28l295 62v41q0 66 -39 109q-39 44 -125 44
q-84 0 -150 -18q-57 -16 -167 -64l-31 31l82 215q171 61 348 61q197 0 313 -82q117 -83 117 -235v-430q0 -86 57 -86q31 0 66 14v-184q-44 -29 -114 -45q-68 -16 -122 -16q-96 0 -154 34t-81 125zM631 471l-154 -51q-34 -11 -54 -31q-18 -18 -18 -61q0 -44 30 -68t71 -24
q68 0 125 57v178z" />
    <glyph glyph-name="Aogonek" unicode="&#x104;" horiz-adv-x="1284" 
d="M1264 0h-109q-86 -78 -86 -176q0 -48 29 -75q30 -28 82 -28q46 0 77 23v-102q-70 -52 -174 -52q-103 0 -157 48t-54 116q0 152 201 246h-174l-76 266h-385l-76 -266h-348v61l404 1342h456l390 -1342v-61zM737 573l-37 134q-25 86 -67 297h-4q-38 -185 -68 -297l-37 -134
h213z" />
    <glyph glyph-name="aogonek" unicode="&#x105;" horiz-adv-x="1120" 
d="M1102 225v-184q-48 -34 -164 -55q-72 -74 -72 -162q0 -48 29 -75q30 -28 82 -28q47 0 78 23v-102q-70 -52 -174 -52t-158 48q-53 47 -53 116q0 139 161 228q-163 10 -200 157l-123 -108q-82 -51 -174 -51q-137 0 -216 78q-81 80 -81 198q0 76 30 134q29 57 79 92
q49 34 96 53q43 17 94 28l295 62v41q0 66 -39 109q-39 44 -125 44q-84 0 -150 -18q-57 -16 -167 -64l-31 31l82 215q171 61 348 61q197 0 313 -82q117 -83 117 -235v-430q0 -86 57 -86q31 0 66 14zM631 471l-154 -51q-34 -11 -54 -31q-17 -17 -17 -61q0 -45 29 -68
q30 -24 71 -24q68 0 125 57v178z" />
    <glyph glyph-name="Cacute" unicode="&#x106;" horiz-adv-x="1216" 
d="M596 1593l209 168q71 54 115 54q48 0 80 -29t32 -72q0 -86 -94 -119l-293 -100zM66 696q0 367 155 541q156 176 490 176q213 0 430 -102v-307q-224 112 -430 112q-83 0 -137 -30q-55 -30 -81 -89q-28 -62 -38 -130q-11 -74 -11 -171t11 -171q10 -68 38 -130
q26 -59 81 -89q54 -30 137 -30q235 0 450 123l-20 -317q-217 -102 -430 -102q-334 0 -490 176q-155 174 -155 540z" />
    <glyph glyph-name="cacute" unicode="&#x107;" horiz-adv-x="976" 
d="M442 1225l209 168q70 53 115 53q49 0 81 -29t32 -71q0 -86 -95 -119l-292 -101zM618 799q-102 0 -153 -79q-51 -80 -51 -208q0 -287 233 -287q134 0 268 82v-246q-138 -81 -348 -81q-246 0 -379 146t-133 386t136 386t397 146q188 0 348 -71l-62 -205l-30 -31
q-129 62 -226 62z" />
    <glyph glyph-name="Cdotaccent" unicode="&#x10a;" horiz-adv-x="1216" 
d="M516 1679q0 71 51 117q52 47 133 47q82 0 134 -47q51 -46 51 -117q0 -70 -50 -117q-49 -46 -135 -46q-85 0 -134 46q-50 47 -50 117zM66 696q0 367 155 541q156 176 490 176q213 0 430 -102v-307q-224 112 -430 112q-83 0 -137 -30q-55 -30 -81 -89q-28 -62 -38 -130
q-11 -74 -11 -171t11 -171q10 -68 38 -130q26 -59 81 -89q54 -30 137 -30q235 0 450 123l-20 -317q-217 -102 -430 -102q-334 0 -490 176q-155 174 -155 540z" />
    <glyph glyph-name="cdotaccent" unicode="&#x10b;" horiz-adv-x="976" 
d="M362 1311q0 69 52 116q53 48 133 48t133 -48q51 -47 51 -116q0 -71 -50 -118q-49 -46 -134 -46t-134 46q-51 48 -51 118zM618 799q-102 0 -153 -79q-51 -80 -51 -208q0 -287 233 -287q134 0 268 82v-246q-138 -81 -348 -81q-246 0 -379 146t-133 386t136 386t397 146
q188 0 348 -71l-62 -205l-30 -31q-129 62 -226 62z" />
    <glyph glyph-name="Ccaron" unicode="&#x10c;" horiz-adv-x="1216" 
d="M700 1710l150 154h168l-244 -369h-147l-244 369h168zM66 696q0 367 155 541q156 176 490 176q213 0 430 -102v-307q-224 112 -430 112q-83 0 -137 -30q-55 -30 -81 -89q-28 -62 -38 -130q-11 -74 -11 -171t11 -171q10 -68 38 -130q26 -59 81 -89q54 -30 137 -30
q235 0 450 123l-20 -317q-217 -102 -430 -102q-334 0 -490 176q-155 174 -155 540z" />
    <glyph glyph-name="ccaron" unicode="&#x10d;" horiz-adv-x="976" 
d="M547 1341l149 154h168l-243 -369h-148l-244 369h168zM618 799q-102 0 -153 -79q-51 -80 -51 -208q0 -287 233 -287q134 0 268 82v-246q-138 -81 -348 -81q-246 0 -379 146t-133 386t136 386t397 146q188 0 348 -71l-62 -205l-30 -31q-129 62 -226 62z" />
    <glyph glyph-name="Dcaron" unicode="&#x10e;" horiz-adv-x="1366" 
d="M643 1710l150 154h168l-244 -369h-148l-243 369h168zM121 1393h553q333 0 479 -167q145 -166 145 -519q0 -358 -146 -532q-147 -175 -478 -175h-553v1393zM489 307h185q139 0 192 83q54 85 54 317q0 231 -53 305q-52 73 -193 73h-185v-778z" />
    <glyph glyph-name="dcaron" unicode="&#x10f;" horiz-adv-x="1314" 
d="M1272 1489q80 0 123 -54q43 -53 43 -128q0 -142 -174 -379h-144l113 260q-41 0 -80 41t-39 108q0 65 45 108q46 44 113 44zM971 1475h102v-1475h-338l-10 139l-123 -108q-82 -51 -174 -51q-171 0 -269 143q-100 145 -100 389q0 245 118 388q119 144 312 144
q135 0 236 -55v404zM592 225q82 0 133 51v517q-55 26 -133 26q-174 0 -174 -307q0 -287 174 -287z" />
    <glyph glyph-name="Dcroat" unicode="&#x110;" horiz-adv-x="1376" 
d="M131 1393h553q333 0 479 -167t146 -519q0 -357 -147 -532t-478 -175h-553v563h-102v266h102v564zM500 307h184q140 0 193 83t53 317q0 232 -52 305t-194 73h-184v-256h245v-266h-245v-256z" />
    <glyph glyph-name="dcroat" unicode="&#x111;" horiz-adv-x="1175" 
d="M1165 1147h-92v-1147h-338l-10 139l-123 -108q-82 -51 -174 -51q-171 0 -269 143q-100 145 -100 389q0 245 118 388q119 144 312 144q135 0 236 -55v158h-215v184h215v62l246 82h102v-144h92v-184zM592 225q82 0 133 51v517q-55 26 -133 26q-174 0 -174 -307
q0 -287 174 -287z" />
    <glyph glyph-name="Emacron" unicode="&#x112;" horiz-adv-x="1171" 
d="M285 1516v184h635v-184h-635zM489 1085v-215h512v-307h-512v-256h625l-20 -307h-973v1393h973v-308h-605z" />
    <glyph glyph-name="emacron" unicode="&#x113;" horiz-adv-x="1095" 
d="M915 1147h-634v184h634v-184zM1049 666q0 -89 -35 -226h-594q17 -108 83 -161q68 -54 165 -54q72 0 166 25q91 24 143 57v-246q-138 -81 -389 -81q-261 0 -397 146t-136 386t136 386t397 146q206 0 333 -88q128 -89 128 -290zM418 596l293 18q10 39 10 78q0 64 -36 95
q-37 32 -87 32q-156 0 -180 -223z" />
    <glyph glyph-name="Edotaccent" unicode="&#x116;" horiz-adv-x="1171" 
d="M418 1679q0 71 51 117q52 47 133 47t133 -47q51 -46 51 -117q0 -70 -50 -117q-49 -46 -134 -46t-134 46q-50 47 -50 117zM489 1085v-215h512v-307h-512v-256h625l-20 -307h-973v1393h973v-308h-605z" />
    <glyph glyph-name="edotaccent" unicode="&#x117;" horiz-adv-x="1095" 
d="M598 1147q-85 0 -134 46q-50 47 -50 118q0 69 51 116q53 48 133 48t133 -48q51 -47 51 -116q0 -71 -50 -118q-49 -46 -134 -46zM1049 666q0 -89 -35 -226h-594q17 -108 83 -161q68 -54 165 -54q72 0 166 25q91 24 143 57v-246q-138 -81 -389 -81q-261 0 -397 146
t-136 386t136 386t397 146q206 0 333 -88q128 -89 128 -290zM418 596l293 18q10 39 10 78q0 64 -36 95q-37 32 -87 32q-156 0 -180 -223z" />
    <glyph glyph-name="Eogonek" unicode="&#x118;" horiz-adv-x="1171" 
d="M1118 -279q47 0 78 23v-102q-70 -52 -174 -52t-158 48q-53 47 -53 116q0 152 201 246h-891v1393h973v-308h-605v-215h512v-307h-512v-256h625l-20 -307q-86 -78 -86 -176q0 -48 28 -75q30 -28 82 -28z" />
    <glyph glyph-name="eogonek" unicode="&#x119;" horiz-adv-x="1095" 
d="M1001 -217q49 0 78 22v-102q-69 -51 -174 -51q-104 0 -157 47q-54 48 -54 117q0 103 97 182q-99 -18 -203 -18q-261 0 -397 146t-136 386t136 386t397 146q206 0 333 -88q128 -89 128 -290q0 -89 -35 -226h-594q17 -108 83 -161q68 -54 165 -54q72 0 166 25q91 24 143 57
v-246q-86 -78 -86 -176q0 -47 29 -74q30 -28 81 -28zM598 819q-156 0 -180 -223l293 18q10 39 10 78q0 64 -36 95q-37 32 -87 32z" />
    <glyph glyph-name="Ecaron" unicode="&#x11a;" horiz-adv-x="1171" 
d="M602 1710l150 154h168l-244 -369h-148l-243 369h168zM489 1085v-215h512v-307h-512v-256h625l-20 -307h-973v1393h973v-308h-605z" />
    <glyph glyph-name="ecaron" unicode="&#x11b;" horiz-adv-x="1095" 
d="M524 1126l-243 369h168l149 -154l150 154h167l-243 -369h-148zM1049 666q0 -89 -35 -226h-594q17 -108 83 -161q68 -54 165 -54q72 0 166 25q91 24 143 57v-246q-138 -81 -389 -81q-261 0 -397 146t-136 386t136 386t397 146q206 0 333 -88q128 -89 128 -290zM418 596
l293 18q10 39 10 78q0 64 -36 95q-37 32 -87 32q-156 0 -180 -223z" />
    <glyph glyph-name="Gbreve" unicode="&#x11e;" horiz-adv-x="1236" 
d="M700 1495q-127 0 -186 98q-59 97 -59 230h123q24 -144 122 -144q99 0 123 144h123q0 -133 -59 -230q-59 -98 -187 -98zM711 1116q-83 0 -137 -30q-55 -30 -81 -89q-28 -62 -38 -130q-11 -74 -11 -171t11 -171q10 -68 38 -130q26 -59 81 -89q54 -30 137 -30q19 0 61 3v202
h-123v307h492v-706q-217 -102 -430 -102q-334 0 -490 176q-155 174 -155 540q0 367 155 541q156 176 490 176q213 0 430 -102v-307q-224 112 -430 112z" />
    <glyph glyph-name="gbreve" unicode="&#x11f;" horiz-adv-x="1110" 
d="M500 1126q-127 0 -187 99q-59 97 -59 229h123q24 -143 123 -143t123 143h122q0 -132 -59 -229q-60 -99 -186 -99zM408 244l385 -39q132 -12 215 -87q82 -75 82 -210q0 -379 -582 -379q-250 0 -377 64t-127 165q0 111 119 168l143 -37l-8 -36q0 -65 57 -92t179 -27
q258 0 258 102q0 23 -13 39t-29 20q-17 4 -53 9l-366 35q-103 11 -152 61t-49 123q0 139 180 246q-204 79 -204 327q0 167 117 257q118 91 343 91q108 0 191 -18l352 18v-184h-115q33 -72 33 -164q0 -368 -461 -368q-35 0 -82 4zM524 829q-67 0 -99 -41t-32 -92
q0 -153 139 -153q127 0 127 153q0 64 -33 98q-34 35 -102 35z" />
    <glyph glyph-name="Gdotaccent" unicode="&#x120;" horiz-adv-x="1236" 
d="M700 1516q-85 0 -134 46q-50 47 -50 117q0 71 51 117q52 47 133 47q82 0 134 -47q51 -46 51 -117q0 -70 -50 -117q-49 -46 -135 -46zM711 1116q-83 0 -137 -30q-55 -30 -81 -89q-28 -62 -38 -130q-11 -74 -11 -171t11 -171q10 -68 38 -130q26 -59 81 -89q54 -30 137 -30
q19 0 61 3v202h-123v307h492v-706q-217 -102 -430 -102q-334 0 -490 176q-155 174 -155 540q0 367 155 541q156 176 490 176q213 0 430 -102v-307q-224 112 -430 112z" />
    <glyph glyph-name="gdotaccent" unicode="&#x121;" horiz-adv-x="1110" 
d="M500 1147q-85 0 -134 46q-51 48 -51 118q0 69 52 116q53 48 133 48t133 -48q51 -47 51 -116q0 -71 -50 -118q-49 -46 -134 -46zM408 244l385 -39q132 -12 215 -87q82 -75 82 -210q0 -379 -582 -379q-250 0 -377 64t-127 165q0 111 119 168l143 -37l-8 -36q0 -65 57 -92
t179 -27q258 0 258 102q0 23 -13 39t-29 20q-17 4 -53 9l-366 35q-103 11 -152 61t-49 123q0 139 180 246q-204 79 -204 327q0 167 117 257q118 91 343 91q108 0 191 -18l352 18v-184h-115q33 -72 33 -164q0 -368 -461 -368q-35 0 -82 4zM524 829q-67 0 -99 -41t-32 -92
q0 -153 139 -153q127 0 127 153q0 64 -33 98q-34 35 -102 35z" />
    <glyph glyph-name="Gcommaaccent" unicode="&#x122;" horiz-adv-x="1236" 
d="M711 1116q-83 0 -137 -30q-55 -30 -81 -89q-28 -62 -38 -130q-11 -74 -11 -171t11 -171q10 -68 38 -130q26 -59 81 -89q54 -30 137 -30q19 0 61 3v202h-123v307h492v-706q-217 -102 -430 -102q-334 0 -490 176q-155 174 -155 540q0 367 155 541q156 176 490 176
q213 0 430 -102v-307q-224 112 -430 112zM692 -82q80 0 123 -54q43 -53 43 -128q0 -142 -174 -379h-143l112 260q-41 0 -80 41q-38 39 -38 109q0 63 45 107q46 44 112 44z" />
    <glyph glyph-name="gcommaaccent" unicode="&#x123;" horiz-adv-x="1110" 
d="M518 1133q-80 0 -123 54q-43 53 -43 128q0 142 174 379h144l-113 -260q41 0 80 -41t39 -109q0 -64 -45 -107q-46 -44 -113 -44zM408 244l385 -39q132 -12 215 -87q82 -75 82 -210q0 -379 -582 -379q-250 0 -377 64t-127 165q0 111 119 168l143 -37l-8 -36q0 -65 57 -92
t179 -27q258 0 258 102q0 23 -13 39t-29 20q-17 4 -53 9l-366 35q-103 11 -152 61t-49 123q0 139 180 246q-204 79 -204 327q0 167 117 257q118 91 343 91q108 0 191 -18l352 18v-184h-115q33 -72 33 -164q0 -368 -461 -368q-35 0 -82 4zM524 829q-67 0 -99 -41t-32 -92
q0 -153 139 -153q127 0 127 153q0 64 -33 98q-34 35 -102 35z" />
    <glyph glyph-name="Hbar" unicode="&#x126;" horiz-adv-x="1378" 
d="M1350 993h-103v-993h-368v563h-379v-563h-369v993h-102v267h102v133h369v-133h379v133h368v-133h103v-267zM879 993h-379v-123h379v123z" />
    <glyph glyph-name="hbar" unicode="&#x127;" 
d="M768 1044q130 0 213 -79q84 -80 84 -228v-737h-348v666q0 112 -103 112q-62 0 -163 -57v-721h-349v1147h-92v184h92v62l246 82h103v-144h215v-184h-215v-287h4l98 123q106 61 215 61z" />
    <glyph glyph-name="Imacron" unicode="&#x12a;" horiz-adv-x="610" 
d="M-12 1516v184h635v-184h-635zM489 1393v-1393h-368v1393h368z" />
    <glyph glyph-name="imacron" unicode="&#x12b;" horiz-adv-x="552" 
d="M-41 1147v184h635v-184h-635zM451 1024v-1024h-349v1024h349z" />
    <glyph glyph-name="Iogonek" unicode="&#x12e;" horiz-adv-x="610" 
d="M438 -279q47 0 78 23v-102q-70 -52 -174 -52t-158 48q-53 47 -53 116q0 152 201 246h-211v1393h368v-1393h-75q-86 -78 -86 -176q0 -48 28 -75q30 -28 82 -28z" />
    <glyph glyph-name="iogonek" unicode="&#x12f;" horiz-adv-x="552" 
d="M276 1147q-85 0 -134 46q-50 47 -50 118q0 69 51 116q53 48 133 48q81 0 134 -48q51 -47 51 -116q0 -71 -50 -118q-49 -46 -135 -46zM102 1024h349v-1024h-123q-86 -78 -86 -176q0 -48 28 -75q30 -28 82 -28q47 0 78 23v-102q-70 -52 -174 -52t-158 48q-53 47 -53 116
q0 152 201 246h-144v1024z" />
    <glyph glyph-name="Idotaccent" unicode="&#x130;" horiz-adv-x="610" 
d="M121 1679q0 71 51 117q52 47 133 47t133 -47q51 -46 51 -117q0 -70 -50 -117q-49 -46 -134 -46t-134 46q-50 47 -50 117zM489 1393v-1393h-368v1393h368z" />
    <glyph glyph-name="dotlessi" unicode="&#x131;" horiz-adv-x="552" 
d="M451 1024v-1024h-349v1024h349z" />
    <glyph glyph-name="IJ" unicode="&#x132;" horiz-adv-x="1228" 
d="M489 1393v-1393h-368v1393h368zM1108 1393v-1270q0 -85 -16 -149t-61 -137q-44 -71 -136 -124q-94 -54 -227 -82l-113 287q119 41 152 86q32 44 32 119v1270h369z" />
    <glyph glyph-name="ij" unicode="&#x133;" horiz-adv-x="1105" 
d="M92 1311q0 69 51 116q53 48 133 48q81 0 134 -48q51 -47 51 -116q0 -71 -50 -118q-49 -46 -135 -46q-85 0 -134 46q-50 47 -50 118zM645 1311q0 69 51 116q53 48 133 48q81 0 134 -48q51 -47 51 -116q0 -71 -50 -118q-49 -46 -135 -46q-85 0 -134 46q-50 47 -50 118z
M451 1024v-1024h-349v1024h349zM1004 1024v-983q0 -162 -77 -284q-77 -123 -272 -208l-143 205q89 62 117 115q26 49 26 172v983h349z" />
    <glyph glyph-name="Kcommaaccent" unicode="&#x136;" horiz-adv-x="1357" 
d="M489 1393v-1393h-368v1393h368zM950 1393h379v-62l-377 -616l387 -654v-61h-399l-389 666v71zM555 -643l113 260q-41 0 -80 41q-39 40 -39 109q0 63 45 107q46 44 113 44q79 0 122 -54q43 -53 43 -128q0 -142 -174 -379h-143z" />
    <glyph glyph-name="kcommaaccent" unicode="&#x137;" horiz-adv-x="1191" 
d="M348 1475h103v-1475h-349v1393zM819 0l-327 532l327 492h318v-61l-277 -400l318 -502v-61h-359zM420 -643l112 260q-40 0 -79 41q-39 40 -39 109q0 63 45 107q46 44 112 44q79 0 123 -54q43 -53 43 -128q0 -142 -174 -379h-143z" />
    <glyph glyph-name="Lacute" unicode="&#x139;" horiz-adv-x="1122" 
d="M147 1593l209 168q71 54 115 54q49 0 81 -29t32 -72q0 -86 -95 -119l-292 -100zM1094 307l-21 -307h-952v1393h368v-1086h605z" />
    <glyph glyph-name="lacute" unicode="&#x13a;" horiz-adv-x="598" 
d="M186 1675l209 168q70 53 115 53q50 0 81 -28q32 -29 32 -72q0 -86 -95 -119l-292 -100zM344 1475h102v-1178q0 -86 58 -86q30 0 65 14v-205q-81 -40 -215 -40q-106 0 -181 42t-75 142v1229z" />
    <glyph glyph-name="Lcommaaccent" unicode="&#x13b;" horiz-adv-x="1122" 
d="M1094 307l-21 -307h-952v1393h368v-1086h605zM391 -643l113 260q-41 0 -80 41q-39 40 -39 109q0 63 45 107q46 44 113 44q79 0 123 -54q43 -53 43 -128q0 -142 -174 -379h-144z" />
    <glyph glyph-name="lcommaaccent" unicode="&#x13c;" horiz-adv-x="598" 
d="M344 1475h102v-1178q0 -86 58 -86q30 0 65 14v-205q-81 -40 -215 -40q-106 0 -181 42t-75 142v1229zM184 -643l113 260q-41 0 -80 41q-39 40 -39 109q0 63 45 107q46 44 113 44q80 0 123 -54q43 -53 43 -128q0 -142 -174 -379h-144z" />
    <glyph glyph-name="Lcaron" unicode="&#x13d;" horiz-adv-x="1122" 
d="M649 846l113 260q-41 0 -80 41t-39 108q0 65 45 108q46 44 113 44q79 0 123 -54q43 -53 43 -128q0 -142 -174 -379h-144zM1094 307l-21 -307h-952v1393h368v-1086h605z" />
    <glyph glyph-name="lcaron" unicode="&#x13e;" horiz-adv-x="688" 
d="M494 928l112 260q-41 0 -80 41t-39 108q0 65 45 108q46 44 113 44q79 0 123 -54q43 -53 43 -128q0 -142 -174 -379h-143zM344 1475h102v-1178q0 -86 58 -86q30 0 65 14v-205q-81 -40 -215 -40q-106 0 -181 42t-75 142v1229z" />
    <glyph glyph-name="Ldot" unicode="&#x13f;" horiz-adv-x="1122" 
d="M1094 307l-21 -307h-952v1393h368v-1086h605zM643 784q0 62 44 106t106 44q61 0 105 -44t44 -106q0 -61 -44 -105t-105 -44q-62 0 -106 44t-44 105z" />
    <glyph glyph-name="ldot" unicode="&#x140;" horiz-adv-x="823" 
d="M344 1475h102v-1178q0 -86 58 -86q30 0 65 14v-205q-81 -40 -215 -40q-106 0 -181 42t-75 142v1229zM528 702q0 62 44 106t106 44q61 0 105 -44t44 -106q0 -61 -44 -105t-105 -44q-62 0 -106 44t-44 105z" />
    <glyph glyph-name="Lslash" unicode="&#x141;" horiz-adv-x="1132" 
d="M1104 307l-21 -307h-952v510l-102 -29v277l102 28v607h369v-500l245 70v-277l-245 -70v-309h604z" />
    <glyph glyph-name="lslash" unicode="&#x142;" horiz-adv-x="620" 
d="M465 756v-459q0 -86 57 -86q31 0 66 14v-205q-81 -40 -215 -40q-107 0 -182 42q-74 41 -74 142v325l-92 -69v235l92 70v668l245 82h103v-484l123 94v-235z" />
    <glyph glyph-name="Nacute" unicode="&#x143;" horiz-adv-x="1357" 
d="M565 1593l209 168q71 54 115 54q49 0 81 -29q31 -28 31 -72q0 -86 -94 -119l-293 -100zM489 1393l410 -727h10q-20 186 -20 434v293h348v-1393h-369l-409 727h-10q20 -186 20 -434v-293h-348v1393h368z" />
    <glyph glyph-name="nacute" unicode="&#x144;" 
d="M469 1225l209 168q70 53 115 53q48 0 80 -29t32 -71q0 -86 -94 -119l-293 -101zM451 860h4l98 123q106 61 215 61q130 0 213 -79q84 -80 84 -228v-737h-348v666q0 112 -103 112q-62 0 -163 -57v-721h-349v1024h338z" />
    <glyph glyph-name="Ncommaaccent" unicode="&#x145;" horiz-adv-x="1357" 
d="M489 1393l410 -727h10q-20 186 -20 434v293h348v-1393h-369l-409 727h-10q20 -186 20 -434v-293h-348v1393h368zM510 -643l113 260q-41 0 -80 41q-39 40 -39 109q0 63 45 107q46 44 113 44q78 0 122 -54q43 -53 43 -128q0 -142 -174 -379h-143z" />
    <glyph glyph-name="ncommaaccent" unicode="&#x146;" 
d="M451 860h4l98 123q106 61 215 61q130 0 213 -79q84 -80 84 -228v-737h-348v666q0 112 -103 112q-62 0 -163 -57v-721h-349v1024h338zM414 -643l112 260q-41 0 -80 41q-38 39 -38 109q0 63 45 107q46 44 112 44q79 0 123 -54q43 -53 43 -128q0 -142 -174 -379h-143z" />
    <glyph glyph-name="Ncaron" unicode="&#x147;" horiz-adv-x="1357" 
d="M670 1710l149 154h168l-244 -369h-147l-244 369h168zM489 1393l410 -727h10q-20 186 -20 434v293h348v-1393h-369l-409 727h-10q20 -186 20 -434v-293h-348v1393h368z" />
    <glyph glyph-name="ncaron" unicode="&#x148;" 
d="M573 1341l150 154h168l-244 -369h-147l-244 369h168zM451 860h4l98 123q106 61 215 61q130 0 213 -79q84 -80 84 -228v-737h-348v666q0 112 -103 112q-62 0 -163 -57v-721h-349v1024h338z" />
    <glyph glyph-name="Eng" unicode="&#x14a;" horiz-adv-x="1357" 
d="M1237 1393v-1393q-5 -77 -25 -138q-22 -67 -66 -126q-48 -66 -134 -112q-89 -48 -215 -75l-72 205q119 41 152 86q32 44 32 119v41l-450 727h-10q20 -186 20 -434v-293h-348v1393h368l410 -686h10q-20 186 -20 434v252h348z" />
    <glyph glyph-name="eng" unicode="&#x14b;" 
d="M455 860l98 123q106 61 215 61q130 0 213 -79q84 -80 84 -228v-696q0 -162 -77 -284q-78 -123 -271 -208l-144 205q89 62 117 115q27 51 27 172v625q0 112 -103 112q-62 0 -163 -57v-721h-349v1024h338l11 -164h4z" />
    <glyph glyph-name="Omacron" unicode="&#x14c;" horiz-adv-x="1380" 
d="M373 1516v184h635v-184h-635zM690 -20q-330 0 -477 184t-147 543q0 357 146 531q147 175 478 175t478 -175q147 -176 147 -531q0 -357 -148 -543q-147 -184 -477 -184zM690 1116q-140 0 -192 -87q-54 -89 -54 -322q0 -236 55 -334q55 -97 191 -97q137 0 192 97
q54 96 54 334q0 234 -53 322q-53 87 -193 87z" />
    <glyph glyph-name="omacron" unicode="&#x14d;" horiz-adv-x="1155" 
d="M260 1147v184h635v-184h-635zM578 -20q-250 0 -387 141q-136 140 -136 391t136 391q137 141 387 141t386 -141q136 -140 136 -391t-136 -391q-136 -141 -386 -141zM578 819q-94 0 -129 -78q-35 -79 -35 -229t35 -229q35 -78 129 -78t129 78q34 77 34 229t-34 229
q-35 78 -129 78z" />
    <glyph glyph-name="Ohungarumlaut" unicode="&#x150;" horiz-adv-x="1380" 
d="M408 1573l225 242q32 36 82 36t76 -29t26 -71q0 -64 -76 -104l-270 -152zM797 1573l225 242q33 36 82 36q50 0 76 -29t26 -71q0 -64 -76 -104l-270 -152zM690 -20q-330 0 -477 184t-147 543q0 357 146 531q147 175 478 175t478 -175q147 -176 147 -531q0 -357 -148 -543
q-147 -184 -477 -184zM690 1116q-140 0 -192 -87q-54 -89 -54 -322q0 -236 55 -334q55 -97 191 -97q137 0 192 97q54 96 54 334q0 234 -53 322q-53 87 -193 87z" />
    <glyph glyph-name="ohungarumlaut" unicode="&#x151;" horiz-adv-x="1155" 
d="M295 1204l225 242q33 37 82 37t76 -30t27 -71q0 -64 -76 -104l-271 -152zM684 1204l225 242q33 37 82 37t76 -30t27 -71q0 -64 -76 -104l-270 -152zM578 -20q-250 0 -387 141q-136 140 -136 391t136 391q137 141 387 141t386 -141q136 -140 136 -391t-136 -391
q-136 -141 -386 -141zM578 819q-94 0 -129 -78q-35 -79 -35 -229t35 -229q35 -78 129 -78t129 78q34 77 34 229t-34 229q-35 78 -129 78z" />
    <glyph glyph-name="OE" unicode="&#x152;" horiz-adv-x="1986" 
d="M1929 307l-20 -307h-891v76q-124 -96 -328 -96q-330 0 -477 184t-147 543q0 357 146 531q147 175 478 175q204 0 328 -90v70h891v-308h-604v-215h512v-307h-512v-256h624zM690 276q137 0 192 97q54 96 54 334q0 234 -53 322q-53 87 -193 87t-192 -87q-54 -89 -54 -322
q0 -236 55 -334q55 -97 191 -97z" />
    <glyph glyph-name="oe" unicode="&#x153;" horiz-adv-x="1761" 
d="M1642 307v-246q-138 -81 -389 -81q-213 0 -340 102q-127 -102 -335 -102q-250 0 -387 141q-136 140 -136 391t136 391q137 141 387 141q208 0 335 -102q127 102 340 102q206 0 333 -88q128 -89 128 -290q0 -89 -35 -226h-594q17 -108 83 -161q68 -54 165 -54q72 0 166 25
q91 24 143 57zM578 205q94 0 129 78q34 77 34 229t-34 229q-35 78 -129 78t-129 -78q-35 -79 -35 -229t35 -229q35 -78 129 -78zM1083 596l293 18q10 39 10 78q0 64 -35 95q-37 32 -87 32q-157 0 -181 -223z" />
    <glyph glyph-name="Racute" unicode="&#x154;" horiz-adv-x="1284" 
d="M547 1495l-49 98l209 168q71 54 114 54q49 0 81 -29t32 -72q0 -86 -94 -119zM1247 61v-61h-389l-172 412q-21 46 -45 58q-22 11 -80 11h-72v-481h-368v1393h491q290 0 427 -113t137 -344q0 -278 -197 -383v-16q98 -43 154 -185zM489 788h123q105 0 145 34t40 114t-41 115
q-40 34 -144 34h-123v-297z" />
    <glyph glyph-name="racute" unicode="&#x155;" horiz-adv-x="878" 
d="M387 1225l209 168q70 53 115 53q49 0 81 -29q31 -28 31 -71q0 -86 -94 -119l-293 -101zM451 819h4l98 164q88 61 182 61q62 0 135 -20l-104 -301q-56 14 -111 14q-105 0 -204 -57v-680h-349v1024h338z" />
    <glyph glyph-name="Rcommaaccent" unicode="&#x156;" horiz-adv-x="1284" 
d="M1247 61v-61h-389l-172 412q-21 46 -45 58q-22 11 -80 11h-72v-481h-368v1393h491q290 0 427 -113t137 -344q0 -278 -197 -383v-16q98 -43 154 -185zM489 788h123q105 0 145 34t40 114t-41 115q-40 34 -144 34h-123v-297zM635 -82q79 0 123 -54q43 -53 43 -128
q0 -142 -174 -379h-144l113 260q-41 0 -80 41q-39 40 -39 109q0 63 45 107q46 44 113 44z" />
    <glyph glyph-name="rcommaaccent" unicode="&#x157;" horiz-adv-x="878" 
d="M451 819h4l98 164q88 61 182 61q62 0 135 -20l-104 -301q-56 14 -111 14q-105 0 -204 -57v-680h-349v1024h338zM117 -643l112 260q-40 0 -79 41q-39 40 -39 109q0 63 45 107q46 44 112 44q80 0 123 -54q43 -53 43 -128q0 -142 -174 -379h-143z" />
    <glyph glyph-name="Rcaron" unicode="&#x158;" horiz-adv-x="1284" 
d="M528 1495l-243 369h168l149 -154l150 154h168l-244 -369h-148zM1247 61v-61h-389l-172 412q-21 46 -45 58q-22 11 -80 11h-72v-481h-368v1393h491q290 0 427 -113t137 -344q0 -278 -197 -383v-16q98 -43 154 -185zM489 788h123q105 0 145 34t40 114t-41 115
q-40 34 -144 34h-123v-297z" />
    <glyph glyph-name="rcaron" unicode="&#x159;" horiz-adv-x="878" 
d="M492 1341l149 154h168l-244 -369h-147l-244 369h168zM451 819h4l98 164q88 61 182 61q62 0 135 -20l-104 -301q-56 14 -111 14q-105 0 -204 -57v-680h-349v1024h338z" />
    <glyph glyph-name="Sacute" unicode="&#x15a;" horiz-adv-x="1126" 
d="M459 1593l209 168q71 54 114 54q49 0 81 -29t32 -72q0 -86 -94 -119l-293 -100zM82 1004q0 196 138 303q137 106 343 106q253 0 471 -102v-307q-240 112 -440 112q-133 0 -133 -82q0 -42 62 -80q55 -34 151 -78q81 -37 177 -94q87 -52 151 -149q63 -96 63 -223
q0 -203 -139 -317q-138 -113 -381 -113q-267 0 -473 102v317q280 -123 460 -123q154 0 154 93q0 50 -62 91t-151 82q-96 44 -177 92q-89 53 -152 147q-62 93 -62 223z" />
    <glyph glyph-name="sacute" unicode="&#x15b;" horiz-adv-x="909" 
d="M360 1225l209 168q70 53 115 53q49 0 81 -29t32 -71q0 -86 -95 -119l-292 -101zM498 799q-82 0 -82 -51q0 -30 46 -54q52 -27 112 -50q76 -29 134 -61q65 -36 112 -105q46 -68 46 -161q0 -154 -112 -245q-113 -92 -297 -92q-187 0 -369 71l-31 256q191 -82 359 -82
q92 0 92 56q0 29 -45 54q-47 27 -110 53q-53 22 -130 66q-64 37 -110 108q-45 70 -45 165q0 159 119 238t290 79q188 0 348 -71l-61 -205l-31 -31q-129 62 -235 62z" />
    <glyph glyph-name="Scedilla" unicode="&#x15e;" horiz-adv-x="1126" 
d="M1065 410q0 -187 -119 -298q-119 -112 -325 -128v-45q98 0 154 -43t56 -119q0 -77 -53 -132t-157 -55q-110 0 -185 37v103q57 -23 103 -23q104 0 104 72q0 35 -36 56q-38 22 -99 22v123q-245 7 -436 102v317q280 -123 460 -123q154 0 154 93q0 50 -62 91t-151 82
q-96 44 -177 92q-89 53 -152 147q-62 93 -62 223q0 196 138 303q137 106 343 106q253 0 471 -102v-307q-240 112 -440 112q-133 0 -133 -82q0 -42 62 -80q55 -34 151 -78q81 -37 177 -94q87 -52 151 -149q63 -96 63 -223z" />
    <glyph glyph-name="scedilla" unicode="&#x15f;" horiz-adv-x="909" 
d="M866 317q0 -143 -99 -234q-98 -90 -265 -101v-43q98 0 154 -43q57 -44 57 -119q0 -76 -54 -132q-53 -55 -157 -55q-110 0 -185 37v103q57 -23 103 -23q104 0 104 72q0 35 -36 56q-38 22 -99 22v125q-143 7 -301 69l-31 256q191 -82 359 -82q92 0 92 56q0 29 -45 54
q-47 27 -110 53q-53 22 -130 66q-64 37 -110 108q-45 70 -45 165q0 159 119 238t290 79q188 0 348 -71l-61 -205l-31 -31q-129 62 -235 62q-82 0 -82 -51q0 -30 46 -54q52 -27 112 -50q76 -29 134 -61q65 -36 112 -105q46 -68 46 -161z" />
    <glyph glyph-name="Scaron" unicode="&#x160;" horiz-adv-x="1126" 
d="M563 1710l150 154h168l-244 -369h-148l-243 369h168zM82 1004q0 196 138 303q137 106 343 106q253 0 471 -102v-307q-240 112 -440 112q-133 0 -133 -82q0 -42 62 -80q55 -34 151 -78q81 -37 177 -94q87 -52 151 -149q63 -96 63 -223q0 -203 -139 -317
q-138 -113 -381 -113q-267 0 -473 102v317q280 -123 460 -123q154 0 154 93q0 50 -62 91t-151 82q-96 44 -177 92q-89 53 -152 147q-62 93 -62 223z" />
    <glyph glyph-name="scaron" unicode="&#x161;" horiz-adv-x="909" 
d="M465 1341l149 154h168l-243 -369h-148l-244 369h168zM498 799q-82 0 -82 -51q0 -30 46 -54q52 -27 112 -50q76 -29 134 -61q65 -36 112 -105q46 -68 46 -161q0 -154 -112 -245q-113 -92 -297 -92q-187 0 -369 71l-31 256q191 -82 359 -82q92 0 92 56q0 29 -45 54
q-47 27 -110 53q-53 22 -130 66q-64 37 -110 108q-45 70 -45 165q0 159 119 238t290 79q188 0 348 -71l-61 -205l-31 -31q-129 62 -235 62z" />
    <glyph glyph-name="Tcedilla" unicode="&#x162;" horiz-adv-x="1118" 
d="M625 0v-61q98 0 154 -43q57 -44 57 -119q0 -76 -54 -132q-53 -55 -157 -55q-108 0 -185 37v103q57 -23 103 -23q104 0 104 72q0 35 -36 56q-38 22 -99 22v143h-137v1085h-328v308h1024v-308h-328v-1085h-118z" />
    <glyph glyph-name="tcedilla" unicode="&#x163;" horiz-adv-x="774" 
d="M518 -18v-43q99 0 155 -43t56 -119q0 -77 -53 -132t-158 -55q-109 0 -184 37v103q57 -23 102 -23q105 0 105 72q0 35 -36 56q-38 22 -99 22v127q-138 12 -201 84q-64 73 -64 221v489h-92v144l92 102l226 246h122v-246h236v-246h-236v-436q0 -96 113 -96q70 0 123 20v-246
q-70 -30 -207 -38z" />
    <glyph glyph-name="Tcaron" unicode="&#x164;" horiz-adv-x="1118" 
d="M559 1710l150 154h168l-244 -369h-148l-243 369h168zM375 0v1085h-328v308h1024v-308h-328v-1085h-368z" />
    <glyph glyph-name="tcaron" unicode="&#x165;" horiz-adv-x="774" 
d="M537 1106l112 260q-41 0 -80 41t-39 109q0 64 45 107q46 44 113 44q80 0 123 -54q43 -53 43 -128q0 -142 -174 -379h-143zM49 778v144l92 102l226 246h122v-246h236v-246h-236v-436q0 -96 113 -96q70 0 123 20v-246q-99 -40 -242 -40q-181 0 -261 70q-81 71 -81 239v489
h-92z" />
    <glyph glyph-name="Tbar" unicode="&#x166;" horiz-adv-x="1126" 
d="M748 1085v-317h174v-266h-174v-502h-369v502h-174v266h174v317h-328v308h1024v-308h-327z" />
    <glyph glyph-name="tbar" unicode="&#x167;" horiz-adv-x="778" 
d="M492 778v-168h235v-184h-235v-84q0 -96 112 -96q70 0 123 20v-246q-99 -40 -242 -40q-181 0 -261 70q-81 71 -81 239v137h-92v184h92v168h-92v144l92 102l226 246h123v-246h235v-246h-235z" />
    <glyph glyph-name="Umacron" unicode="&#x16a;" horiz-adv-x="1345" 
d="M340 1516v184h635v-184h-635zM672 -20q-118 0 -214 25q-98 25 -177 81q-80 56 -126 154t-46 231v922h368v-922q0 -89 54 -142q55 -53 141 -53q85 0 140 53q54 53 54 142v922h369v-922q0 -258 -156 -375q-155 -116 -407 -116z" />
    <glyph glyph-name="umacron" unicode="&#x16b;" 
d="M258 1147v184h635v-184h-635zM709 164h-4l-99 -123q-106 -61 -215 -61q-130 0 -213 79q-84 79 -84 228v737h348v-666q0 -112 103 -112q63 0 164 57v721h348v-1024h-338z" />
    <glyph glyph-name="Uring" unicode="&#x16e;" horiz-adv-x="1345" 
d="M469 1642q0 82 52 131q53 50 136 50t136 -51t53 -130q0 -80 -52 -129t-137 -49q-84 0 -136 49t-52 129zM578 1642q0 -33 21 -54t58 -21q38 0 59 21t21 54q0 36 -21 57t-59 21q-37 0 -58 -21t-21 -57zM672 -20q-118 0 -214 25q-98 25 -177 81q-80 56 -126 154t-46 231v922
h368v-922q0 -89 54 -142q55 -53 141 -53q85 0 140 53q54 53 54 142v922h369v-922q0 -258 -156 -375q-155 -116 -407 -116z" />
    <glyph glyph-name="uring" unicode="&#x16f;" 
d="M387 1274q0 81 52 130q53 50 136 50t136 -51t53 -129q0 -80 -52 -129t-137 -49q-84 0 -136 49t-52 129zM496 1274q0 -33 21 -54q22 -22 58 -22q37 0 59 22q21 21 21 54q0 35 -21 56q-22 22 -59 22q-36 0 -58 -22q-21 -21 -21 -56zM709 164h-4l-99 -123q-106 -61 -215 -61
q-130 0 -213 79q-84 79 -84 228v737h348v-666q0 -112 103 -112q63 0 164 57v721h348v-1024h-338z" />
    <glyph glyph-name="Uhungarumlaut" unicode="&#x170;" horiz-adv-x="1345" 
d="M375 1573l225 242q33 36 82 36q50 0 76 -29t26 -71q0 -64 -75 -104l-271 -152zM764 1573l225 242q33 36 82 36q50 0 76 -29q27 -30 27 -71q0 -64 -76 -104l-271 -152zM672 -20q-118 0 -214 25q-98 25 -177 81q-80 56 -126 154t-46 231v922h368v-922q0 -89 54 -142
q55 -53 141 -53q85 0 140 53q54 53 54 142v922h369v-922q0 -258 -156 -375q-155 -116 -407 -116z" />
    <glyph glyph-name="uhungarumlaut" unicode="&#x171;" 
d="M293 1204l225 242q34 37 82 37q49 0 76 -30q26 -29 26 -71q0 -64 -75 -104l-271 -152zM682 1204l225 242q34 37 82 37q49 0 76 -30t27 -71q0 -64 -76 -104l-271 -152zM709 164h-4l-99 -123q-106 -61 -215 -61q-130 0 -213 79q-84 79 -84 228v737h348v-666
q0 -112 103 -112q63 0 164 57v721h348v-1024h-338z" />
    <glyph glyph-name="Uogonek" unicode="&#x172;" horiz-adv-x="1345" 
d="M1235 1393v-922q0 -241 -137 -358q-135 -116 -363 -131q-67 -76 -67 -158q0 -48 28 -75q30 -28 82 -28q47 0 78 23v-102q-70 -52 -174 -52t-158 48q-53 47 -53 116q0 136 162 226q-112 5 -200 32q-91 28 -166 84q-73 54 -116 152q-42 96 -42 223v922h368v-922
q0 -89 54 -142q55 -53 141 -53q85 0 140 53q54 53 54 142v922h369z" />
    <glyph glyph-name="uogonek" unicode="&#x173;" 
d="M985 -279q47 0 78 23v-102q-70 -52 -174 -52t-158 48q-53 47 -53 116q0 152 201 246h-160l-10 164h-4l-99 -123q-106 -61 -215 -61q-130 0 -213 79q-84 79 -84 228v737h348v-666q0 -112 103 -112q63 0 164 57v721h348v-1024h-96q-87 -79 -87 -176q0 -48 29 -75
q30 -28 82 -28z" />
    <glyph glyph-name="Wcircumflex" unicode="&#x174;" horiz-adv-x="1957" 
d="M860 1495h-168l244 369h147l244 -369h-168l-149 154zM1931 1393v-62l-342 -1341h-477l-135 608l-146 -608h-477l-317 1341v62h371l141 -707q23 -108 53 -297h4q14 86 62 295l161 709h336l144 -707q37 -180 55 -297h4q24 145 59 295l160 709h344z" />
    <glyph glyph-name="wcircumflex" unicode="&#x175;" horiz-adv-x="1683" 
d="M702 1126h-167l243 369h148l243 -369h-168l-149 154zM1661 1024v-61l-275 -973h-448l-100 510l-127 -510h-449l-219 973v61h348l121 -686h4l152 686h379l120 -686h4l152 686h338z" />
    <glyph glyph-name="Ycircumflex" unicode="&#x176;" horiz-adv-x="1222" 
d="M467 1495h-168l244 369h147l244 -369h-168l-150 154zM1221 1331l-430 -903v-428h-369v442l-410 889v62h371l152 -369q74 -183 88 -225h4q32 105 82 225l157 369h355v-62z" />
    <glyph glyph-name="ycircumflex" unicode="&#x177;" horiz-adv-x="1095" 
d="M231 1126l244 369h148l243 -369h-168l-149 154l-150 -154h-168zM27 963v61h348l182 -686h4l172 686h338v-61l-205 -646q-140 -446 -379 -768h-389v62q162 182 246 348z" />
    <glyph glyph-name="Ydieresis" unicode="&#x178;" horiz-adv-x="1222" 
d="M414 1516q-74 0 -119 39q-47 41 -47 108q0 66 47 107q46 40 119 40q72 0 118 -40q48 -42 48 -107q0 -66 -48 -108q-45 -39 -118 -39zM819 1516q-74 0 -119 39q-47 41 -47 108q0 66 47 107q46 40 119 40t119 -40q47 -41 47 -107q0 -67 -47 -108q-45 -39 -119 -39z
M1221 1331l-430 -903v-428h-369v442l-410 889v62h371l152 -369q74 -183 88 -225h4q32 105 82 225l157 369h355v-62z" />
    <glyph glyph-name="Zacute" unicode="&#x179;" horiz-adv-x="1126" 
d="M459 1593l209 168q71 54 114 54q49 0 81 -29t32 -72q0 -86 -94 -119l-293 -100zM1075 307l-20 -307h-1004v266l553 819h-512v308h952v-267l-542 -819h573z" />
    <glyph glyph-name="zacute" unicode="&#x17a;" horiz-adv-x="964" 
d="M377 1225l209 168q70 53 114 53q49 0 81 -29t32 -71q0 -86 -94 -119l-293 -101zM485 246h430l-41 -246h-819v205l420 573h-420l72 246h768v-205z" />
    <glyph glyph-name="Zdotaccent" unicode="&#x17b;" horiz-adv-x="1126" 
d="M379 1679q0 71 51 117q52 47 133 47t133 -47t52 -117q0 -69 -51 -117q-49 -46 -134 -46t-134 46q-50 47 -50 117zM1075 307l-20 -307h-1004v266l553 819h-512v308h952v-267l-542 -819h573z" />
    <glyph glyph-name="zdotaccent" unicode="&#x17c;" horiz-adv-x="964" 
d="M297 1311q0 69 51 116q53 48 133 48t133 -48q52 -47 52 -116q0 -70 -51 -118q-49 -46 -134 -46t-134 46q-50 47 -50 118zM485 246h430l-41 -246h-819v205l420 573h-420l72 246h768v-205z" />
    <glyph glyph-name="Zcaron" unicode="&#x17d;" horiz-adv-x="1126" 
d="M563 1710l150 154h168l-244 -369h-148l-243 369h168zM1075 307l-20 -307h-1004v266l553 819h-512v308h952v-267l-542 -819h573z" />
    <glyph glyph-name="zcaron" unicode="&#x17e;" horiz-adv-x="964" 
d="M481 1341l150 154h168l-244 -369h-147l-244 369h168zM485 246h430l-41 -246h-819v205l420 573h-420l72 246h768v-205z" />
    <glyph glyph-name="florin" unicode="&#x192;" horiz-adv-x="1083" 
d="M381 870l31 215q15 110 55 185t94 120q52 43 138 67q83 23 166 31q76 7 198 7l-37 -260l-43 -21q-69 15 -115 15q-110 0 -125 -117l-34 -242h266l-31 -204h-264l-88 -625q-15 -109 -55 -184q-39 -74 -95 -120q-53 -44 -138 -68q-78 -22 -166 -30q-86 -8 -197 -8l36 260
l43 21q64 -14 115 -14q110 0 125 116l92 652h-278l30 204h277z" />
    <glyph glyph-name="Scommaaccent" unicode="&#x218;" horiz-adv-x="1126" 
d="M82 1004q0 196 138 303q137 106 343 106q253 0 471 -102v-307q-240 112 -440 112q-133 0 -133 -82q0 -42 62 -80q55 -34 151 -78q81 -37 177 -94q87 -52 151 -149q63 -96 63 -223q0 -203 -139 -317q-138 -113 -381 -113q-267 0 -473 102v317q280 -123 460 -123
q154 0 154 93q0 50 -62 91t-151 82q-96 44 -177 92q-89 53 -152 147q-62 93 -62 223zM406 -643l112 260q-41 0 -80 41q-39 40 -39 109q0 63 45 107q46 44 113 44q79 0 123 -54q43 -53 43 -128q0 -142 -174 -379h-143z" />
    <glyph glyph-name="scommaaccent" unicode="&#x219;" horiz-adv-x="909" 
d="M498 799q-82 0 -82 -51q0 -30 46 -54q52 -27 112 -50q76 -29 134 -61q65 -36 112 -105q46 -68 46 -161q0 -154 -112 -245q-113 -92 -297 -92q-187 0 -369 71l-31 256q191 -82 359 -82q92 0 92 56q0 29 -45 54q-47 27 -110 53q-53 22 -130 66q-64 37 -110 108
q-45 70 -45 165q0 159 119 238t290 79q188 0 348 -71l-61 -205l-31 -31q-129 62 -235 62zM287 -643l112 260q-41 0 -80 41q-38 39 -38 109q0 63 45 107q46 44 112 44q80 0 123 -54q43 -53 43 -128q0 -142 -174 -379h-143z" />
    <glyph glyph-name="uni021A" unicode="&#x21a;" horiz-adv-x="1118" 
d="M375 0v1085h-328v308h1024v-308h-328v-1085h-368zM410 -643l112 260q-41 0 -80 41q-39 40 -39 109q0 63 46 107t112 44q79 0 123 -54q43 -53 43 -128q0 -142 -174 -379h-143z" />
    <glyph glyph-name="uni021B" unicode="&#x21b;" horiz-adv-x="774" 
d="M49 778v144l92 102l226 246h122v-246h236v-246h-236v-436q0 -96 113 -96q70 0 123 20v-246q-99 -40 -242 -40q-181 0 -261 70q-81 71 -81 239v489h-92zM303 -643l113 260q-41 0 -80 41q-39 40 -39 109q0 63 45 107q46 44 113 44q79 0 123 -54q43 -53 43 -128
q0 -141 -175 -379h-143z" />
    <glyph glyph-name="dotlessj" unicode="&#x237;" horiz-adv-x="552" 
d="M451 1024v-983q0 -162 -77 -284q-77 -123 -272 -208l-143 205q89 62 117 115q26 49 26 172v983h349z" />
    <glyph glyph-name="circumflex" unicode="&#x2c6;" horiz-adv-x="962" 
d="M164 1126l244 369h147l244 -369h-168l-150 154l-149 -154h-168z" />
    <glyph glyph-name="ring" unicode="&#x2da;" horiz-adv-x="768" 
d="M195 1274q0 81 52 130q53 50 136 50t135 -51q53 -51 53 -129q0 -80 -52 -129t-136 -49t-136 49t-52 129zM303 1274q0 -32 22 -54t58 -22t58 22t22 54q0 34 -22 56t-58 22t-58 -22t-22 -56z" />
    <glyph glyph-name="tilde" unicode="&#x2dc;" horiz-adv-x="1126" 
d="M338 1126h-154q2 131 65 220q63 88 161 88q71 0 175 -52q102 -51 132 -51q70 0 82 82h143q-10 -307 -194 -307q-64 0 -180 51t-148 51q-22 0 -33 -4q-13 -5 -27 -23t-22 -55z" />
    <glyph glyph-name="Wgrave" unicode="&#x1e80;" horiz-adv-x="1957" 
d="M1053 1495l-293 100q-94 33 -94 119q0 44 31 72q32 29 81 29q44 0 115 -54l209 -168zM1931 1393v-62l-342 -1341h-477l-135 608l-146 -608h-477l-317 1341v62h371l141 -707q23 -108 53 -297h4q14 86 62 295l161 709h336l144 -707q37 -180 55 -297h4q24 145 59 295
l160 709h344z" />
    <glyph glyph-name="wgrave" unicode="&#x1e81;" horiz-adv-x="1683" 
d="M895 1126l-293 101q-94 33 -94 119q0 42 32 71t81 29q44 0 114 -53l209 -168zM1661 1024v-61l-275 -973h-448l-100 510l-127 -510h-449l-219 973v61h348l121 -686h4l152 686h379l120 -686h4l152 686h338z" />
    <glyph glyph-name="Wacute" unicode="&#x1e82;" horiz-adv-x="1957" 
d="M954 1495l-49 98l209 168q71 54 115 54q49 0 81 -29q31 -28 31 -72q0 -86 -94 -119zM1931 1393v-62l-342 -1341h-477l-135 608l-146 -608h-477l-317 1341v62h371l141 -707q23 -108 53 -297h4q14 86 62 295l161 709h336l144 -707q37 -180 55 -297h4q24 145 59 295l160 709
h344z" />
    <glyph glyph-name="wacute" unicode="&#x1e83;" horiz-adv-x="1683" 
d="M797 1126l-49 99l208 168q70 53 115 53q49 0 81 -29t32 -71q0 -86 -94 -119zM1661 1024v-61l-275 -973h-448l-100 510l-127 -510h-449l-219 973v61h348l121 -686h4l152 686h379l120 -686h4l152 686h338z" />
    <glyph glyph-name="Wdieresis" unicode="&#x1e84;" horiz-adv-x="1957" 
d="M807 1516q-74 0 -119 39q-47 41 -47 108q0 66 47 107q46 40 119 40t119 -40q47 -41 47 -107q0 -67 -47 -108q-45 -39 -119 -39zM1212 1516q-73 0 -118 39q-47 41 -47 108q0 66 47 107q46 40 118 40q73 0 119 -40q47 -41 47 -107q0 -67 -47 -108q-45 -39 -119 -39z
M1931 1393v-62l-342 -1341h-477l-135 608l-146 -608h-477l-317 1341v62h371l141 -707q23 -108 53 -297h4q14 86 62 295l161 709h336l144 -707q37 -180 55 -297h4q24 145 59 295l160 709h344z" />
    <glyph glyph-name="wdieresis" unicode="&#x1e85;" horiz-adv-x="1683" 
d="M649 1147q-73 0 -119 40q-47 41 -47 107q0 67 47 108q46 40 119 40t119 -40q47 -41 47 -108q0 -66 -47 -107q-46 -40 -119 -40zM1055 1147q-73 0 -119 40q-47 41 -47 107q0 67 47 108q46 40 119 40t119 -40q47 -41 47 -108q0 -66 -47 -107q-46 -40 -119 -40zM1661 1024
v-61l-275 -973h-448l-100 510l-127 -510h-449l-219 973v61h348l121 -686h4l152 686h379l120 -686h4l152 686h338z" />
    <glyph glyph-name="Ygrave" unicode="&#x1ef2;" horiz-adv-x="1222" 
d="M659 1495l-292 100q-95 33 -95 119q0 43 32 72t81 29q44 0 115 -54l209 -168zM1221 1331l-430 -903v-428h-369v442l-410 889v62h371l152 -369q74 -183 88 -225h4q32 105 82 225l157 369h355v-62z" />
    <glyph glyph-name="ygrave" unicode="&#x1ef3;" horiz-adv-x="1095" 
d="M592 1126l-293 101q-94 33 -94 119q0 42 32 71t80 29q45 0 115 -53l209 -168zM27 963v61h348l182 -686h4l172 686h338v-61l-205 -646q-140 -446 -379 -768h-389v62q162 182 246 348z" />
    <glyph glyph-name="figuredash" unicode="&#x2012;" horiz-adv-x="1130" 
d="M104 481v205h922v-205h-922z" />
    <glyph glyph-name="endash" unicode="&#x2013;" horiz-adv-x="1335" 
d="M104 481v205h1127v-205h-1127z" />
    <glyph glyph-name="emdash" unicode="&#x2014;" horiz-adv-x="1744" 
d="M104 481v205h1536v-205h-1536z" />
    <glyph glyph-name="quoteleft" unicode="&#x2018;" horiz-adv-x="471" 
d="M385 1386l-113 -260q41 0 80 -41t39 -108q0 -65 -45 -108q-46 -44 -113 -44q-78 0 -122 55q-43 53 -43 128q0 141 174 378h143z" />
    <glyph glyph-name="quoteright" unicode="&#x2019;" horiz-adv-x="475" 
d="M96 846l113 260q-41 0 -80 41t-39 108q0 65 45 108q46 44 113 44q80 0 123 -54q43 -53 43 -128q0 -142 -174 -379h-144z" />
    <glyph glyph-name="quotesinglbase" unicode="&#x201a;" horiz-adv-x="483" 
d="M86 -281l113 261q-41 0 -80 40q-39 41 -39 109q0 65 45 108q46 44 113 44q78 0 122 -55q43 -53 43 -128q0 -142 -174 -379h-143z" />
    <glyph glyph-name="quotedblleft" unicode="&#x201c;" horiz-adv-x="880" 
d="M385 1386l-113 -260q41 0 80 -41t39 -108q0 -65 -45 -108q-46 -44 -113 -44q-78 0 -122 55q-43 53 -43 128q0 141 174 378h143zM795 1386l-113 -260q41 0 80 -41t39 -108q0 -65 -45 -108q-46 -44 -113 -44q-79 0 -123 55q-43 53 -43 128q0 141 174 378h144z" />
    <glyph glyph-name="quotedblright" unicode="&#x201d;" horiz-adv-x="884" 
d="M96 846l113 260q-41 0 -80 41t-39 108q0 65 45 108q46 44 113 44q80 0 123 -54q43 -53 43 -128q0 -142 -174 -379h-144zM506 846l112 260q-40 0 -79 41t-39 108q0 65 45 108q46 44 112 44q79 0 123 -54q43 -53 43 -128q0 -142 -174 -379h-143z" />
    <glyph glyph-name="quotedblbase" unicode="&#x201e;" horiz-adv-x="892" 
d="M86 -281l113 261q-41 0 -80 40q-39 41 -39 109q0 65 45 108q46 44 113 44q78 0 122 -55q43 -53 43 -128q0 -142 -174 -379h-143zM496 -281l112 261q-41 0 -80 40t-39 109q0 64 46 108t112 44q79 0 123 -55q43 -53 43 -128q0 -142 -174 -379h-143z" />
    <glyph glyph-name="dagger" unicode="&#x2020;" 
d="M651 752l70 -752h-277l70 752l-457 -70v287l453 -51l-66 475h277l-66 -475l447 51v-287z" />
    <glyph glyph-name="daggerdbl" unicode="&#x2021;" horiz-adv-x="1196" 
d="M670 956l69 -219l-69 -219l450 70v-287l-446 51l65 -475h-276l65 475l-452 -51v287l456 -70l-69 219l69 219l-456 -69v287l452 -52l-65 475h276l-65 -475l446 52v-287z" />
    <glyph glyph-name="bullet" unicode="&#x2022;" horiz-adv-x="653" 
d="M125 475q0 84 58 143q59 60 143 60q83 0 143 -60q59 -59 59 -143t-59 -142q-61 -59 -143 -59q-84 0 -143 59q-58 58 -58 142z" />
    <glyph glyph-name="onedotenleader" unicode="&#x2024;" horiz-adv-x="454" 
d="M78 129q0 61 44 105q45 45 105 45q61 0 106 -45q44 -44 44 -105t-44 -105t-106 -44q-61 0 -105 44t-44 105z" />
    <glyph glyph-name="ellipsis" unicode="&#x2026;" horiz-adv-x="1273" 
d="M78 129q0 61 44 105q45 45 105 45q61 0 106 -45q44 -44 44 -105t-44 -105t-106 -44q-61 0 -105 44t-44 105zM487 129q0 61 44 105q45 45 106 45q60 0 105 -45q44 -44 44 -105t-44 -105t-105 -44q-62 0 -106 44t-44 105zM897 129q0 61 44 105q45 45 106 45q60 0 105 -45
q44 -44 44 -105t-44 -105t-105 -44q-62 0 -106 44t-44 105z" />
    <glyph glyph-name="perthousand" unicode="&#x2030;" horiz-adv-x="2260" 
d="M342 649q-156 0 -222 97q-67 99 -67 286q0 186 67 279q66 92 222 92t222 -92q67 -93 67 -279q0 -187 -67 -286q-66 -97 -222 -97zM1116 1393h287l-520 -666l-144 41zM342 1255q-60 0 -81 -48t-21 -175q0 -130 21 -182q21 -53 81 -53t81 53q21 52 21 182q0 127 -21 175
t-81 48zM1223 -10q-157 0 -223 97t-66 286q0 187 66 278q66 92 223 92q156 0 222 -92q66 -91 66 -278q0 -189 -66 -286t-222 -97zM1919 -10q-156 0 -222 97q-67 99 -67 286q0 185 67 278q66 92 222 92t222 -92q67 -93 67 -278q0 -187 -67 -286q-66 -97 -222 -97zM440 0h-286
l532 686l143 -41zM1223 596q-60 0 -81 -48q-22 -50 -22 -175q0 -128 22 -183q21 -53 81 -53t81 53q21 52 21 183q0 127 -21 175t-81 48zM1919 596q-60 0 -81 -48t-21 -175q0 -131 21 -183q21 -53 81 -53t81 53q21 52 21 183q0 127 -21 175t-81 48z" />
    <glyph glyph-name="guilsinglleft" unicode="&#x2039;" horiz-adv-x="688" 
d="M616 297l-133 -143l-409 327v144l409 327l133 -143l-245 -256z" />
    <glyph glyph-name="guilsinglright" unicode="&#x203a;" horiz-adv-x="688" 
d="M72 809l133 143l409 -327v-144l-409 -327l-133 143l245 256z" />
    <glyph glyph-name="exclamdbl" unicode="&#x203c;" horiz-adv-x="1021" 
d="M100 1393h369l-82 -1004h-205zM551 1393h369l-82 -1004h-205zM141 129q0 62 43 105q45 45 105 45t105 -45q44 -44 44 -105t-44 -105t-105 -44t-105 44q-43 43 -43 105zM592 129q0 62 43 105q45 45 104 45q61 0 106 -45q44 -44 44 -105t-44 -105t-106 -44q-60 0 -104 44
q-43 43 -43 105z" />
    <glyph glyph-name="fraction" unicode="&#x2044;" horiz-adv-x="409" 
d="M522 1393h287l-500 -666l-143 41zM-113 0h-286l512 686l143 -41z" />
    <glyph glyph-name="colonsign" unicode="&#x20a1;" horiz-adv-x="1241" 
d="M717 276q235 0 450 123l-20 -317q-217 -102 -430 -102q-334 0 -490 176q-155 174 -155 540q0 367 155 541q156 176 490 176q213 0 430 -102v-307q-67 36 -141 61l-353 -782q31 -7 64 -7zM457 549l258 567q-83 0 -135 -30q-55 -32 -81 -89q-28 -62 -38 -130
q-10 -67 -10 -171q0 -80 6 -147zM561 319l350 775q-24 4 -53.5 9.5t-36.5 6.5l-323 -715q25 -47 63 -76z" />
    <glyph glyph-name="uni20A8" unicode="&#x20a8;" horiz-adv-x="1118" 
d="M1044 1229h-198q65 -82 82 -211h116v-164h-116q-24 -210 -193 -301v-16q98 -43 154 -185l115 -291v-61h-390l-172 412q-21 46 -45 58q-22 11 -80 11h-235v307h287q135 0 168 66h-455v164h457q-34 67 -170 67h-287v308h962v-164z" />
    <glyph glyph-name="Euro" unicode="&#x20ac;" horiz-adv-x="1357" 
d="M831 276q237 0 451 123l-20 -317q-218 -102 -431 -102q-269 0 -419 110q-152 111 -201 340h-148v205h125l-2 61q0 34 2 62h-125v205h148q49 229 201 340q150 110 419 110q213 0 431 -102v-307q-224 112 -431 112q-177 0 -233 -153h367v-205h-400v-62v-61h400v-205h-367
q56 -154 233 -154z" />
    <glyph glyph-name="uni2113" unicode="&#x2113;" horiz-adv-x="788" 
d="M207 545v497q0 207 74 310q77 102 184 102q83 0 129 -55q47 -56 47 -148q0 -106 -57 -229q-59 -131 -238 -360v-345q0 -152 43 -217q40 -59 111 -59q66 0 118 59q60 60 99 211h33q-38 -171 -125 -260q-65 -71 -164 -71q-79 0 -143 50q-62 49 -91 134q-20 69 -20 219v106
l-152 -170l-22 23zM346 1112v-395q248 320 248 495q0 84 -35 134q-34 49 -88 49q-52 0 -90 -58q-35 -61 -35 -225z" />
    <glyph glyph-name="trademark" unicode="&#x2122;" horiz-adv-x="1642" 
d="M283 606v613h-185v174h578v-174h-184v-613h-209zM1331 606v164q0 130 8 248h-2l-135 -412h-131l-135 412h-6q14 -104 14 -248v-164h-192v787h278l72 -248q29 -92 41 -146h8q5 50 31 146l73 248h277v-787h-201z" />
    <glyph glyph-name="minus" unicode="&#x2212;" horiz-adv-x="913" 
d="M98 440v205h717v-205h-717z" />
    <glyph glyph-name="zero.dnom" horiz-adv-x="802" 
d="M401 -12q-188 0 -269 109t-81 327q0 214 81 319t269 105q189 0 270 -105t81 -319q0 -218 -81 -327t-270 -109zM401 670q-71 0 -97 -52q-25 -50 -25 -194q0 -146 25 -202t97 -56q73 0 98 56t25 202q0 144 -25 194q-26 52 -98 52z" />
    <glyph glyph-name="one.dnom" horiz-adv-x="479" 
d="M156 0v651h-123v160l203 31h141v-842h-221z" />
    <glyph glyph-name="two.dnom" horiz-adv-x="716" 
d="M662 184l-13 -184h-596v184q369 206 369 359q0 127 -129 127q-99 0 -227 -68v184q126 62 270 62q146 0 233 -70q86 -69 86 -219q0 -81 -32 -144q-33 -65 -94 -109t-107 -68q-57 -29 -111 -50v-4h351z" />
    <glyph glyph-name="three.dnom" horiz-adv-x="735" 
d="M492 440v-6q93 -18 143 -68q49 -49 49 -120q0 -130 -94 -194t-250 -64q-167 0 -289 61v191q119 -74 252 -74q154 0 154 90q0 88 -178 88h-109v160h109q172 0 172 86q0 80 -142 80q-109 0 -239 -68v184q118 62 276 62q141 0 233 -55q93 -55 93 -166q0 -148 -180 -187z" />
    <glyph glyph-name="four.dnom" horiz-adv-x="784" 
d="M739 135h-98v-135h-221v135h-387v197l399 510h209v-523h98v-184zM420 319v201l-166 -201h166z" />
    <glyph glyph-name="five.dnom" horiz-adv-x="704" 
d="M254 651v-98q42 8 88 8q138 0 227 -65q90 -66 90 -207q0 -145 -88 -223q-89 -78 -235 -78q-163 0 -285 61v191q128 -74 228 -74q79 0 115 23q38 24 38 81t-40 84q-41 27 -128 27q-76 0 -182 -27v482h547v-185h-375z" />
    <glyph glyph-name="six.dnom" horiz-adv-x="751" 
d="M416 553q134 0 211 -71q75 -69 75 -199q0 -131 -88 -213t-237 -82q-326 0 -326 393q0 467 369 467q145 0 246 -62v-184q-97 68 -209 68q-70 0 -108 -32q-37 -31 -52 -106q57 21 119 21zM383 166q92 0 92 117q0 66 -25 94q-26 29 -85 29q-41 0 -80 -11v-39q0 -100 20 -144
q21 -46 78 -46z" />
    <glyph glyph-name="seven.dnom" horiz-adv-x="679" 
d="M410 0h-271q0 171 83 340q80 164 243 311h-430v185h620v-160q-245 -291 -245 -676z" />
    <glyph glyph-name="eight.dnom" horiz-adv-x="772" 
d="M590 440q135 -76 135 -192q0 -117 -96 -189q-95 -71 -246 -71q-167 0 -251 62q-85 63 -85 165q0 124 119 193q-105 76 -105 186q0 115 90 185q88 69 238 69q161 0 243 -62q81 -62 81 -149q0 -134 -123 -197zM410 674q-43 0 -66 -20q-22 -19 -22 -48q0 -35 31 -57
q30 -21 100 -51q43 50 43 104q0 29 -23 50q-24 22 -63 22zM369 162q96 0 96 74q0 13 -9 25t-32 24q-16 9 -39 19q-15 7 -53 22q-3 1 -7 3l-7 2q-4 2 -7 3q-37 -55 -37 -98q0 -33 26 -54q24 -20 69 -20z" />
    <glyph glyph-name="nine.dnom" horiz-adv-x="751" 
d="M375 848q325 0 325 -393q0 -467 -368 -467q-146 0 -246 61v184q95 -67 209 -67q69 0 107 32t53 105q-54 -20 -119 -20q-135 0 -211 70t-76 200q0 131 88 213t238 82zM387 430q44 0 80 10v39q0 99 -21 145t-77 46q-93 0 -93 -117q0 -65 26 -94t85 -29z" />
    <glyph glyph-name="zero.numr" horiz-adv-x="802" 
d="M401 545q-188 0 -269 109q-81 110 -81 327q0 214 81 319t269 105q189 0 270 -105t81 -319q0 -217 -81 -327q-81 -109 -270 -109zM401 1227q-71 0 -97 -51q-25 -50 -25 -195q0 -146 25 -202t97 -56q73 0 98 56t25 202q0 145 -25 195q-25 51 -98 51z" />
    <glyph glyph-name="one.numr" horiz-adv-x="479" 
d="M156 557v651h-123v160l203 31h141v-842h-221z" />
    <glyph glyph-name="two.numr" horiz-adv-x="716" 
d="M662 741l-13 -184h-596v184q369 205 369 359q0 127 -129 127q-99 0 -227 -68v184q126 62 270 62q146 0 233 -70q86 -69 86 -219q0 -81 -32 -144q-33 -65 -94 -109t-107 -68q-57 -29 -111 -50v-4h351z" />
    <glyph glyph-name="three.numr" horiz-adv-x="735" 
d="M492 997v-6q93 -18 143 -68q49 -49 49 -120q0 -130 -94 -194t-250 -64q-167 0 -289 61v191q119 -74 252 -74q154 0 154 90q0 88 -178 88h-109v160h109q172 0 172 86q0 80 -142 80q-109 0 -239 -68v184q118 62 276 62q141 0 233 -55q93 -56 93 -166q0 -148 -180 -187z" />
    <glyph glyph-name="four.numr" horiz-adv-x="784" 
d="M739 692h-98v-135h-221v135h-387v197l399 510h209v-522h98v-185zM420 877v200l-166 -200h166z" />
    <glyph glyph-name="five.numr" horiz-adv-x="704" 
d="M254 1208v-98q42 8 88 8q138 0 227 -65q90 -66 90 -207q0 -145 -88 -223q-89 -78 -235 -78q-163 0 -285 61v191q128 -74 228 -74q79 0 115 23q38 24 38 81t-40 84q-41 27 -128 27q-76 0 -182 -27v482h547v-185h-375z" />
    <glyph glyph-name="six.numr" horiz-adv-x="751" 
d="M416 1110q134 0 211 -71q75 -69 75 -199q0 -131 -88 -213t-237 -82q-326 0 -326 393q0 467 369 467q145 0 246 -62v-184q-97 68 -209 68q-70 0 -108 -32q-37 -31 -52 -105q54 20 119 20zM383 723q92 0 92 117q0 66 -25 94q-26 29 -85 29q-41 0 -80 -11v-39
q0 -100 20 -144q21 -46 78 -46z" />
    <glyph glyph-name="seven.numr" horiz-adv-x="679" 
d="M410 557h-271q0 171 83 340q80 164 243 311h-430v185h620v-160q-245 -291 -245 -676z" />
    <glyph glyph-name="eight.numr" horiz-adv-x="772" 
d="M590 997q135 -77 135 -192q0 -117 -96 -189q-95 -71 -246 -71q-167 0 -251 62q-85 63 -85 165q0 124 119 193q-105 77 -105 186q0 115 90 185q89 69 238 69q161 0 243 -62q81 -61 81 -149q0 -134 -123 -197zM410 1231q-43 0 -66 -20q-22 -19 -22 -48q0 -35 31 -57
q30 -21 100 -51q43 50 43 104q0 29 -23 50q-24 22 -63 22zM369 719q96 0 96 74q0 13 -9 25t-32 24q-16 9 -39 19q-15 7 -53 22q-3 1 -7 3l-7 2q-4 2 -7 3q-37 -55 -37 -98q0 -33 26 -54q24 -20 69 -20z" />
    <glyph glyph-name="nine.numr" horiz-adv-x="751" 
d="M375 1405q325 0 325 -393q0 -467 -368 -467q-146 0 -246 61v185q97 -68 209 -68q69 0 107 32t53 105q-54 -20 -119 -20q-135 0 -211 70t-76 200q0 131 88 213t238 82zM387 987q44 0 80 10v39q0 98 -21 145q-21 46 -77 46q-93 0 -93 -117q0 -65 26 -94t85 -29z" />
    </font>
</defs>
</svg>
